osu file format v14

[General]
AudioFilename: audio.mp3
AudioLeadIn: 0
PreviewTime: 67221
Countdown: 0
SampleSet: Soft
StackLeniency: 0.7
Mode: 0
LetterboxInBreaks: 0
WidescreenStoryboard: 0

[Editor]
DistanceSpacing: 1.3
BeatDivisor: 4
GridSize: 4
TimelineZoom: 1.1

[Metadata]
Title:Bazaar
TitleUnicode:Bazaar
Artist:KSHMR & Marnik
ArtistUnicode:KSHMR & Marnik
Creator:Reynolduh
Version:Normal
Source:
Tags:electro house cut short edit sunburn goa 2015 official anthem fruityenloops
BeatmapID:1460831
BeatmapSetID:690204

[Difficulty]
HPDrainRate:3.3
CircleSize:3
OverallDifficulty:3.6
ApproachRate:4
SliderMultiplier:1.2
SliderTickRate:1

[Events]
//Background and Video events
0,0,"anime bazaar image cause why not.png",0,0
//Break Periods
2,24096,37307
2,54096,60276
//Storyboard Layer 0 (Background)
//Storyboard Layer 1 (Fail)
//Storyboard Layer 2 (Pass)
//Storyboard Layer 3 (Foreground)
//Storyboard Sound Samples

[TimingPoints]
1841,731.707317073171,4,2,0,100,1,0
2570,582.52427184466,4,2,0,100,1,0
9560,571.428571428571,4,2,0,100,1,0
11198,571.428571428571,4,2,0,100,1,0
11769,545.454545454546,4,2,0,100,1,0
16132,521.739130434783,4,2,0,100,1,0
18218,530.973451327434,4,2,0,100,1,0
20346,468.75,4,2,0,100,1,0
24096,-100,4,2,0,100,0,0
39096,-100,4,2,0,100,0,0
46596,-100,4,2,0,100,0,0
61596,-100,4,2,0,100,0,0
65346,-100,4,2,0,100,0,0
69096,-90.9090909090909,4,2,0,100,0,1
76127,-90.9090909090909,4,2,0,100,0,0
76596,-90.9090909090909,4,2,0,100,0,1
82221,-100,4,2,0,100,0,0
84096,-90.9090909090909,4,2,0,100,0,1
91127,-90.9090909090909,4,2,0,100,0,0
91596,-90.9090909090909,4,2,0,100,0,1
97221,-100,4,2,0,100,0,0

[HitObjects]
16,24,1841,6,0,L|80:24,1,60,0|0,0:0|0:0,0:0:0:0:
44,92,2570,6,0,P|44:152|76:208,1,120,2|0,0:0|0:0,0:0:0:0:
116,248,3443,2,0,P|116:278|100:306,1,60,0|2,0:0|0:0,0:0:0:0:
101,303,4317,1,0,0:0:0:0:
208,356,4900,6,0,B|248:356|268:332|268:332|289:306|324:308,1,120,2|0,0:0|0:0,0:0:0:0:
372,288,5773,2,0,P|372:257|356:229,1,60,0|2,0:0|0:0,0:0:0:0:
188,60,7230,6,0,P|224:4|264:48,1,120,2|0,0:0|0:0,0:0:0:0:
288,76,8103,2,0,P|307:98|337:110,1,60,0|2,0:0|0:0,0:0:0:0:
334,109,8977,1,0,0:0:0:0:
443,164,9560,6,0,P|406:207|349:228,1,120,2|0,0:0|0:0,0:0:0:0:
291,240,10417,2,0,B|249:247|213:271,1,60,0|2,0:0|0:0,0:0:0:0:
167,338,11198,5,0,0:0:0:0:
107,338,11483,1,0,0:0:0:0:
135,282,11769,6,0,B|153:246|141:217|141:217|129:186|147:156,1,120,2|0,0:0|0:0,0:0:0:0:
151,106,12587,2,0,P|169:84|197:73,1,60,0|2,0:0|0:0,0:0:0:0:
319,74,13405,1,0,0:0:0:0:
427,130,13950,6,0,P|425:195|369:178,1,120,2|0,0:0|0:0,0:0:0:0:
327,178,14769,2,0,P|297:174|270:186,1,60,0|2,0:0|0:0,0:0:0:0:
92,348,16132,6,0,P|157:355|218:329,1,120,2|0,0:0|0:0,0:0:0:0:
260,308,16914,1,0,0:0:0:0:
304,264,17175,1,2,0:0:0:0:
244,159,17697,1,0,0:0:0:0:
256,192,18218,12,0,20341,0:0:0:0:
304,264,38627,6,0,L|360:312,1,60,2|0,0:0|0:0,0:0:0:0:
396,340,39096,1,8,0:0:0:0:
396,340,39564,2,0,L|452:292,1,60,10|0,0:0|0:0,0:0:0:0:
488,260,40033,1,8,0:0:0:0:
488,260,40502,1,8,0:0:0:0:
432,192,40853,6,0,P|388:160|352:160,1,90,2|0,0:0|0:0,0:0:0:0:
296,172,41439,2,0,P|259:169|232:146,1,60,8|0,0:0|0:0,0:0:0:0:
200,112,41908,1,10,0:0:0:0:
204,116,42845,6,0,L|269:84,1,60,10|0,0:0|0:0,0:0:0:0:
307,61,43314,1,8,0:0:0:0:
364,83,43549,1,0,0:0:0:0:
360,144,43783,2,0,P|336:212|292:256,1,120,10|8,0:0|0:0,0:0:0:0:
220,276,44603,6,0,L|116:276,1,90,2|2,0:0|0:0,0:0:0:0:
68,272,45189,1,8,0:0:0:0:
8,272,45424,2,0,B|0:248|8:234|8:234|16:219|11:213,1,60,0|0,0:0|0:0,0:0:0:0:
88,120,46127,5,10,0:0:0:0:
130,77,46361,1,0,0:0:0:0:
172,119,46596,6,0,L|264:211,1,120,10|8,0:0|0:0,0:0:0:0:
299,246,47299,1,0,0:0:0:0:
299,305,47533,2,0,P|216:310|169:281,1,120,10|8,0:0|0:0,0:0:0:0:
121,231,48353,6,0,B|99:238|94:258|94:258|88:278|60:292,1,90,2|0,0:0|0:0,0:0:0:0:
4,316,48939,1,10,0:0:0:0:
46,358,49174,1,0,0:0:0:0:
105,358,49408,1,10,0:0:0:0:
345,358,50346,6,0,P|367:323|366:295,1,60,10|0,0:0|0:0,0:0:0:0:
365,245,50814,2,0,P|389:211|415:202,1,60,10|0,0:0|0:0,0:0:0:0:
465,197,51283,1,10,0:0:0:0:
465,197,51752,1,8,0:0:0:0:
460,108,52103,6,0,P|437:59|406:42,1,90,2|0,0:0|0:0,0:0:0:0:
347,32,52689,2,0,P|327:54|318:82,1,60,10|0,0:0|0:0,0:0:0:0:
312,142,53158,1,10,0:0:0:0:
328,192,61596,5,2,0:0:0:0:
297,76,62064,1,2,0:0:0:0:
177,65,62533,1,2,0:0:0:0:
104,160,63002,1,2,0:0:0:0:
137,275,63471,5,2,0:0:0:0:
256,288,63939,1,2,0:0:0:0:
328,192,64408,1,2,0:0:0:0:
297,76,64877,1,2,0:0:0:0:
231,176,65346,6,0,L|185:243,1,60,2|2,0:0|0:0,0:0:0:0:
197,286,65814,2,0,L|263:331,1,60,2|2,0:0|0:0,0:0:0:0:
304,320,66283,2,0,L|349:253,1,60,2|2,0:0|0:0,0:0:0:0:
339,209,66752,2,0,L|272:163,1,60,2|2,0:0|0:0,0:0:0:0:
289,175,68627,6,0,L|339:209,1,60,10|2,0:0|0:0,0:0:0:0:
393,245,69096,5,10,0:0:0:0:
444,120,69564,2,0,B|455:78|455:78|428:42,1,66.0000020141602,2|0,0:0|0:0,0:0:0:0:
378,47,70033,1,8,0:0:0:0:
248,74,70502,6,0,B|222:111|222:111|233:151,1,66.0000020141602,2|0,0:0|0:0,0:0:0:0:
250,193,70971,1,8,0:0:0:0:
272,254,71205,2,0,L|298:323,1,66.0000020141602,2|2,0:0|0:0,0:0:0:0:
343,270,71674,2,0,B|374:229|374:229|404:211,1,66.0000020141602,2|8,0:0|0:0,0:0:0:0:
488,137,72377,5,2,0:0:0:0:
502,201,72611,1,0,0:0:0:0:
467,259,72846,6,0,B|444:286|435:326|435:326|372:362,2,132.00000402832,10|2|10,0:0|0:0|0:0,0:0:0:0:
502,201,74017,1,0,0:0:0:0:
488,137,74252,2,0,B|491:91|491:91|478:84|470:70,1,66.0000020141602,2|0,0:0|0:0,0:0:0:0:
425,35,74721,6,0,P|356:34|297:88,1,132.00000402832,8|2,0:0|0:0,0:0:0:0:
279,130,75424,1,2,0:0:0:0:
277,195,75658,1,8,0:0:0:0:
227,317,76127,6,0,B|186:324|186:324|152:315,1,66.0000020141602,2|0,0:0|0:0,0:0:0:0:
107,281,76596,5,10,0:0:0:0:
31,173,77064,2,0,B|50:151|50:151|66:160|86:159,1,66.0000020141602,2|0,0:0|0:0,0:0:0:0:
151,168,77533,1,10,0:0:0:0:
259,243,78002,6,0,L|317:189,1,66.0000020141602,2|0,0:0|0:0,0:0:0:0:
352,152,78471,1,10,0:0:0:0:
399,104,78705,2,0,B|433:71|433:71|430:38,1,66.0000020141602,2|2,0:0|0:0,0:0:0:0:
379,11,79174,2,0,P|330:13|305:44,1,66.0000020141602,2|8,0:0|0:0,0:0:0:0:
219,109,79877,5,2,0:0:0:0:
219,174,80111,1,0,0:0:0:0:
256,192,80346,12,0,82221,0:0:0:0:
219,174,84096,5,10,0:0:0:0:
216,44,84564,2,0,B|256:20|256:20|292:32,1,66.0000020141602,2|0,0:0|0:0,0:0:0:0:
332,56,85033,1,10,0:0:0:0:
428,148,85502,6,0,B|424:172|444:196|444:196|436:220,1,66.0000020141602,2|0,0:0|0:0,0:0:0:0:
416,272,85971,1,10,0:0:0:0:
360,304,86205,2,0,P|312:320|280:308,1,66.0000020141602,2|2,0:0|0:0,0:0:0:0:
296,248,86674,2,0,B|296:216|296:216|276:192|288:168,1,66.0000020141602,2|8,0:0|0:0,0:0:0:0:
240,64,87377,5,2,0:0:0:0:
175,51,87611,1,0,0:0:0:0:
121,90,87846,2,8,B|99:128|104:160|104:160|106:186|85:230,2,132.00000402832,10|2|10,0:0|0:0|0:0,0:0:0:0:
175,51,89017,1,0,0:0:0:0:
241,62,89252,2,0,B|275:57|288:74|288:74|307:71,1,66.0000020141602,2|0,0:0|0:0,0:0:0:0:
368,72,89721,6,0,P|411:87|424:107,1,66.0000020141602,10|2,0:0|0:0,0:0:0:0:
428,167,90189,1,2,0:0:0:0:
430,233,90424,2,0,P|430:277|414:302,1,66.0000020141602,0|8,0:0|0:0,0:0:0:0:
288,296,91127,6,0,B|296:265|304:249|304:249|303:228,1,66.0000020141602,2|0,0:0|0:0,0:0:0:0:
304,164,91596,1,10,0:0:0:0:
239,50,92064,2,0,B|189:73|189:73|176:108,1,66.0000020141602,2|0,0:0|0:0,0:0:0:0:
156,144,92533,1,10,0:0:0:0:
116,272,93002,5,2,0:0:0:0:
152,324,93236,1,0,0:0:0:0:
216,332,93471,2,0,P|263:317|274:289,1,66.0000020141602,10|2,0:0|0:0,0:0:0:0:
280,240,93939,2,0,B|289:207|281:185|281:185|305:171,1,66.0000020141602,2|2,0:0|0:0,0:0:0:0:
344,144,94408,1,8,0:0:0:0:
468,96,94877,5,2,0:0:0:0:
500,153,95111,1,0,0:0:0:0:
256,192,95346,12,4,99096,0:0:0:0:
