osu file format v14

[General]
AudioFilename: audio.mp3
AudioLeadIn: 0
PreviewTime: 67221
Countdown: 0
SampleSet: Soft
StackLeniency: 0.7
Mode: 0
LetterboxInBreaks: 0
WidescreenStoryboard: 1

[Editor]
DistanceSpacing: 1
BeatDivisor: 4
GridSize: 4
TimelineZoom: 0.5999997

[Metadata]
Title:Bazaar
TitleUnicode:Bazaar
Artist:KSHMR & Marnik
ArtistUnicode:KSHMR & Marnik
Creator:Reynolduh
Version:Easy
Source:
Tags:electro house cut short edit sunburn goa 2015 official anthem fruityenloops
BeatmapID:1460828
BeatmapSetID:690204

[Difficulty]
HPDrainRate:2
CircleSize:2.5
OverallDifficulty:2
ApproachRate:2.3
SliderMultiplier:1
SliderTickRate:1

[Events]
//Background and Video events
0,0,"anime bazaar image cause why not.png",0,0
//Break Periods
2,24096,37103
2,54096,60072
//Storyboard Layer 0 (Background)
//Storyboard Layer 1 (Fail)
//Storyboard Layer 2 (Pass)
//Storyboard Layer 3 (Foreground)
//Storyboard Sound Samples

[TimingPoints]
1841,731.707317073171,4,2,0,100,1,0
2570,582.52427184466,4,2,0,100,1,0
9560,571.428571428571,4,2,0,100,1,0
11198,571.428571428571,4,2,0,100,1,0
11769,545.454545454546,4,2,0,100,1,0
16132,521.739130434783,4,2,0,100,1,0
18218,530.973451327434,4,2,0,100,1,0
20346,468.75,4,2,0,100,1,0
24096,-100,4,2,0,100,0,0
39096,-100,4,2,0,100,0,0
46596,-100,4,2,0,100,0,0
61596,-100,4,2,0,100,0,0
65346,-100,4,2,0,100,0,0
67221,-100,4,2,0,100,0,0
69096,-100,4,2,0,100,0,1
76127,-100,4,2,0,100,0,0
76596,-100,4,2,0,100,0,1
82221,-100,4,2,0,100,0,0
91127,-100,4,2,0,100,0,0
91596,-100,4,2,0,100,0,1
97221,-100,4,2,0,100,0,0

[HitObjects]
44,45,1841,6,0,L|44:109,1,50,0|0,0:0|0:0,0:0:0:0:
44,157,2570,6,0,P|92:261|180:309,1,200,2|2,0:0|0:0,0:0:0:0:
260,318,4317,1,0,0:0:0:0:
359,305,4900,6,0,P|463:257|511:169,1,200,2|2,0:0|0:0,0:0:0:0:
509,87,6647,1,0,0:0:0:0:
420,39,7230,6,0,B|365:39|330:78|330:78|284:118|231:121,1,200,2|2,0:0|0:0,0:0:0:0:
143,134,8977,1,0,0:0:0:0:
59,192,9560,6,0,B|96:237|147:237|147:237|207:237|238:269,1,200,2|2,0:0|0:0,0:0:0:0:
299,327,11198,2,0,L|353:327,1,50,0|0,0:0|0:0,0:0:0:0:
405,319,11769,6,0,P|461:257|388:193,1,200,2|2,0:0|0:0,0:0:0:0:
290,206,13405,1,0,0:0:0:0:
192,216,13950,6,0,P|136:154|209:90,1,200,2|2,0:0|0:0,0:0:0:0:
305,103,15586,1,0,0:0:0:0:
405,130,16132,6,0,B|440:212|440:212|396:264|328:256|328:256|292:176,1,300,2|0,0:0|0:0,0:0:0:0:
256,192,18218,12,0,20341,0:0:0:0:
310,55,38627,5,2,0:0:0:0:
464,200,39096,6,0,B|477:260|468:324|468:324|392:375,1,200,8|8,0:0|0:0,0:0:0:0:
258,280,40502,1,8,0:0:0:0:
165,242,40971,2,0,B|102:200|102:200|93:136|106:76,1,200,10|10,0:0|0:0,0:0:0:0:
305,55,42846,5,10,0:0:0:0:
305,154,43314,1,8,0:0:0:0:
305,254,43783,2,0,B|311:291|305:311|305:311|297:333|306:361,1,100,10|8,0:0|0:0,0:0:0:0:
403,351,44721,5,8,0:0:0:0:
400,252,45189,2,0,B|393:214|400:195|400:195|408:173|399:145,1,100,8|10,0:0|0:0,0:0:0:0:
400,52,46127,1,10,0:0:0:0:
301,49,46596,6,0,L|189:45,1,100,10|8,0:0|0:0,0:0:0:0:
101,45,47533,2,0,P|97:101|101:149,1,100,10|8,0:0|0:0,0:0:0:0:
201,149,48471,2,0,L|313:153,1,100,8|10,0:0|0:0,0:0:0:0:
401,153,49408,2,0,P|405:209|401:257,1,100,10|0,0:0|0:0,0:0:0:0:
377,349,50346,6,0,P|317:361|273:349,2,100,10|10|10,0:0|0:0|0:0,0:0:0:0:
469,309,51752,1,8,0:0:0:0:
497,213,52221,2,0,P|509:153|497:109,2,100,8|10|0,0:0|0:0|0:0,0:0:0:0:
96,316,61596,6,0,L|116:204,1,100,2|2,0:0|0:0,0:0:0:0:
192,156,62533,2,0,L|211:268,1,100,2|2,0:0|0:0,0:0:0:0:
288,315,63471,6,0,L|308:203,1,100,2|2,0:0|0:0,0:0:0:0:
384,156,64408,2,0,L|403:268,1,100,2|2,0:0|0:0,0:0:0:0:
256,192,65346,12,10,67221,0:0:0:0:
404,260,68627,5,10,0:0:0:0:
324,320,69096,6,0,B|276:311|276:311|264:296|228:284,1,100,10|2,0:0|0:0,0:0:0:0:
160,215,70033,2,0,B|191:204|203:189|203:189|251:180,1,100,8|2,0:0|0:0,0:0:0:0:
351,176,70971,1,8,0:0:0:0:
404,260,71439,1,2,0:0:0:0:
324,320,71908,1,8,0:0:0:0:
232,285,72377,1,2,0:0:0:0:
160,216,72846,6,0,B|112:96|112:96|156:36|252:16|252:16|344:28|408:100|408:100|356:216,1,600,10|8,0:0|0:0,0:0:0:0:
264,180,76127,1,2,0:0:0:0:
240,278,76596,6,0,B|200:316|200:316|143:341,1,100,10|2,0:0|0:0,0:0:0:0:
73,282,77533,2,0,B|91:240|91:240|129:201,1,100,10|2,0:0|0:0,0:0:0:0:
208,140,78471,1,10,0:0:0:0:
312,181,78939,1,2,0:0:0:0:
312,281,79408,1,8,0:0:0:0:
225,330,79877,1,2,0:0:0:0:
256,192,80346,12,0,82221,0:0:0:0:
88,66,83627,5,0,0:0:0:0:
188,64,84096,6,0,B|236:73|236:73|248:88|284:100,1,100,10|2,0:0|0:0,0:0:0:0:
352,169,85033,2,0,B|321:180|309:195|309:195|261:204,1,100,10|2,0:0|0:0,0:0:0:0:
161,208,85971,1,10,0:0:0:0:
108,124,86439,1,2,0:0:0:0:
188,64,86908,1,8,0:0:0:0:
280,99,87377,1,2,0:0:0:0:
352,168,87846,6,0,B|400:288|400:288|356:348|260:368|260:368|168:356|104:284|104:284|156:168,1,600,10|8,0:0|0:0,0:0:0:0:
248,204,91127,1,2,0:0:0:0:
272,106,91596,6,0,B|312:68|312:68|369:43,1,100,10|2,0:0|0:0,0:0:0:0:
439,102,92533,2,0,B|421:144|421:144|383:183,1,100,10|2,0:0|0:0,0:0:0:0:
304,244,93471,1,10,0:0:0:0:
200,203,93939,5,2,0:0:0:0:
200,103,94408,1,8,0:0:0:0:
287,54,94877,1,2,0:0:0:0:
256,192,95346,12,4,99096,0:0:0:0:
