osu file format v14

[General]
AudioFilename: audio.mp3
AudioLeadIn: 0
PreviewTime: 43886
Countdown: 0
SampleSet: Soft
StackLeniency: 0.7
Mode: 3
LetterboxInBreaks: 0
SpecialStyle: 0
WidescreenStoryboard: 0

[Editor]
DistanceSpacing: 0.3
BeatDivisor: 4
GridSize: 4
TimelineZoom: 2

[Metadata]
Title:Illusion of Inflict
TitleUnicode:Illusion of Inflict
Artist:KRUX
ArtistUnicode:KRUX
Creator:Reba
Version:Ramuchi's 7K Easy
Source:BMS
Tags:BOFU2016 HyuN 絃P Drum Bass Piano Kawawa Wonki Lude Ramuchi Fontes R_e_m_u_r_i_n_g Critical_Star
BeatmapID:1122859
BeatmapSetID:529574

[Difficulty]
HPDrainRate:7
CircleSize:7
OverallDifficulty:7
ApproachRate:5
SliderMultiplier:1.4
SliderTickRate:1

[Events]
//Background and Video events
0,0,"Illusion of inflict BG.jpg",0,0
//Break Periods
//Storyboard Layer 0 (Background)
//Storyboard Layer 1 (Fail)
//Storyboard Layer 2 (Pass)
//Storyboard Layer 3 (Foreground)
//Storyboard Sound Samples

[TimingPoints]
122,352.941176470588,4,2,1,30,1,0

[HitObjects]
36,192,122,128,0,827:0:0:0:30:CrashR.wav
402,192,122,1,0,0:0:0:0:
475,192,827,128,0,1180:0:0:0:0:
329,192,1180,128,0,1533:0:0:0:0:
109,192,1533,128,0,2239:0:0:0:0:
402,192,2239,128,0,2945:0:0:0:0:
36,192,2945,128,0,3651:0:0:0:0:
329,192,3651,128,0,4004:0:0:0:0:
109,192,4004,128,0,4357:0:0:0:0:
402,192,4357,128,0,5063:0:0:0:0:
182,192,5063,128,0,5769:0:0:0:0:
109,192,5769,128,0,6474:0:0:0:0:
402,192,6474,128,0,6827:0:0:0:0:
36,192,6827,128,0,7180:0:0:0:0:
475,192,7180,128,0,7886:0:0:0:0:
182,192,7886,128,0,8592:0:0:0:0:
36,192,8592,128,0,8945:0:0:0:0:
475,192,8945,128,0,9298:0:0:0:0:
182,192,9298,128,0,9651:0:0:0:0:
329,192,9651,128,0,10004:0:0:0:0:
36,192,10004,1,0,0:0:0:30:CrashR.wav
475,192,10004,1,0,0:0:0:30:BaSS.wav
256,192,10357,1,0,0:0:0:30:KicK.wav
109,192,10710,1,0,0:0:0:0:
402,192,11063,1,0,0:0:0:30:KicK.wav
182,192,11416,1,0,0:0:0:30:BaSS.wav
475,192,11769,1,0,0:0:0:30:KicK.wav
109,192,12121,1,0,0:0:0:0:
402,192,12474,1,0,0:0:0:30:KicK.wav
256,192,12827,1,0,0:0:0:30:BaSS.wav
36,192,13180,1,0,0:0:0:30:KicK.wav
475,192,13533,1,0,0:0:0:0:
182,192,13886,1,0,0:0:0:30:KicK.wav
402,192,14239,1,0,0:0:0:30:BaSS.wav
109,192,14592,1,0,0:0:0:30:KicK.wav
329,192,14945,1,0,0:0:0:30:KicK.wav
182,192,15298,128,0,15651:0:0:0:30:KicK.wav
402,192,15651,1,0,0:0:0:30:BaSS.wav
36,192,16004,1,0,0:0:0:30:KicK.wav
256,192,16357,1,0,0:0:0:0:
475,192,16710,1,0,0:0:0:30:KicK.wav
109,192,17063,1,0,0:0:0:30:BaSS.wav
402,192,17416,1,0,0:0:0:30:KicK.wav
182,192,17769,1,0,0:0:0:0:
475,192,18121,1,0,0:0:0:30:KicK.wav
36,192,18474,1,0,0:0:0:30:BaSS.wav
256,192,18827,1,0,0:0:0:30:KicK.wav
182,192,19180,1,0,0:0:0:0:
402,192,19533,1,0,0:0:0:30:KicK.wav
256,192,19886,128,0,21298:0:0:0:30:KicK.wav
36,192,19886,1,0,0:0:0:0:
182,192,20239,1,0,0:0:0:30:Snare.wav
475,192,20592,1,0,0:0:0:30:Snare.wav
329,192,20945,1,0,0:0:0:30:Snare.wav
402,192,21298,1,0,0:0:0:30:CrashR.wav
109,192,21298,1,0,0:0:0:30:BaSS.wav
109,192,22004,1,0,0:0:0:30:KicK.wav
402,192,22004,1,0,0:0:0:0:
256,192,22357,1,0,0:0:0:30:BaSS.wav
256,192,22710,1,0,0:0:0:30:BaSS.wav
182,192,23416,1,0,0:0:0:30:KicK.wav
475,192,23416,1,0,0:0:0:0:
36,192,23769,1,0,0:0:0:30:KicK.wav
329,192,23769,1,0,0:0:0:0:
256,192,24121,1,0,0:0:0:30:BaSS.wav
182,192,24827,1,0,0:0:0:30:KicK.wav
329,192,24827,1,0,0:0:0:0:
256,192,25180,1,0,0:0:0:30:BaSS.wav
36,192,25533,1,0,0:0:0:30:BaSS.wav
329,192,25710,1,0,0:0:0:30:KicK.wav
402,192,25710,1,0,0:0:0:0:
475,192,26063,1,0,0:0:0:30:BaSS.wav
182,192,26239,1,0,0:0:0:30:KicK.wav
109,192,26239,1,0,0:0:0:0:
36,192,26592,128,0,26945:0:0:0:30:KicK.wav
475,192,26592,128,0,26945:0:0:0:0:
256,192,26945,1,0,0:0:0:30:BaSS.wav
109,192,27651,1,0,0:0:0:30:KicK.wav
402,192,27651,1,0,0:0:0:0:
256,192,28004,1,0,0:0:0:30:BaSS.wav
256,192,28357,1,0,0:0:0:30:BaSS.wav
329,192,29063,1,0,0:0:0:30:KicK.wav
475,192,29063,1,0,0:0:0:0:
182,192,29416,1,0,0:0:0:30:KicK.wav
36,192,29416,1,0,0:0:0:0:
402,192,29769,1,0,0:0:0:30:BaSS.wav
475,192,30474,128,0,31180:0:0:0:30:KicK.wav
36,192,30474,1,0,0:0:0:0:
256,192,30827,1,0,0:0:0:30:BaSS.wav
36,192,31180,128,0,31886:0:0:0:30:BaSS.wav
475,192,31886,128,0,32592:0:0:0:30:KicK.wav
329,192,31886,1,0,0:0:0:0:
36,192,32592,1,0,0:0:0:30:CrashR.wav
182,192,32592,1,0,0:0:0:30:BaSS.wav
329,192,33298,1,0,0:0:0:30:KicK.wav
475,192,33298,1,0,0:0:0:0:
109,192,33651,1,0,0:0:0:30:BaSS.wav
402,192,34004,1,0,0:0:0:30:BaSS.wav
36,192,34710,1,0,0:0:0:30:KicK.wav
182,192,34710,1,0,0:0:0:0:
36,192,35063,1,0,0:0:0:30:KicK.wav
182,192,35063,1,0,0:0:0:0:
256,192,35416,1,0,0:0:0:30:BaSS.wav
109,192,36121,1,0,0:0:0:30:KicK.wav
402,192,36121,1,0,0:0:0:0:
256,192,36474,1,0,0:0:0:30:BaSS.wav
109,192,36827,1,0,0:0:0:30:BaSS.wav
329,192,37004,1,0,0:0:0:30:KicK.wav
475,192,37004,1,0,0:0:0:0:
36,192,37357,1,0,0:0:0:30:BaSS.wav
256,192,37533,1,0,0:0:0:30:KicK.wav
402,192,37533,1,0,0:0:0:0:
329,192,37886,128,0,38239:0:0:0:30:KicK.wav
182,192,37886,128,0,38239:0:0:0:0:
36,192,38239,1,0,0:0:0:30:BaSS.wav
256,192,38592,1,0,0:0:0:30:KicK.wav
402,192,38592,1,0,0:0:0:0:
109,192,38945,1,0,0:0:0:30:BaSS.wav
329,192,39298,1,0,0:0:0:30:KicK.wav
475,192,39298,1,0,0:0:0:0:
402,192,39651,1,0,0:0:0:30:BaSS.wav
256,192,40004,1,0,0:0:0:30:KicK.wav
109,192,40004,1,0,0:0:0:0:
329,192,40357,1,0,0:0:0:30:BaSS.wav
36,192,40710,128,0,41063:0:0:0:30:KicK.wav
182,192,40710,128,0,41063:0:0:0:0:
402,192,41063,128,0,41769:0:0:0:30:KicK.wav
109,192,41769,128,0,42474:0:0:0:30:KicK.wav
475,192,42474,128,0,43886:0:0:0:30:KicK.wav
329,192,42474,1,0,0:0:0:0:
36,192,42827,1,0,0:0:0:30:BaSS.wav
182,192,43180,1,0,0:0:0:30:BaSS.wav
256,192,43533,1,0,0:0:0:30:BaSS.wav
36,192,43886,128,0,44592:0:0:0:30:CrashR.wav
329,192,44592,128,0,45298:0:0:0:0:
475,192,45298,128,0,46004:0:0:0:30:BaSS.wav
182,192,46004,128,0,46710:0:0:0:0:
402,192,46710,128,0,47416:0:0:0:30:BaSS.wav
109,192,47416,128,0,48121:0:0:0:0:
36,192,48121,128,0,48827:0:0:0:30:BaSS.wav
475,192,48827,128,0,49533:0:0:0:30:KicK.wav
109,192,49533,128,0,50239:0:0:0:30:BaSS.wav
402,192,50239,128,0,50945:0:0:0:0:
36,192,50945,128,0,51651:0:0:0:30:BaSS.wav
475,192,51651,128,0,52357:0:0:0:0:
329,192,52357,128,0,53063:0:0:0:30:BaSS.wav
182,192,53063,128,0,53769:0:0:0:0:
329,192,53769,128,0,54474:0:0:0:30:KicK.wav
36,192,53769,128,0,55180:0:0:0:0:
475,192,54474,128,0,55180:0:0:0:30:Snare.wav
182,192,55180,1,0,0:0:0:30:CrashR.wav
256,192,55533,1,0,0:0:0:30:KicK.wav
402,192,55533,1,0,0:0:0:0:
109,192,55886,1,0,0:0:0:30:BaSS.wav
402,192,56239,1,0,0:0:0:30:KicK.wav
182,192,56239,1,0,0:0:0:0:
36,192,56592,1,0,0:0:0:30:BaSS.wav
109,192,56945,1,0,0:0:0:30:KicK.wav
329,192,56945,1,0,0:0:0:0:
256,192,57298,1,0,0:0:0:30:BaSS.wav
475,192,57651,128,0,58004:0:0:0:30:KicK.wav
329,192,57651,1,0,0:0:0:0:
109,192,58004,1,0,0:0:0:30:BaSS.wav
329,192,58357,1,0,0:0:0:30:KicK.wav
36,192,58357,1,0,0:0:0:0:
182,192,58710,1,0,0:0:0:30:BaSS.wav
402,192,59063,1,0,0:0:0:30:KicK.wav
256,192,59063,1,0,0:0:0:0:
109,192,59416,1,0,0:0:0:30:BaSS.wav
329,192,59769,1,0,0:0:0:30:KicK.wav
475,192,59769,1,0,0:0:0:0:
256,192,60121,1,0,0:0:0:30:BaSS.wav
36,192,60474,128,0,60827:0:0:0:30:KicK.wav
182,192,60474,1,0,0:0:0:0:
402,192,60827,1,0,0:0:0:30:BaSS.wav
256,192,61180,1,0,0:0:0:30:KicK.wav
475,192,61180,1,0,0:0:0:0:
109,192,61533,1,0,0:0:0:30:BaSS.wav
36,192,61886,1,0,0:0:0:30:KicK.wav
256,192,61886,1,0,0:0:0:0:
182,192,62239,1,0,0:0:0:30:BaSS.wav
402,192,62592,1,0,0:0:0:30:KicK.wav
475,192,62592,1,0,0:0:0:0:
329,192,62945,1,0,0:0:0:30:BaSS.wav
36,192,63298,128,0,63651:0:0:0:30:KicK.wav
182,192,63298,1,0,0:0:0:0:
402,192,63651,128,0,64357:0:0:0:30:KicK.wav
256,192,63651,1,0,0:0:0:0:
109,192,64357,128,0,65063:0:0:0:30:KicK.wav
36,192,64357,1,0,0:0:0:0:
475,192,65063,128,0,66474:0:0:0:30:KicK.wav
182,192,65063,128,0,65769:0:0:0:0:
36,192,65769,128,0,66474:0:0:0:30:BaSS.wav
256,192,66474,1,0,0:0:0:30:CrashR.wav
475,192,67180,1,0,0:0:0:0:
109,192,67886,1,0,0:0:0:0:
329,192,68592,1,0,0:0:0:0:
182,192,69298,1,0,0:0:0:0:
402,192,70004,1,0,0:0:0:0:
256,192,70710,1,0,0:0:0:0:
182,192,71416,1,0,0:0:0:0:
329,192,72121,1,0,0:0:0:0:
109,192,72827,1,0,0:0:0:0:
402,192,73533,1,0,0:0:0:0:
256,192,74239,1,0,0:0:0:0:
182,192,74945,1,0,0:0:0:0:
36,192,75651,1,0,0:0:0:0:
402,192,76357,1,0,0:0:0:0:
475,192,77063,1,0,0:0:0:0:
256,192,77416,128,0,77769:0:0:0:0:
402,192,77769,128,0,78474:0:0:0:30:CrashR.wav
329,192,78474,128,0,78651:0:0:0:30:KicK.wav
182,192,78651,128,0,78827:0:0:0:0:
109,192,78827,128,0,79004:0:0:0:30:BaSS.wav
256,192,79004,128,0,79180:0:0:0:0:
475,192,79180,128,0,79533:0:0:0:30:BaSS.wav
36,192,79533,128,0,79886:0:0:0:0:
182,192,79886,128,0,80239:0:0:0:30:KicK.wav
402,192,80239,128,0,80592:0:0:0:30:KicK.wav
109,192,80592,128,0,80945:0:0:0:30:BaSS.wav
475,192,80945,128,0,81298:0:0:0:0:
402,192,81298,128,0,81474:0:0:0:30:KicK.wav
329,192,81474,128,0,81651:0:0:0:0:
256,192,81651,128,0,81827:0:0:0:30:BaSS.wav
182,192,81827,128,0,82004:0:0:0:0:
36,192,82004,128,0,82710:0:0:0:30:BaSS.wav
402,192,82710,128,0,83416:0:0:0:30:KicK.wav
256,192,83416,128,0,83592:0:0:0:30:BaSS.wav
36,192,83592,128,0,83769:0:0:0:0:
109,192,83769,128,0,83945:0:0:0:0:
182,192,83945,128,0,84121:0:0:0:0:
475,192,84121,128,0,84474:0:0:0:30:KicK.wav
329,192,84474,128,0,84827:0:0:0:30:BaSS.wav
256,192,84827,128,0,85004:0:0:0:30:BaSS.wav
475,192,85004,128,0,85180:0:0:0:0:
402,192,85180,128,0,85357:0:0:0:0:
329,192,85357,128,0,85533:0:0:0:0:
36,192,85533,128,0,85886:0:0:0:30:KicK.wav
182,192,85886,128,0,86239:0:0:0:30:KicK.wav
256,192,86239,128,0,86945:0:0:0:30:BaSS.wav
109,192,86945,128,0,87210:0:0:0:30:KicK.wav
256,192,87210,128,0,87474:0:0:0:0:
402,192,87474,128,0,87651:0:0:0:0:
36,192,87651,128,0,89063:0:0:0:30:BaSS.wav
475,192,87651,128,0,88357:0:0:0:0:
256,192,88357,128,0,89063:0:0:0:30:KicK.wav
329,192,89063,128,0,89769:0:0:0:30:CrashR.wav
109,192,89769,128,0,89945:0:0:0:30:KicK.wav
182,192,89945,128,0,90121:0:0:0:0:
402,192,90121,128,0,90298:0:0:0:30:BaSS.wav
329,192,90298,128,0,90474:0:0:0:0:
256,192,90474,128,0,90827:0:0:0:30:BaSS.wav
36,192,90827,128,0,91180:0:0:0:0:
182,192,91180,128,0,91533:0:0:0:30:KicK.wav
475,192,91533,128,0,91886:0:0:0:30:KicK.wav
329,192,91886,128,0,92239:0:0:0:30:BaSS.wav
402,192,92239,128,0,92592:0:0:0:0:
36,192,92592,128,0,92857:0:0:0:30:KicK.wav
182,192,92857,128,0,93121:0:0:0:0:
329,192,93121,128,0,93298:0:0:0:0:
475,192,93298,128,0,94004:0:0:0:30:BaSS.wav
182,192,94004,128,0,94710:0:0:0:30:KicK.wav
402,192,94710,128,0,95416:0:0:0:30:BaSS.wav
256,192,95416,128,0,96121:0:0:0:30:BaSS.wav
109,192,96121,128,0,96827:0:0:0:30:BaSS.wav
256,192,96827,128,0,97533:0:0:0:30:BaSS.wav
475,192,97533,128,0,98945:0:0:0:30:KicK.wav
36,192,97533,128,0,98239:0:0:0:0:
182,192,98239,128,0,98592:0:0:0:30:KicK.wav
329,192,98592,128,0,98945:0:0:0:30:KicK.wav
402,192,98945,128,0,99651:0:0:0:30:KicK.wav
36,192,98945,128,0,100357:0:0:0:0:
256,192,99651,128,0,100357:0:0:0:30:BaSS.wav
402,192,100357,128,0,101769:0:0:0:30:CrashR.wav
109,192,100357,1,0,0:0:0:30:KicK.wav
36,192,100886,1,0,0:0:0:30:KicK.wav
256,192,101416,1,0,0:0:0:30:KicK.wav
109,192,101769,128,0,103180:0:0:0:30:KicK.wav
329,192,101769,1,0,0:0:0:0:
475,192,102298,1,0,0:0:0:30:KicK.wav
256,192,102827,1,0,0:0:0:30:KicK.wav
36,192,103180,128,0,104592:0:0:0:30:CrashR.wav
402,192,103180,1,0,0:0:0:30:KicK.wav
329,192,103710,1,0,0:0:0:30:KicK.wav
182,192,104239,1,0,0:0:0:30:KicK.wav
475,192,104592,128,0,106004:0:0:0:30:CrashR.wav
256,192,104592,1,0,0:0:0:30:KicK.wav
109,192,105121,1,0,0:0:0:30:KicK.wav
36,192,105651,1,0,0:0:0:30:KicK.wav
182,192,106004,128,0,107416:0:0:0:30:CrashR.wav
402,192,106004,1,0,0:0:0:30:KicK.wav
475,192,106533,1,0,0:0:0:30:KicK.wav
36,192,107063,1,0,0:0:0:30:KicK.wav
329,192,107416,128,0,108827:0:0:0:30:CrashR.wav
256,192,107416,1,0,0:0:0:30:KicK.wav
109,192,107945,1,0,0:0:0:30:KicK.wav
182,192,108474,1,0,0:0:0:30:KicK.wav
36,192,108827,128,0,110239:0:0:0:30:CrashR.wav
475,192,108827,1,0,0:0:0:30:KicK.wav
402,192,109180,1,0,0:0:0:30:Snare.wav
182,192,109533,1,0,0:0:0:30:CrashR.wav
329,192,109533,1,0,0:0:0:30:Snare.wav
402,192,109886,1,0,0:0:0:30:Snare.wav
475,192,110239,128,0,111651:0:0:0:30:CrashR.wav
182,192,110239,1,0,0:0:0:30:BaSS.wav
109,192,110592,1,0,0:0:0:30:CrashR.wav
182,192,110945,1,0,0:0:0:30:CrashR.wav
329,192,110945,1,0,0:0:0:30:BaSS.wav
109,192,111298,1,0,0:0:0:30:CrashR.wav
36,192,111651,128,0,112004:0:0:0:30:CrashR.wav
475,192,112004,128,0,112357:0:0:0:30:KicK.wav
109,192,112357,128,0,112533:0:0:0:30:BaSS.wav
182,192,112533,128,0,112710:0:0:0:0:
329,192,112710,128,0,112886:0:0:0:30:KicK.wav
402,192,112886,128,0,113063:0:0:0:0:
256,192,113063,128,0,113416:0:0:0:30:CrashR.wav
36,192,113416,128,0,113769:0:0:0:30:KicK.wav
402,192,113769,128,0,113945:0:0:0:30:CrashR.wav
109,192,113945,128,0,114121:0:0:0:0:
182,192,114121,128,0,114298:0:0:0:30:KicK.wav
256,192,114298,128,0,114474:0:0:0:30:KicK.wav
475,192,114474,128,0,114827:0:0:0:30:CrashR.wav
256,192,114827,128,0,115180:0:0:0:30:KicK.wav
36,192,115180,128,0,115445:0:0:0:30:CrashR.wav
475,192,115180,128,0,115445:0:0:0:30:KicK.wav
402,192,115445,128,0,115710:0:0:0:30:CrashR.wav
109,192,115445,128,0,115710:0:0:0:30:KicK.wav
329,192,115710,128,0,115886:0:0:0:30:CrashR.wav
182,192,115710,128,0,115886:0:0:0:30:KicK.wav
36,192,115886,128,0,116239:0:0:0:30:CrashR.wav
475,192,115886,1,0,0:0:0:30:BaSS.wav
256,192,116239,128,0,116592:0:0:0:30:KicK.wav
475,192,116592,128,0,116769:0:0:0:30:CrashR.wav
329,192,116769,128,0,116945:0:0:0:0:
36,192,116945,128,0,117121:0:0:0:30:KicK.wav
182,192,117121,128,0,117298:0:0:0:30:Snare.wav
256,192,117298,128,0,117651:0:0:0:30:CrashR.wav
402,192,117651,128,0,117827:0:0:0:30:KicK.wav
109,192,117827,128,0,118004:0:0:0:0:
182,192,118004,128,0,118357:0:0:0:30:BaSS.wav
475,192,118357,128,0,118710:0:0:0:30:KicK.wav
402,192,118710,128,0,119063:0:0:0:30:CrashR.wav
36,192,119063,128,0,119239:0:0:0:30:KicK.wav
109,192,119239,128,0,119416:0:0:0:0:
182,192,119416,128,0,119769:0:0:0:30:CrashR.wav
329,192,119769,128,0,120121:0:0:0:30:KicK.wav
475,192,120121,128,0,120827:0:0:0:30:CrashR.wav
182,192,120121,128,0,120827:0:0:0:30:KicK.wav
36,192,120827,128,0,121533:0:0:0:30:CrashR.wav
402,192,120827,128,0,121180:0:0:0:30:KicK.wav
329,192,121180,128,0,121533:0:0:0:30:KicK.wav
182,192,121533,128,0,122239:0:0:0:30:CrashR.wav
475,192,121533,128,0,122945:0:0:0:30:BaSS.wav
36,192,122239,128,0,122945:0:0:0:30:BaSS.wav
109,192,122239,1,0,0:0:0:30:CrashR.wav
329,192,122945,128,0,123651:0:0:0:30:CrashR.wav
109,192,123651,128,0,124004:0:0:0:0:
182,192,124004,128,0,124357:0:0:0:0:
402,192,124357,128,0,125769:0:0:0:0:
256,192,125769,128,0,126474:0:0:0:0:
36,192,126474,128,0,126827:0:0:0:0:
182,192,126827,128,0,127180:0:0:0:0:
402,192,127180,128,0,127886:0:0:0:0:
109,192,127886,128,0,128592:0:0:0:0:
256,192,128592,128,0,129298:0:0:0:0:
329,192,129298,128,0,129651:0:0:0:0:
475,192,129651,128,0,130004:0:0:0:0:
109,192,130004,128,0,130710:0:0:0:0:
402,192,130710,128,0,131416:0:0:0:0:
182,192,131416,128,0,132121:0:0:0:0:
402,192,132121,128,0,132474:0:0:0:0:
109,192,132474,128,0,132827:0:0:0:0:
256,192,132827,128,0,134239:0:0:0:0:
