osu file format v14

[General]
AudioFilename: audio.mp3
AudioLeadIn: 0
PreviewTime: 43886
Countdown: 0
SampleSet: Soft
StackLeniency: 0.7
Mode: 3
LetterboxInBreaks: 0
SpecialStyle: 0
WidescreenStoryboard: 0

[Editor]
DistanceSpacing: 0.3
BeatDivisor: 8
GridSize: 4
TimelineZoom: 3.499999

[Metadata]
Title:Illusion of Inflict
TitleUnicode:Illusion of Inflict
Artist:KRUX
ArtistUnicode:KRUX
Creator:Reba
Version:7K Kruxified
Source:BMS
Tags:BOFU2016 HyuN 絃P Drum Bass Piano Kawawa Wonki Lude Ramuchi Fontes R_e_m_u_r_i_n_g Critical_Star
BeatmapID:1122860
BeatmapSetID:529574

[Difficulty]
HPDrainRate:9
CircleSize:7
OverallDifficulty:8.6
ApproachRate:5
SliderMultiplier:1.4
SliderTickRate:1

[Events]
//Background and Video events
0,0,"Illusion of inflict BG.jpg",0,0
//Break Periods
//Storyboard Layer 0 (Background)
//Storyboard Layer 1 (Fail)
//Storyboard Layer 2 (Pass)
//Storyboard Layer 3 (Foreground)
//Storyboard Sound Samples

[TimingPoints]
122,352.941176470588,4,2,1,30,1,0
115180,-200,4,2,1,30,0,0
115357,-50,4,2,1,30,0,0
115445,-200,4,2,1,30,0,0
115621,-50,4,2,1,30,0,0
115710,-200,4,2,1,30,0,0
115798,-100,4,2,1,30,0,0

[HitObjects]
475,192,122,5,0,0:0:0:30:CrashR.wav
256,192,122,1,0,0:0:0:0:
109,192,122,128,0,298:0:0:0:0:
36,192,122,128,0,298:0:0:0:0:
402,192,298,1,0,0:0:0:0:
329,192,474,1,0,0:0:0:0:
182,192,474,1,0,0:0:0:0:
256,192,651,1,0,0:0:0:0:
402,192,651,1,0,0:0:0:0:
329,192,827,1,0,0:0:0:0:
475,192,827,1,0,0:0:0:0:
182,192,1004,1,0,0:0:0:0:
36,192,1004,1,0,0:0:0:0:
256,192,1180,1,0,0:0:0:0:
329,192,1180,1,0,0:0:0:0:
402,192,1357,1,0,0:0:0:0:
329,192,1357,1,0,0:0:0:0:
402,192,1533,128,0,1710:0:0:0:0:
475,192,1533,128,0,1710:0:0:0:0:
256,192,1710,1,0,0:0:0:0:
109,192,1886,1,0,0:0:0:0:
36,192,1886,1,0,0:0:0:0:
182,192,2063,1,0,0:0:0:0:
329,192,2063,1,0,0:0:0:0:
402,192,2239,1,0,0:0:0:0:
475,192,2239,1,0,0:0:0:0:
256,192,2416,1,0,0:0:0:0:
36,192,2416,1,0,0:0:0:0:
109,192,2592,1,0,0:0:0:0:
329,192,2592,1,0,0:0:0:0:
182,192,2769,1,0,0:0:0:0:
402,192,2769,1,0,0:0:0:0:
256,192,2945,128,0,3121:0:0:0:0:
475,192,2945,128,0,3121:0:0:0:0:
182,192,3121,1,0,0:0:0:0:
109,192,3298,1,0,0:0:0:0:
402,192,3298,1,0,0:0:0:0:
329,192,3474,1,0,0:0:0:0:
182,192,3474,1,0,0:0:0:0:
36,192,3651,1,0,0:0:0:0:
475,192,3651,1,0,0:0:0:0:
109,192,3827,1,0,0:0:0:0:
256,192,3827,1,0,0:0:0:0:
329,192,4004,1,0,0:0:0:0:
182,192,4004,1,0,0:0:0:0:
402,192,4180,1,0,0:0:0:0:
256,192,4180,1,0,0:0:0:0:
329,192,4357,128,0,4533:0:0:0:0:
475,192,4357,128,0,4533:0:0:0:0:
182,192,4533,1,0,0:0:0:0:
36,192,4710,1,0,0:0:0:0:
329,192,4710,1,0,0:0:0:0:
109,192,4886,1,0,0:0:0:0:
256,192,4886,1,0,0:0:0:0:
182,192,5063,1,0,0:0:0:0:
402,192,5063,1,0,0:0:0:0:
256,192,5239,1,0,0:0:0:0:
109,192,5239,1,0,0:0:0:0:
36,192,5416,1,0,0:0:0:0:
329,192,5416,1,0,0:0:0:0:
402,192,5592,1,0,0:0:0:0:
109,192,5592,1,0,0:0:0:0:
182,192,5769,128,0,5945:0:0:0:0:
475,192,5769,128,0,5945:0:0:0:0:
329,192,5945,1,0,0:0:0:0:
256,192,6121,1,0,0:0:0:0:
36,192,6121,1,0,0:0:0:0:
109,192,6298,1,0,0:0:0:0:
402,192,6298,1,0,0:0:0:0:
329,192,6474,128,0,6651:0:0:0:0:
182,192,6474,128,0,6651:0:0:0:0:
36,192,6651,1,0,0:0:0:0:
256,192,6827,128,0,7004:0:0:0:0:
402,192,6827,128,0,7004:0:0:0:0:
109,192,7004,1,0,0:0:0:0:
329,192,7180,128,0,7357:0:0:0:0:
475,192,7180,128,0,7357:0:0:0:0:
182,192,7357,1,0,0:0:0:0:
36,192,7533,1,0,0:0:0:0:
329,192,7533,1,0,0:0:0:0:
256,192,7710,1,0,0:0:0:0:
109,192,7710,1,0,0:0:0:0:
182,192,7886,1,0,0:0:0:0:
475,192,7886,1,0,0:0:0:0:
109,192,8063,1,0,0:0:0:0:
36,192,8063,1,0,0:0:0:0:
256,192,8239,1,0,0:0:0:0:
182,192,8239,1,0,0:0:0:0:
402,192,8416,1,0,0:0:0:0:
329,192,8416,1,0,0:0:0:0:
475,192,8592,1,0,0:0:0:0:
36,192,8592,1,0,0:0:0:0:
256,192,8592,1,0,0:0:0:0:
182,192,8769,1,0,0:0:0:0:
109,192,8769,1,0,0:0:0:0:
402,192,8857,1,0,0:0:0:0:
329,192,8857,1,0,0:0:0:0:
182,192,8945,1,0,0:0:0:0:
109,192,8945,1,0,0:0:0:0:
36,192,9121,1,0,0:0:0:0:
182,192,9121,1,0,0:0:0:0:
329,192,9298,1,0,0:0:0:0:
182,192,9298,1,0,0:0:0:0:
36,192,9386,1,0,0:0:0:0:
475,192,9386,1,0,0:0:0:0:
402,192,9474,1,0,0:0:0:0:
109,192,9474,1,0,0:0:0:0:
182,192,9563,1,0,0:0:0:0:
329,192,9563,1,0,0:0:0:0:
36,192,9651,1,0,0:0:0:0:
256,192,9651,1,0,0:0:0:0:
329,192,9739,1,0,0:0:0:0:
109,192,9739,1,0,0:0:0:0:
182,192,9827,1,0,0:0:0:0:
402,192,9827,1,0,0:0:0:0:
109,192,9916,1,0,0:0:0:0:
256,192,9916,1,0,0:0:0:0:
475,192,10004,1,0,0:0:0:30:CrashR.wav
329,192,10004,1,0,0:0:0:30:BaSS.wav
402,192,10004,1,0,0:0:0:0:
36,192,10004,1,0,0:0:0:0:
182,192,10092,1,0,0:0:0:0:
475,192,10180,1,0,0:0:0:0:
329,192,10180,1,0,0:0:0:0:
256,192,10269,1,0,0:0:0:0:
36,192,10357,1,0,0:0:0:30:KicK.wav
475,192,10357,1,0,0:0:0:0:
402,192,10357,1,0,0:0:0:0:
182,192,10357,1,0,0:0:0:0:
329,192,10445,1,0,0:0:0:0:
256,192,10533,1,0,0:0:0:30:BaSS.wav
109,192,10533,1,0,0:0:0:0:
36,192,10533,1,0,0:0:0:0:
329,192,10621,1,0,0:0:0:0:
402,192,10710,1,0,0:0:0:0:
256,192,10798,1,0,0:0:0:0:
36,192,10886,1,0,0:0:0:30:BaSS.wav
475,192,10886,1,0,0:0:0:0:
109,192,10886,1,0,0:0:0:0:
329,192,10974,1,0,0:0:0:0:
475,192,11063,1,0,0:0:0:30:KicK.wav
36,192,11063,1,0,0:0:0:0:
402,192,11063,1,0,0:0:0:0:
182,192,11063,1,0,0:0:0:0:
256,192,11151,1,0,0:0:0:0:
475,192,11239,1,0,0:0:0:30:BaSS.wav
109,192,11239,1,0,0:0:0:0:
329,192,11239,1,0,0:0:0:0:
182,192,11327,1,0,0:0:0:0:
256,192,11416,1,0,0:0:0:30:BaSS.wav
402,192,11416,1,0,0:0:0:0:
36,192,11416,1,0,0:0:0:0:
109,192,11504,1,0,0:0:0:0:
329,192,11592,1,0,0:0:0:30:BaSS.wav
475,192,11592,1,0,0:0:0:0:
182,192,11592,1,0,0:0:0:0:
109,192,11680,1,0,0:0:0:0:
475,192,11769,1,0,0:0:0:30:KicK.wav
402,192,11769,1,0,0:0:0:0:
256,192,11769,1,0,0:0:0:0:
36,192,11769,1,0,0:0:0:0:
182,192,11857,1,0,0:0:0:0:
109,192,11945,1,0,0:0:0:30:BaSS.wav
36,192,11945,1,0,0:0:0:0:
329,192,11945,1,0,0:0:0:0:
402,192,12033,1,0,0:0:0:0:
475,192,12121,1,0,0:0:0:0:
329,192,12210,1,0,0:0:0:0:
109,192,12298,1,0,0:0:0:30:BaSS.wav
36,192,12298,1,0,0:0:0:0:
182,192,12298,1,0,0:0:0:0:
256,192,12386,1,0,0:0:0:0:
475,192,12474,1,0,0:0:0:30:KicK.wav
109,192,12474,1,0,0:0:0:0:
36,192,12474,1,0,0:0:0:0:
329,192,12474,1,0,0:0:0:0:
182,192,12563,1,0,0:0:0:0:
402,192,12651,1,0,0:0:0:30:BaSS.wav
475,192,12651,1,0,0:0:0:0:
256,192,12651,1,0,0:0:0:0:
182,192,12739,1,0,0:0:0:0:
109,192,12827,1,0,0:0:0:30:BaSS.wav
36,192,12827,1,0,0:0:0:0:
329,192,12827,1,0,0:0:0:0:
402,192,12916,1,0,0:0:0:0:
475,192,13004,1,0,0:0:0:0:
182,192,13004,1,0,0:0:0:0:
329,192,13092,1,0,0:0:0:0:
36,192,13180,1,0,0:0:0:30:KicK.wav
109,192,13180,1,0,0:0:0:0:
182,192,13180,1,0,0:0:0:0:
475,192,13180,1,0,0:0:0:0:
256,192,13269,1,0,0:0:0:0:
329,192,13357,1,0,0:0:0:30:BaSS.wav
402,192,13357,1,0,0:0:0:0:
36,192,13357,1,0,0:0:0:0:
182,192,13445,1,0,0:0:0:0:
109,192,13533,1,0,0:0:0:0:
256,192,13621,1,0,0:0:0:0:
402,192,13710,1,0,0:0:0:30:BaSS.wav
475,192,13710,1,0,0:0:0:0:
182,192,13710,1,0,0:0:0:0:
329,192,13798,1,0,0:0:0:0:
256,192,13886,1,0,0:0:0:30:KicK.wav
109,192,13886,1,0,0:0:0:0:
36,192,13886,1,0,0:0:0:0:
475,192,13886,1,0,0:0:0:0:
402,192,13974,1,0,0:0:0:0:
182,192,14063,1,0,0:0:0:30:BaSS.wav
109,192,14063,1,0,0:0:0:0:
329,192,14063,1,0,0:0:0:0:
402,192,14151,1,0,0:0:0:0:
256,192,14239,1,0,0:0:0:30:BaSS.wav
475,192,14239,1,0,0:0:0:0:
36,192,14239,1,0,0:0:0:0:
182,192,14327,1,0,0:0:0:0:
109,192,14416,1,0,0:0:0:0:
402,192,14416,1,0,0:0:0:0:
256,192,14504,1,0,0:0:0:0:
475,192,14592,1,0,0:0:0:30:KicK.wav
36,192,14592,1,0,0:0:0:0:
182,192,14592,1,0,0:0:0:0:
402,192,14592,1,0,0:0:0:0:
329,192,14680,1,0,0:0:0:0:
109,192,14769,1,0,0:0:0:30:BaSS.wav
36,192,14769,1,0,0:0:0:0:
256,192,14769,1,0,0:0:0:0:
329,192,14857,1,0,0:0:0:0:
402,192,14945,1,0,0:0:0:30:KicK.wav
475,192,14945,1,0,0:0:0:0:
109,192,14945,1,0,0:0:0:0:
182,192,14945,1,0,0:0:0:0:
256,192,15033,1,0,0:0:0:0:
475,192,15121,1,0,0:0:0:30:BaSS.wav
36,192,15121,1,0,0:0:0:0:
329,192,15121,1,0,0:0:0:0:
182,192,15210,1,0,0:0:0:0:
475,192,15298,1,0,0:0:0:30:KicK.wav
402,192,15298,1,0,0:0:0:0:
329,192,15298,1,0,0:0:0:0:
36,192,15298,1,0,0:0:0:0:
256,192,15386,1,0,0:0:0:0:
109,192,15474,1,0,0:0:0:30:KicK.wav
402,192,15474,1,0,0:0:0:0:
475,192,15474,1,0,0:0:0:0:
182,192,15474,1,0,0:0:0:0:
329,192,15563,1,0,0:0:0:0:
109,192,15651,1,0,0:0:0:30:BaSS.wav
36,192,15651,1,0,0:0:0:0:
256,192,15651,1,0,0:0:0:0:
402,192,15739,1,0,0:0:0:0:
182,192,15827,1,0,0:0:0:0:
36,192,15827,1,0,0:0:0:0:
329,192,15916,1,0,0:0:0:0:
109,192,16004,1,0,0:0:0:30:KicK.wav
36,192,16004,1,0,0:0:0:0:
256,192,16004,1,0,0:0:0:0:
475,192,16004,1,0,0:0:0:0:
402,192,16092,1,0,0:0:0:0:
109,192,16180,1,0,0:0:0:30:BaSS.wav
182,192,16180,1,0,0:0:0:0:
329,192,16180,1,0,0:0:0:0:
402,192,16269,1,0,0:0:0:0:
475,192,16357,1,0,0:0:0:0:
256,192,16445,1,0,0:0:0:0:
402,192,16533,1,0,0:0:0:30:BaSS.wav
475,192,16533,1,0,0:0:0:0:
36,192,16533,1,0,0:0:0:0:
182,192,16621,1,0,0:0:0:0:
329,192,16710,1,0,0:0:0:30:KicK.wav
475,192,16710,1,0,0:0:0:0:
402,192,16710,1,0,0:0:0:0:
109,192,16710,1,0,0:0:0:0:
256,192,16798,1,0,0:0:0:0:
182,192,16886,1,0,0:0:0:30:BaSS.wav
36,192,16886,1,0,0:0:0:0:
475,192,16886,1,0,0:0:0:0:
329,192,16974,1,0,0:0:0:0:
109,192,17063,1,0,0:0:0:30:BaSS.wav
256,192,17063,1,0,0:0:0:0:
475,192,17063,1,0,0:0:0:0:
402,192,17151,1,0,0:0:0:0:
36,192,17239,1,0,0:0:0:30:BaSS.wav
182,192,17239,1,0,0:0:0:0:
329,192,17239,1,0,0:0:0:0:
402,192,17327,1,0,0:0:0:0:
256,192,17416,1,0,0:0:0:30:KicK.wav
36,192,17416,1,0,0:0:0:0:
109,192,17416,1,0,0:0:0:0:
475,192,17416,1,0,0:0:0:0:
329,192,17504,1,0,0:0:0:0:
182,192,17592,1,0,0:0:0:30:BaSS.wav
402,192,17592,1,0,0:0:0:0:
475,192,17592,1,0,0:0:0:0:
109,192,17680,1,0,0:0:0:0:
36,192,17769,1,0,0:0:0:0:
182,192,17857,1,0,0:0:0:0:
329,192,17945,1,0,0:0:0:30:BaSS.wav
475,192,17945,1,0,0:0:0:0:
36,192,17945,1,0,0:0:0:0:
182,192,18033,1,0,0:0:0:0:
475,192,18121,1,0,0:0:0:30:KicK.wav
402,192,18121,1,0,0:0:0:0:
36,192,18121,1,0,0:0:0:0:
256,192,18121,1,0,0:0:0:0:
109,192,18210,1,0,0:0:0:0:
182,192,18298,1,0,0:0:0:30:BaSS.wav
475,192,18298,1,0,0:0:0:0:
402,192,18298,1,0,0:0:0:0:
329,192,18386,1,0,0:0:0:0:
109,192,18474,1,0,0:0:0:30:BaSS.wav
36,192,18474,1,0,0:0:0:0:
256,192,18474,1,0,0:0:0:0:
402,192,18563,1,0,0:0:0:0:
182,192,18651,1,0,0:0:0:0:
36,192,18651,1,0,0:0:0:0:
329,192,18739,1,0,0:0:0:0:
109,192,18827,1,0,0:0:0:30:KicK.wav
36,192,18827,1,0,0:0:0:0:
475,192,18827,1,0,0:0:0:0:
182,192,18827,1,0,0:0:0:0:
256,192,18916,1,0,0:0:0:0:
36,192,19004,1,0,0:0:0:30:BaSS.wav
329,192,19004,1,0,0:0:0:0:
402,192,19004,1,0,0:0:0:0:
182,192,19092,1,0,0:0:0:0:
109,192,19180,1,0,0:0:0:0:
36,192,19269,1,0,0:0:0:0:
329,192,19357,1,0,0:0:0:30:BaSS.wav
402,192,19357,1,0,0:0:0:0:
109,192,19357,1,0,0:0:0:0:
256,192,19445,1,0,0:0:0:0:
475,192,19533,1,0,0:0:0:30:KicK.wav
402,192,19533,1,0,0:0:0:0:
182,192,19533,1,0,0:0:0:0:
36,192,19533,1,0,0:0:0:0:
329,192,19621,1,0,0:0:0:0:
256,192,19710,1,0,0:0:0:30:BaSS.wav
109,192,19710,1,0,0:0:0:0:
36,192,19710,1,0,0:0:0:0:
329,192,19798,1,0,0:0:0:0:
36,192,19886,1,0,0:0:0:30:KicK.wav
402,192,19886,1,0,0:0:0:0:
109,192,19886,1,0,0:0:0:0:
475,192,19886,1,0,0:0:0:0:
182,192,19974,1,0,0:0:0:30:Snare.wav
329,192,19974,1,0,0:0:0:0:
36,192,20063,1,0,0:0:0:30:Snare.wav
256,192,20063,1,0,0:0:0:0:
109,192,20151,1,0,0:0:0:30:Snare.wav
329,192,20151,1,0,0:0:0:0:
182,192,20239,1,0,0:0:0:30:Snare.wav
402,192,20239,1,0,0:0:0:0:
256,192,20327,1,0,0:0:0:30:Snare.wav
109,192,20327,1,0,0:0:0:0:
329,192,20416,1,0,0:0:0:30:Snare.wav
36,192,20416,1,0,0:0:0:0:
475,192,20416,1,0,0:0:0:0:
182,192,20504,1,0,0:0:0:30:Snare.wav
402,192,20504,1,0,0:0:0:0:
256,192,20592,1,0,0:0:0:30:Snare.wav
109,192,20592,1,0,0:0:0:0:
36,192,20680,1,0,0:0:0:0:
329,192,20680,1,0,0:0:0:0:
475,192,20769,1,0,0:0:0:30:Snare.wav
402,192,20769,1,0,0:0:0:0:
182,192,20769,1,0,0:0:0:0:
329,192,20857,1,0,0:0:0:30:Snare.wav
109,192,20857,1,0,0:0:0:0:
256,192,20945,1,0,0:0:0:30:Snare.wav
36,192,20945,1,0,0:0:0:0:
402,192,21033,1,0,0:0:0:30:Snare.wav
475,192,21033,1,0,0:0:0:0:
109,192,21121,1,0,0:0:0:30:Snare.wav
36,192,21121,1,0,0:0:0:0:
182,192,21166,1,0,0:0:0:30:Snare.wav
256,192,21210,1,0,0:0:0:30:Snare.wav
329,192,21254,1,0,0:0:0:30:Snare.wav
475,192,21298,1,0,0:0:0:30:CrashR.wav
402,192,21298,1,0,0:0:0:30:BaSS.wav
36,192,21298,1,0,0:0:0:0:
109,192,21298,1,0,0:0:0:0:
329,192,21474,1,0,0:0:0:0:
182,192,21651,128,0,21739:0:0:0:0:
36,192,21651,1,0,0:0:0:0:
256,192,21739,128,0,21827:0:0:0:0:
329,192,21827,128,0,21916:0:0:0:0:
109,192,21827,1,0,0:0:0:0:
402,192,21916,128,0,22004:0:0:0:0:
475,192,22004,128,0,22092:0:0:0:30:KicK.wav
182,192,22004,1,0,0:0:0:0:
256,192,22004,1,0,0:0:0:0:
36,192,22004,1,0,0:0:0:0:
329,192,22180,128,0,22269:0:0:0:0:
109,192,22180,1,0,0:0:0:0:
182,192,22357,128,0,22445:0:0:0:30:BaSS.wav
475,192,22357,1,0,0:0:0:0:
329,192,22357,1,0,0:0:0:0:
36,192,22533,128,0,22621:0:0:0:0:
402,192,22533,1,0,0:0:0:0:
475,192,22710,128,0,22798:0:0:0:30:BaSS.wav
182,192,22710,1,0,0:0:0:0:
109,192,22710,1,0,0:0:0:0:
256,192,22886,1,0,0:0:0:0:
329,192,23063,128,0,23151:0:0:0:0:
475,192,23063,1,0,0:0:0:0:
256,192,23151,128,0,23239:0:0:0:0:
182,192,23239,128,0,23327:0:0:0:0:
402,192,23239,1,0,0:0:0:0:
109,192,23327,128,0,23416:0:0:0:0:
36,192,23416,128,0,23504:0:0:0:30:KicK.wav
329,192,23416,1,0,0:0:0:0:
475,192,23416,1,0,0:0:0:0:
256,192,23416,1,0,0:0:0:0:
182,192,23592,128,0,23680:0:0:0:30:BaSS.wav
402,192,23592,1,0,0:0:0:0:
475,192,23592,1,0,0:0:0:0:
329,192,23769,128,0,23857:0:0:0:30:KicK.wav
36,192,23769,1,0,0:0:0:0:
109,192,23769,1,0,0:0:0:0:
256,192,23769,1,0,0:0:0:0:
475,192,23945,128,0,24033:0:0:0:0:
182,192,23945,1,0,0:0:0:0:
36,192,24121,128,0,24210:0:0:0:30:BaSS.wav
256,192,24121,1,0,0:0:0:0:
402,192,24121,1,0,0:0:0:0:
182,192,24298,1,0,0:0:0:0:
109,192,24474,1,0,0:0:0:0:
256,192,24474,128,0,24563:0:0:0:0:
329,192,24563,128,0,24651:0:0:0:0:
182,192,24651,128,0,24739:0:0:0:0:
475,192,24651,1,0,0:0:0:0:
109,192,24739,128,0,24827:0:0:0:0:
36,192,24827,128,0,24916:0:0:0:30:KicK.wav
256,192,24827,1,0,0:0:0:0:
402,192,24827,1,0,0:0:0:0:
475,192,24827,1,0,0:0:0:0:
475,192,25004,128,0,25092:0:0:0:0:
182,192,25004,1,0,0:0:0:0:
256,192,25180,128,0,25269:0:0:0:30:BaSS.wav
36,192,25180,1,0,0:0:0:0:
402,192,25180,1,0,0:0:0:0:
182,192,25269,128,0,25357:0:0:0:0:
329,192,25357,128,0,25445:0:0:0:0:
36,192,25357,1,0,0:0:0:0:
402,192,25445,128,0,25533:0:0:0:0:
475,192,25533,128,0,25621:0:0:0:30:BaSS.wav
256,192,25533,1,0,0:0:0:0:
109,192,25533,1,0,0:0:0:0:
36,192,25710,128,0,25798:0:0:0:30:KicK.wav
475,192,25710,1,0,0:0:0:0:
329,192,25710,1,0,0:0:0:0:
402,192,25710,1,0,0:0:0:0:
182,192,25798,128,0,25886:0:0:0:0:
329,192,25886,128,0,25974:0:0:0:0:
36,192,25886,1,0,0:0:0:0:
256,192,26063,128,0,26151:0:0:0:30:BaSS.wav
109,192,26063,1,0,0:0:0:0:
475,192,26063,1,0,0:0:0:0:
182,192,26239,128,0,26327:0:0:0:30:KicK.wav
329,192,26239,1,0,0:0:0:0:
36,192,26239,1,0,0:0:0:0:
402,192,26239,1,0,0:0:0:0:
109,192,26416,128,0,26504:0:0:0:30:BaSS.wav
475,192,26416,1,0,0:0:0:0:
329,192,26416,1,0,0:0:0:0:
256,192,26504,128,0,26592:0:0:0:0:
402,192,26592,128,0,26680:0:0:0:30:KicK.wav
475,192,26592,1,0,0:0:0:0:
182,192,26592,1,0,0:0:0:0:
109,192,26592,1,0,0:0:0:0:
329,192,26680,128,0,26769:0:0:0:0:
256,192,26769,128,0,26857:0:0:0:30:KicK.wav
36,192,26769,1,0,0:0:0:0:
475,192,26769,1,0,0:0:0:0:
109,192,26769,1,0,0:0:0:0:
182,192,26857,128,0,26945:0:0:0:0:
109,192,26945,128,0,27033:0:0:0:30:BaSS.wav
475,192,26945,1,0,0:0:0:0:
329,192,26945,1,0,0:0:0:0:
36,192,27121,128,0,27210:0:0:0:0:
256,192,27121,1,0,0:0:0:0:
182,192,27210,128,0,27298:0:0:0:0:
329,192,27298,128,0,27386:0:0:0:0:
475,192,27298,1,0,0:0:0:0:
256,192,27474,128,0,27563:0:0:0:0:
109,192,27474,1,0,0:0:0:0:
182,192,27651,128,0,27739:0:0:0:30:KicK.wav
36,192,27651,1,0,0:0:0:0:
475,192,27651,1,0,0:0:0:0:
402,192,27651,1,0,0:0:0:0:
256,192,27739,128,0,27827:0:0:0:0:
329,192,27827,128,0,27916:0:0:0:0:
109,192,27827,1,0,0:0:0:0:
402,192,27916,128,0,28004:0:0:0:0:
475,192,28004,128,0,28092:0:0:0:30:BaSS.wav
182,192,28004,1,0,0:0:0:0:
36,192,28004,1,0,0:0:0:0:
329,192,28092,128,0,28180:0:0:0:0:
182,192,28180,128,0,28269:0:0:0:0:
475,192,28180,1,0,0:0:0:0:
36,192,28269,128,0,28357:0:0:0:0:
475,192,28357,128,0,28445:0:0:0:30:BaSS.wav
256,192,28357,1,0,0:0:0:0:
109,192,28357,1,0,0:0:0:0:
182,192,28533,1,0,0:0:0:0:
475,192,28710,128,0,28798:0:0:0:0:
36,192,28710,1,0,0:0:0:0:
402,192,28798,128,0,28886:0:0:0:0:
329,192,28886,128,0,28974:0:0:0:0:
109,192,28886,1,0,0:0:0:0:
256,192,28974,128,0,29063:0:0:0:0:
182,192,29063,128,0,29151:0:0:0:30:KicK.wav
475,192,29063,1,0,0:0:0:0:
402,192,29063,1,0,0:0:0:0:
36,192,29063,1,0,0:0:0:0:
182,192,29239,128,0,29327:0:0:0:30:BaSS.wav
329,192,29239,1,0,0:0:0:0:
402,192,29239,1,0,0:0:0:0:
109,192,29416,128,0,29504:0:0:0:30:KicK.wav
256,192,29416,1,0,0:0:0:0:
475,192,29416,1,0,0:0:0:0:
329,192,29416,1,0,0:0:0:0:
36,192,29592,128,0,29680:0:0:0:0:
182,192,29592,1,0,0:0:0:0:
475,192,29769,128,0,29857:0:0:0:30:BaSS.wav
256,192,29769,1,0,0:0:0:0:
109,192,29769,1,0,0:0:0:0:
329,192,29945,128,0,30033:0:0:0:0:
36,192,29945,1,0,0:0:0:0:
256,192,30033,128,0,30121:0:0:0:0:
182,192,30121,128,0,30210:0:0:0:0:
475,192,30121,1,0,0:0:0:0:
109,192,30298,128,0,30386:0:0:0:0:
402,192,30298,1,0,0:0:0:0:
36,192,30474,128,0,30563:0:0:0:30:KicK.wav
329,192,30474,1,0,0:0:0:0:
475,192,30474,1,0,0:0:0:0:
256,192,30474,1,0,0:0:0:0:
109,192,30563,128,0,30651:0:0:0:0:
182,192,30651,128,0,30739:0:0:0:0:
402,192,30651,1,0,0:0:0:0:
256,192,30739,128,0,30827:0:0:0:0:
475,192,30827,1,0,0:0:0:30:BaSS.wav
109,192,30827,128,0,30916:0:0:0:0:
329,192,30827,1,0,0:0:0:0:
182,192,30916,128,0,31004:0:0:0:0:
256,192,31004,128,0,31092:0:0:0:0:
402,192,31004,1,0,0:0:0:0:
329,192,31092,128,0,31180:0:0:0:0:
475,192,31180,128,0,31269:0:0:0:30:BaSS.wav
36,192,31180,1,0,0:0:0:0:
109,192,31180,1,0,0:0:0:0:
402,192,31357,128,0,31445:0:0:0:30:BaSS.wav
109,192,31357,1,0,0:0:0:0:
36,192,31357,1,0,0:0:0:0:
329,192,31533,128,0,31621:0:0:0:30:KicK.wav
475,192,31533,1,0,0:0:0:0:
109,192,31533,1,0,0:0:0:0:
36,192,31533,1,0,0:0:0:0:
256,192,31621,128,0,31710:0:0:0:0:
182,192,31710,128,0,31798:0:0:0:30:BaSS.wav
36,192,31710,1,0,0:0:0:0:
475,192,31710,1,0,0:0:0:0:
109,192,31798,128,0,31886:0:0:0:0:
36,192,31886,128,0,31974:0:0:0:30:KicK.wav
475,192,31886,1,0,0:0:0:0:
329,192,31886,1,0,0:0:0:0:
256,192,31886,1,0,0:0:0:0:
182,192,32063,1,0,0:0:0:30:BaSS.wav
109,192,32063,1,0,0:0:0:0:
256,192,32239,128,0,32327:0:0:0:30:KicK.wav
109,192,32239,1,0,0:0:0:0:
36,192,32239,1,0,0:0:0:0:
475,192,32239,1,0,0:0:0:0:
109,192,32416,1,0,0:0:0:30:KicK.wav
36,192,32416,1,0,0:0:0:0:
329,192,32416,1,0,0:0:0:0:
402,192,32504,1,0,0:0:0:30:Snare.wav
256,192,32504,1,0,0:0:0:0:
475,192,32592,128,0,34004:0:0:0:30:CrashR.wav
109,192,32592,1,0,0:0:0:30:BaSS.wav
36,192,32592,1,0,0:0:0:0:
182,192,32592,1,0,0:0:0:0:
36,192,32945,1,0,0:0:0:0:
182,192,33033,1,0,0:0:0:0:
329,192,33121,1,0,0:0:0:0:
256,192,33210,1,0,0:0:0:0:
402,192,33298,1,0,0:0:0:30:KicK.wav
182,192,33298,1,0,0:0:0:0:
36,192,33298,1,0,0:0:0:0:
402,192,33474,1,0,0:0:0:0:
256,192,33563,1,0,0:0:0:0:
109,192,33651,1,0,0:0:0:30:BaSS.wav
36,192,33651,1,0,0:0:0:0:
182,192,33739,1,0,0:0:0:0:
256,192,33827,1,0,0:0:0:0:
329,192,33916,1,0,0:0:0:0:
402,192,34004,128,0,35416:0:0:0:30:BaSS.wav
109,192,34004,1,0,0:0:0:0:
36,192,34004,1,0,0:0:0:0:
182,192,34180,1,0,0:0:0:0:
256,192,34269,1,0,0:0:0:0:
329,192,34357,1,0,0:0:0:0:
182,192,34533,1,0,0:0:0:0:
36,192,34710,1,0,0:0:0:30:KicK.wav
329,192,34710,1,0,0:0:0:0:
475,192,34710,1,0,0:0:0:0:
109,192,34886,1,0,0:0:0:30:BaSS.wav
256,192,34886,1,0,0:0:0:0:
182,192,35063,1,0,0:0:0:30:KicK.wav
36,192,35063,1,0,0:0:0:0:
475,192,35063,1,0,0:0:0:0:
256,192,35239,1,0,0:0:0:0:
329,192,35416,128,0,36827:0:0:0:30:BaSS.wav
475,192,35416,1,0,0:0:0:0:
109,192,35416,1,0,0:0:0:0:
182,192,35592,1,0,0:0:0:0:
109,192,35680,1,0,0:0:0:0:
36,192,35769,1,0,0:0:0:0:
182,192,35945,1,0,0:0:0:0:
475,192,36121,1,0,0:0:0:30:KicK.wav
402,192,36121,1,0,0:0:0:0:
36,192,36121,1,0,0:0:0:0:
256,192,36210,1,0,0:0:0:0:
109,192,36298,1,0,0:0:0:0:
182,192,36386,1,0,0:0:0:0:
256,192,36474,1,0,0:0:0:30:BaSS.wav
475,192,36474,1,0,0:0:0:0:
182,192,36563,1,0,0:0:0:0:
109,192,36651,1,0,0:0:0:0:
36,192,36739,1,0,0:0:0:0:
256,192,36827,128,0,38239:0:0:0:30:BaSS.wav
475,192,36827,1,0,0:0:0:0:
402,192,36827,1,0,0:0:0:0:
182,192,36916,1,0,0:0:0:0:
109,192,37004,1,0,0:0:0:30:KicK.wav
36,192,37004,1,0,0:0:0:0:
329,192,37004,1,0,0:0:0:0:
475,192,37092,1,0,0:0:0:0:
402,192,37180,1,0,0:0:0:0:
329,192,37269,1,0,0:0:0:0:
182,192,37357,1,0,0:0:0:30:BaSS.wav
36,192,37357,1,0,0:0:0:0:
329,192,37445,1,0,0:0:0:0:
475,192,37533,1,0,0:0:0:30:KicK.wav
182,192,37533,1,0,0:0:0:0:
109,192,37533,1,0,0:0:0:0:
182,192,37710,1,0,0:0:0:30:BaSS.wav
109,192,37710,1,0,0:0:0:0:
36,192,37886,1,0,0:0:0:30:KicK.wav
475,192,37886,1,0,0:0:0:0:
402,192,37886,1,0,0:0:0:0:
475,192,38063,1,0,0:0:0:30:KicK.wav
402,192,38063,1,0,0:0:0:0:
109,192,38063,1,0,0:0:0:0:
36,192,38239,128,0,39651:0:0:0:30:BaSS.wav
475,192,38239,1,0,0:0:0:0:
402,192,38239,1,0,0:0:0:0:
329,192,38327,1,0,0:0:0:0:
256,192,38416,1,0,0:0:0:0:
329,192,38504,1,0,0:0:0:0:
182,192,38592,1,0,0:0:0:30:KicK.wav
402,192,38592,1,0,0:0:0:0:
475,192,38592,1,0,0:0:0:0:
256,192,38680,1,0,0:0:0:0:
329,192,38769,1,0,0:0:0:0:
256,192,38857,1,0,0:0:0:0:
182,192,38945,1,0,0:0:0:30:BaSS.wav
475,192,38945,1,0,0:0:0:0:
109,192,39121,1,0,0:0:0:0:
256,192,39210,1,0,0:0:0:0:
402,192,39298,1,0,0:0:0:30:KicK.wav
475,192,39298,1,0,0:0:0:0:
109,192,39298,1,0,0:0:0:0:
329,192,39474,1,0,0:0:0:0:
182,192,39651,128,0,41063:0:0:0:30:BaSS.wav
256,192,39651,1,0,0:0:0:0:
475,192,39651,1,0,0:0:0:0:
402,192,39739,1,0,0:0:0:0:
329,192,39827,1,0,0:0:0:0:
256,192,39916,1,0,0:0:0:0:
109,192,40004,1,0,0:0:0:30:KicK.wav
36,192,40004,1,0,0:0:0:0:
475,192,40004,1,0,0:0:0:0:
329,192,40092,1,0,0:0:0:0:
475,192,40180,1,0,0:0:0:0:
329,192,40269,1,0,0:0:0:0:
475,192,40357,1,0,0:0:0:30:BaSS.wav
36,192,40357,1,0,0:0:0:0:
256,192,40445,1,0,0:0:0:0:
329,192,40533,1,0,0:0:0:0:
402,192,40621,1,0,0:0:0:0:
475,192,40710,1,0,0:0:0:30:KicK.wav
109,192,40710,1,0,0:0:0:0:
36,192,40710,1,0,0:0:0:0:
256,192,40798,1,0,0:0:0:0:
36,192,40886,1,0,0:0:0:30:KicK.wav
109,192,40886,1,0,0:0:0:0:
402,192,40886,1,0,0:0:0:0:
256,192,40974,1,0,0:0:0:0:
36,192,41063,5,0,0:0:0:30:KicK.wav
329,192,41063,128,0,42474:0:0:0:0:
475,192,41063,1,0,0:0:0:0:
109,192,41063,1,0,0:0:0:0:
475,192,41239,1,0,0:0:0:30:KicK.wav
402,192,41239,1,0,0:0:0:0:
256,192,41239,1,0,0:0:0:0:
182,192,41327,1,0,0:0:0:0:
402,192,41416,1,0,0:0:0:30:KicK.wav
475,192,41416,1,0,0:0:0:0:
109,192,41416,1,0,0:0:0:0:
402,192,41592,1,0,0:0:0:30:KicK.wav
475,192,41592,1,0,0:0:0:0:
182,192,41592,1,0,0:0:0:0:
402,192,41769,1,0,0:0:0:30:KicK.wav
475,192,41769,1,0,0:0:0:0:
256,192,41769,1,0,0:0:0:0:
182,192,41857,1,0,0:0:0:0:
109,192,41945,1,0,0:0:0:30:KicK.wav
36,192,41945,1,0,0:0:0:0:
475,192,41945,1,0,0:0:0:0:
402,192,42033,1,0,0:0:0:0:
36,192,42121,1,0,0:0:0:30:KicK.wav
109,192,42121,1,0,0:0:0:0:
256,192,42121,1,0,0:0:0:0:
475,192,42210,1,0,0:0:0:0:
109,192,42298,1,0,0:0:0:30:KicK.wav
36,192,42298,1,0,0:0:0:0:
402,192,42298,1,0,0:0:0:0:
256,192,42386,1,0,0:0:0:0:
36,192,42474,1,0,0:0:0:30:KicK.wav
475,192,42474,1,0,0:0:0:0:
182,192,42474,1,0,0:0:0:0:
402,192,42563,1,0,0:0:0:30:Snare.wav
256,192,42563,1,0,0:0:0:0:
182,192,42651,1,0,0:0:0:30:Snare.wav
109,192,42651,1,0,0:0:0:0:
329,192,42739,1,0,0:0:0:30:Snare.wav
475,192,42739,1,0,0:0:0:0:
256,192,42827,1,0,0:0:0:30:BaSS.wav
109,192,42827,1,0,0:0:0:0:
36,192,42827,1,0,0:0:0:0:
475,192,42916,1,0,0:0:0:30:Snare.wav
402,192,42916,1,0,0:0:0:0:
182,192,43004,1,0,0:0:0:30:Snare.wav
36,192,43004,1,0,0:0:0:0:
329,192,43092,1,0,0:0:0:30:Snare.wav
475,192,43092,1,0,0:0:0:0:
109,192,43180,1,0,0:0:0:30:BaSS.wav
256,192,43180,1,0,0:0:0:0:
36,192,43180,1,0,0:0:0:0:
475,192,43269,1,0,0:0:0:0:
402,192,43269,1,0,0:0:0:0:
182,192,43357,1,0,0:0:0:30:Snare.wav
36,192,43357,128,0,43886:0:0:0:0:
256,192,43401,1,0,0:0:0:30:Snare.wav
329,192,43445,1,0,0:0:0:30:Snare.wav
402,192,43489,1,0,0:0:0:30:Snare.wav
475,192,43533,1,0,0:0:0:30:BaSS.wav
109,192,43533,1,0,0:0:0:0:
182,192,43533,1,0,0:0:0:0:
329,192,43710,128,0,43842:0:0:0:30:BaSS.wav
475,192,43710,128,0,43842:0:0:0:0:
475,192,43886,1,0,0:0:0:30:CrashR.wav
109,192,43886,1,0,0:0:0:30:BaSS.wav
329,192,43886,1,0,0:0:0:0:
182,192,43886,1,0,0:0:0:0:
402,192,43974,1,0,0:0:0:0:
256,192,43974,1,0,0:0:0:0:
329,192,44063,1,0,0:0:0:0:
182,192,44063,1,0,0:0:0:0:
256,192,44151,1,0,0:0:0:0:
109,192,44151,1,0,0:0:0:0:
36,192,44239,1,0,0:0:0:30:KicK.wav
182,192,44239,1,0,0:0:0:0:
475,192,44239,1,0,0:0:0:0:
402,192,44327,1,0,0:0:0:0:
256,192,44327,1,0,0:0:0:0:
329,192,44416,1,0,0:0:0:30:BaSS.wav
109,192,44416,1,0,0:0:0:0:
36,192,44416,1,0,0:0:0:0:
182,192,44504,1,0,0:0:0:0:
402,192,44504,1,0,0:0:0:0:
475,192,44592,1,0,0:0:0:0:
256,192,44592,1,0,0:0:0:0:
182,192,44680,1,0,0:0:0:0:
329,192,44680,1,0,0:0:0:0:
402,192,44769,1,0,0:0:0:30:BaSS.wav
475,192,44769,1,0,0:0:0:0:
109,192,44769,1,0,0:0:0:0:
256,192,44857,1,0,0:0:0:0:
36,192,44857,1,0,0:0:0:0:
475,192,44945,1,0,0:0:0:30:KicK.wav
182,192,44945,1,0,0:0:0:0:
402,192,44945,1,0,0:0:0:0:
329,192,45033,1,0,0:0:0:0:
109,192,45033,1,0,0:0:0:0:
256,192,45121,1,0,0:0:0:30:BaSS.wav
36,192,45121,1,0,0:0:0:0:
475,192,45121,1,0,0:0:0:0:
182,192,45210,1,0,0:0:0:0:
329,192,45210,1,0,0:0:0:0:
36,192,45298,1,0,0:0:0:30:BaSS.wav
109,192,45298,1,0,0:0:0:0:
402,192,45298,1,0,0:0:0:0:
475,192,45386,1,0,0:0:0:0:
256,192,45386,1,0,0:0:0:0:
329,192,45474,1,0,0:0:0:0:
109,192,45474,1,0,0:0:0:0:
182,192,45563,1,0,0:0:0:0:
402,192,45563,1,0,0:0:0:0:
256,192,45651,1,0,0:0:0:30:KicK.wav
475,192,45651,1,0,0:0:0:0:
36,192,45651,1,0,0:0:0:0:
329,192,45739,1,0,0:0:0:0:
109,192,45739,1,0,0:0:0:0:
182,192,45827,1,0,0:0:0:30:BaSS.wav
402,192,45827,1,0,0:0:0:0:
475,192,45827,1,0,0:0:0:0:
256,192,45916,1,0,0:0:0:0:
109,192,45916,1,0,0:0:0:0:
329,192,46004,1,0,0:0:0:0:
36,192,46004,1,0,0:0:0:0:
182,192,46092,1,0,0:0:0:0:
475,192,46092,1,0,0:0:0:0:
402,192,46180,1,0,0:0:0:30:BaSS.wav
256,192,46180,1,0,0:0:0:0:
36,192,46180,1,0,0:0:0:0:
329,192,46269,1,0,0:0:0:0:
109,192,46269,1,0,0:0:0:0:
182,192,46357,1,0,0:0:0:30:KicK.wav
402,192,46357,1,0,0:0:0:0:
475,192,46357,1,0,0:0:0:0:
256,192,46445,1,0,0:0:0:0:
109,192,46445,1,0,0:0:0:0:
329,192,46533,1,0,0:0:0:0:
36,192,46533,1,0,0:0:0:0:
182,192,46621,1,0,0:0:0:0:
402,192,46621,1,0,0:0:0:0:
475,192,46710,1,0,0:0:0:30:BaSS.wav
256,192,46710,1,0,0:0:0:0:
36,192,46710,1,0,0:0:0:0:
329,192,46798,1,0,0:0:0:0:
109,192,46798,1,0,0:0:0:0:
182,192,46886,1,0,0:0:0:0:
402,192,46886,1,0,0:0:0:0:
109,192,46974,1,0,0:0:0:0:
256,192,46974,1,0,0:0:0:0:
475,192,47063,1,0,0:0:0:30:KicK.wav
36,192,47063,1,0,0:0:0:0:
329,192,47063,1,0,0:0:0:0:
402,192,47151,1,0,0:0:0:0:
182,192,47151,1,0,0:0:0:0:
109,192,47239,1,0,0:0:0:30:BaSS.wav
36,192,47239,1,0,0:0:0:0:
329,192,47239,1,0,0:0:0:0:
256,192,47327,1,0,0:0:0:0:
475,192,47327,1,0,0:0:0:0:
182,192,47416,1,0,0:0:0:0:
36,192,47416,1,0,0:0:0:0:
475,192,47504,1,0,0:0:0:0:
402,192,47504,1,0,0:0:0:0:
256,192,47592,1,0,0:0:0:30:BaSS.wav
109,192,47592,1,0,0:0:0:0:
36,192,47592,1,0,0:0:0:0:
329,192,47680,1,0,0:0:0:0:
182,192,47680,1,0,0:0:0:0:
475,192,47769,1,0,0:0:0:30:KicK.wav
402,192,47769,1,0,0:0:0:0:
256,192,47769,1,0,0:0:0:0:
36,192,47857,1,0,0:0:0:0:
109,192,47857,1,0,0:0:0:0:
182,192,47945,1,0,0:0:0:30:BaSS.wav
475,192,47945,1,0,0:0:0:0:
402,192,47945,1,0,0:0:0:0:
256,192,48033,1,0,0:0:0:0:
109,192,48033,1,0,0:0:0:0:
329,192,48121,1,0,0:0:0:30:BaSS.wav
475,192,48121,1,0,0:0:0:0:
36,192,48121,1,0,0:0:0:0:
109,192,48210,1,0,0:0:0:0:
256,192,48210,1,0,0:0:0:0:
182,192,48298,1,0,0:0:0:30:BaSS.wav
402,192,48298,1,0,0:0:0:0:
475,192,48298,1,0,0:0:0:0:
329,192,48386,1,0,0:0:0:0:
109,192,48386,1,0,0:0:0:0:
256,192,48474,1,0,0:0:0:30:KicK.wav
36,192,48474,1,0,0:0:0:0:
475,192,48474,1,0,0:0:0:0:
182,192,48563,1,0,0:0:0:0:
329,192,48563,1,0,0:0:0:0:
402,192,48651,1,0,0:0:0:30:BaSS.wav
109,192,48651,1,0,0:0:0:0:
36,192,48651,1,0,0:0:0:0:
475,192,48739,1,0,0:0:0:0:
256,192,48739,1,0,0:0:0:0:
36,192,48827,1,0,0:0:0:30:KicK.wav
109,192,48827,1,0,0:0:0:0:
329,192,48827,1,0,0:0:0:0:
402,192,48916,1,0,0:0:0:0:
182,192,48916,1,0,0:0:0:0:
256,192,49004,1,0,0:0:0:30:BaSS.wav
475,192,49004,1,0,0:0:0:0:
36,192,49004,1,0,0:0:0:0:
329,192,49092,1,0,0:0:0:0:
182,192,49092,1,0,0:0:0:0:
402,192,49180,1,0,0:0:0:30:KicK.wav
475,192,49180,1,0,0:0:0:0:
109,192,49180,1,0,0:0:0:0:
256,192,49269,1,0,0:0:0:0:
36,192,49269,1,0,0:0:0:0:
182,192,49357,1,0,0:0:0:30:KicK.wav
402,192,49357,1,0,0:0:0:0:
475,192,49357,1,0,0:0:0:0:
109,192,49445,1,0,0:0:0:0:
329,192,49445,1,0,0:0:0:0:
256,192,49533,1,0,0:0:0:30:BaSS.wav
36,192,49533,1,0,0:0:0:0:
475,192,49533,1,0,0:0:0:0:
182,192,49621,1,0,0:0:0:0:
402,192,49621,1,0,0:0:0:0:
329,192,49710,1,0,0:0:0:0:
36,192,49710,1,0,0:0:0:0:
256,192,49798,1,0,0:0:0:0:
402,192,49798,1,0,0:0:0:0:
475,192,49886,1,0,0:0:0:30:KicK.wav
36,192,49886,1,0,0:0:0:0:
329,192,49886,1,0,0:0:0:0:
109,192,49974,1,0,0:0:0:0:
256,192,49974,1,0,0:0:0:0:
329,192,50063,1,0,0:0:0:30:BaSS.wav
475,192,50063,1,0,0:0:0:0:
402,192,50063,1,0,0:0:0:0:
182,192,50151,1,0,0:0:0:0:
36,192,50151,1,0,0:0:0:0:
256,192,50239,1,0,0:0:0:0:
402,192,50239,1,0,0:0:0:0:
329,192,50327,1,0,0:0:0:0:
182,192,50327,1,0,0:0:0:0:
256,192,50416,1,0,0:0:0:30:BaSS.wav
109,192,50416,1,0,0:0:0:0:
36,192,50416,1,0,0:0:0:0:
402,192,50504,1,0,0:0:0:0:
329,192,50504,1,0,0:0:0:0:
182,192,50592,1,0,0:0:0:30:KicK.wav
36,192,50592,1,0,0:0:0:0:
475,192,50592,1,0,0:0:0:0:
109,192,50680,1,0,0:0:0:0:
256,192,50680,1,0,0:0:0:0:
475,192,50769,1,0,0:0:0:30:BaSS.wav
402,192,50769,1,0,0:0:0:0:
182,192,50769,1,0,0:0:0:0:
256,192,50857,1,0,0:0:0:0:
109,192,50857,1,0,0:0:0:0:
36,192,50945,1,0,0:0:0:30:BaSS.wav
329,192,50945,1,0,0:0:0:0:
475,192,50945,1,0,0:0:0:0:
402,192,51033,1,0,0:0:0:0:
182,192,51033,1,0,0:0:0:0:
256,192,51121,1,0,0:0:0:0:
109,192,51121,1,0,0:0:0:0:
36,192,51210,1,0,0:0:0:0:
329,192,51210,1,0,0:0:0:0:
402,192,51298,1,0,0:0:0:30:KicK.wav
475,192,51298,1,0,0:0:0:0:
182,192,51298,1,0,0:0:0:0:
256,192,51386,1,0,0:0:0:0:
36,192,51386,1,0,0:0:0:0:
329,192,51474,1,0,0:0:0:30:BaSS.wav
402,192,51474,1,0,0:0:0:0:
109,192,51474,1,0,0:0:0:0:
182,192,51563,1,0,0:0:0:0:
256,192,51563,1,0,0:0:0:0:
475,192,51651,1,0,0:0:0:0:
36,192,51651,1,0,0:0:0:0:
329,192,51739,1,0,0:0:0:0:
109,192,51739,1,0,0:0:0:0:
182,192,51827,1,0,0:0:0:30:BaSS.wav
475,192,51827,1,0,0:0:0:0:
256,192,51827,1,0,0:0:0:0:
402,192,51916,1,0,0:0:0:0:
109,192,51916,1,0,0:0:0:0:
36,192,52004,1,0,0:0:0:30:KicK.wav
329,192,52004,1,0,0:0:0:0:
256,192,52004,1,0,0:0:0:0:
182,192,52092,1,0,0:0:0:0:
402,192,52092,1,0,0:0:0:0:
475,192,52180,1,0,0:0:0:0:
109,192,52180,1,0,0:0:0:0:
36,192,52269,1,0,0:0:0:0:
256,192,52269,1,0,0:0:0:0:
182,192,52357,1,0,0:0:0:30:BaSS.wav
475,192,52357,1,0,0:0:0:0:
402,192,52357,1,0,0:0:0:0:
329,192,52445,1,0,0:0:0:0:
36,192,52445,1,0,0:0:0:0:
109,192,52533,1,0,0:0:0:0:
256,192,52533,1,0,0:0:0:0:
182,192,52621,1,0,0:0:0:0:
329,192,52621,1,0,0:0:0:0:
256,192,52710,1,0,0:0:0:30:KicK.wav
402,192,52710,1,0,0:0:0:0:
475,192,52710,1,0,0:0:0:0:
182,192,52798,1,0,0:0:0:0:
36,192,52798,1,0,0:0:0:0:
402,192,52886,1,0,0:0:0:30:BaSS.wav
475,192,52886,1,0,0:0:0:0:
329,192,52886,1,0,0:0:0:0:
256,192,52974,1,0,0:0:0:0:
109,192,52974,1,0,0:0:0:0:
475,192,53063,1,0,0:0:0:0:
36,192,53063,1,0,0:0:0:0:
329,192,53151,1,0,0:0:0:0:
182,192,53151,1,0,0:0:0:0:
475,192,53239,1,0,0:0:0:30:BaSS.wav
36,192,53239,1,0,0:0:0:0:
109,192,53239,1,0,0:0:0:0:
402,192,53327,1,0,0:0:0:0:
256,192,53327,1,0,0:0:0:0:
329,192,53416,1,0,0:0:0:30:KicK.wav
109,192,53416,1,0,0:0:0:0:
36,192,53416,1,0,0:0:0:0:
182,192,53504,1,0,0:0:0:0:
402,192,53504,1,0,0:0:0:0:
36,192,53592,1,0,0:0:0:30:BaSS.wav
256,192,53592,1,0,0:0:0:0:
475,192,53592,1,0,0:0:0:0:
402,192,53680,1,0,0:0:0:0:
109,192,53680,1,0,0:0:0:0:
475,192,53769,1,0,0:0:0:30:KicK.wav
329,192,53769,1,0,0:0:0:0:
182,192,53769,1,0,0:0:0:0:
256,192,53857,1,0,0:0:0:30:Snare.wav
36,192,53857,1,0,0:0:0:0:
109,192,53857,1,0,0:0:0:0:
182,192,53945,1,0,0:0:0:30:BaSS.wav
402,192,53945,1,0,0:0:0:0:
475,192,53945,1,0,0:0:0:0:
329,192,54033,1,0,0:0:0:30:Snare.wav
109,192,54033,1,0,0:0:0:0:
36,192,54033,1,0,0:0:0:0:
256,192,54121,1,0,0:0:0:30:Snare.wav
475,192,54121,1,0,0:0:0:0:
402,192,54121,1,0,0:0:0:0:
329,192,54210,1,0,0:0:0:30:Snare.wav
182,192,54210,1,0,0:0:0:0:
36,192,54210,1,0,0:0:0:0:
475,192,54298,1,0,0:0:0:30:BaSS.wav
256,192,54298,1,0,0:0:0:0:
109,192,54298,1,0,0:0:0:0:
402,192,54386,1,0,0:0:0:30:Snare.wav
329,192,54386,1,0,0:0:0:0:
182,192,54386,1,0,0:0:0:0:
475,192,54474,1,0,0:0:0:30:Snare.wav
256,192,54474,1,0,0:0:0:0:
36,192,54474,1,0,0:0:0:0:
109,192,54563,1,0,0:0:0:0:
329,192,54563,1,0,0:0:0:0:
402,192,54651,1,0,0:0:0:30:BaSS.wav
182,192,54651,1,0,0:0:0:0:
475,192,54651,1,0,0:0:0:0:
109,192,54739,1,0,0:0:0:30:Snare.wav
256,192,54739,1,0,0:0:0:0:
329,192,54827,1,0,0:0:0:30:BaSS.wav
475,192,54827,1,0,0:0:0:0:
36,192,54827,1,0,0:0:0:0:
256,192,54871,1,0,0:0:0:30:Snare.wav
182,192,54916,1,0,0:0:0:30:Snare.wav
109,192,54960,1,0,0:0:0:30:Snare.wav
475,192,55004,1,0,0:0:0:30:BaSS.wav
402,192,55004,1,0,0:0:0:0:
36,192,55004,1,0,0:0:0:0:
329,192,55048,1,0,0:0:0:30:Snare.wav
256,192,55092,1,0,0:0:0:30:Snare.wav
182,192,55136,1,0,0:0:0:30:Snare.wav
475,192,55180,1,0,0:0:0:30:CrashR.wav
109,192,55180,1,0,0:0:0:30:BaSS.wav
36,192,55180,1,0,0:0:0:0:
402,192,55180,128,0,55269:0:0:0:0:
329,192,55269,128,0,55357:0:0:0:0:
256,192,55357,128,0,55445:0:0:0:0:
109,192,55357,1,0,0:0:0:0:
182,192,55445,128,0,55533:0:0:0:0:
475,192,55533,128,0,55621:0:0:0:30:KicK.wav
36,192,55533,1,0,0:0:0:0:
109,192,55533,1,0,0:0:0:0:
329,192,55533,1,0,0:0:0:0:
402,192,55621,128,0,55710:0:0:0:0:
329,192,55710,128,0,55798:0:0:0:0:
182,192,55710,1,0,0:0:0:0:
256,192,55798,128,0,55886:0:0:0:0:
36,192,55886,128,0,55974:0:0:0:30:BaSS.wav
475,192,55886,1,0,0:0:0:0:
402,192,55886,1,0,0:0:0:0:
109,192,55974,128,0,56063:0:0:0:0:
182,192,56063,128,0,56151:0:0:0:0:
475,192,56063,1,0,0:0:0:0:
329,192,56151,128,0,56239:0:0:0:0:
475,192,56239,128,0,56327:0:0:0:30:KicK.wav
256,192,56239,1,0,0:0:0:0:
109,192,56239,1,0,0:0:0:0:
36,192,56239,1,0,0:0:0:0:
402,192,56327,128,0,56416:0:0:0:0:
329,192,56416,128,0,56504:0:0:0:0:
36,192,56416,1,0,0:0:0:0:
182,192,56504,128,0,56592:0:0:0:0:
36,192,56592,128,0,56680:0:0:0:30:BaSS.wav
402,192,56592,1,0,0:0:0:0:
256,192,56592,1,0,0:0:0:0:
109,192,56680,128,0,56769:0:0:0:0:
182,192,56769,128,0,56857:0:0:0:0:
402,192,56769,1,0,0:0:0:0:
256,192,56857,128,0,56945:0:0:0:0:
109,192,56945,128,0,57033:0:0:0:30:KicK.wav
475,192,56945,1,0,0:0:0:0:
36,192,56945,1,0,0:0:0:0:
329,192,56945,1,0,0:0:0:0:
182,192,57033,128,0,57121:0:0:0:0:
256,192,57121,128,0,57210:0:0:0:0:
402,192,57121,1,0,0:0:0:0:
329,192,57210,128,0,57298:0:0:0:0:
475,192,57298,128,0,57386:0:0:0:30:BaSS.wav
182,192,57298,1,0,0:0:0:0:
36,192,57298,1,0,0:0:0:0:
402,192,57386,128,0,57474:0:0:0:0:
329,192,57474,128,0,57563:0:0:0:0:
109,192,57474,1,0,0:0:0:0:
256,192,57563,128,0,57651:0:0:0:0:
402,192,57651,128,0,57739:0:0:0:30:KicK.wav
475,192,57651,1,0,0:0:0:0:
182,192,57651,1,0,0:0:0:0:
36,192,57651,1,0,0:0:0:0:
329,192,57739,128,0,57827:0:0:0:0:
256,192,57827,128,0,57916:0:0:0:30:KicK.wav
475,192,57827,1,0,0:0:0:0:
109,192,57827,1,0,0:0:0:0:
36,192,57827,1,0,0:0:0:0:
182,192,57916,128,0,58004:0:0:0:0:
109,192,58004,128,0,58092:0:0:0:30:BaSS.wav
475,192,58004,1,0,0:0:0:0:
329,192,58004,1,0,0:0:0:0:
182,192,58092,128,0,58180:0:0:0:0:
256,192,58180,128,0,58269:0:0:0:0:
36,192,58180,1,0,0:0:0:0:
329,192,58269,128,0,58357:0:0:0:0:
36,192,58357,128,0,58445:0:0:0:30:KicK.wav
475,192,58357,1,0,0:0:0:0:
182,192,58357,1,0,0:0:0:0:
402,192,58357,1,0,0:0:0:0:
109,192,58445,128,0,58533:0:0:0:0:
182,192,58533,128,0,58621:0:0:0:0:
329,192,58533,1,0,0:0:0:0:
256,192,58621,128,0,58710:0:0:0:0:
475,192,58710,128,0,58798:0:0:0:30:BaSS.wav
109,192,58710,1,0,0:0:0:0:
36,192,58710,1,0,0:0:0:0:
402,192,58798,128,0,58886:0:0:0:0:
329,192,58886,128,0,58974:0:0:0:0:
36,192,58886,1,0,0:0:0:0:
182,192,58974,128,0,59063:0:0:0:0:
36,192,59063,128,0,59151:0:0:0:30:KicK.wav
475,192,59063,1,0,0:0:0:0:
402,192,59063,1,0,0:0:0:0:
256,192,59063,1,0,0:0:0:0:
109,192,59151,128,0,59239:0:0:0:0:
182,192,59239,128,0,59327:0:0:0:0:
475,192,59239,1,0,0:0:0:0:
329,192,59327,128,0,59416:0:0:0:0:
475,192,59416,128,0,59504:0:0:0:30:BaSS.wav
256,192,59416,1,0,0:0:0:0:
109,192,59416,1,0,0:0:0:0:
402,192,59504,128,0,59592:0:0:0:0:
329,192,59592,128,0,59680:0:0:0:0:
109,192,59592,1,0,0:0:0:0:
256,192,59680,128,0,59769:0:0:0:0:
402,192,59769,128,0,59857:0:0:0:30:KicK.wav
182,192,59769,1,0,0:0:0:0:
36,192,59769,1,0,0:0:0:0:
475,192,59769,1,0,0:0:0:0:
329,192,59857,128,0,59945:0:0:0:0:
256,192,59945,128,0,60033:0:0:0:0:
109,192,59945,1,0,0:0:0:0:
182,192,60033,128,0,60121:0:0:0:0:
36,192,60121,128,0,60210:0:0:0:30:BaSS.wav
475,192,60121,1,0,0:0:0:0:
329,192,60121,1,0,0:0:0:0:
109,192,60210,128,0,60298:0:0:0:0:
182,192,60298,128,0,60386:0:0:0:0:
402,192,60298,1,0,0:0:0:0:
256,192,60386,128,0,60474:0:0:0:0:
109,192,60474,128,0,60563:0:0:0:30:KicK.wav
475,192,60474,1,0,0:0:0:0:
329,192,60474,1,0,0:0:0:0:
36,192,60474,1,0,0:0:0:0:
182,192,60563,128,0,60651:0:0:0:0:
256,192,60651,128,0,60739:0:0:0:30:KicK.wav
402,192,60651,1,0,0:0:0:0:
475,192,60651,1,0,0:0:0:0:
36,192,60651,1,0,0:0:0:0:
329,192,60739,128,0,60827:0:0:0:30:Snare.wav
109,192,60739,1,0,0:0:0:0:
402,192,60827,128,0,60916:0:0:0:30:BaSS.wav
475,192,60827,1,0,0:0:0:0:
182,192,60827,1,0,0:0:0:0:
256,192,60916,128,0,61004:0:0:0:0:
182,192,61004,128,0,61092:0:0:0:0:
402,192,61004,1,0,0:0:0:0:
109,192,61092,128,0,61180:0:0:0:0:
402,192,61180,128,0,61269:0:0:0:30:KicK.wav
36,192,61180,1,0,0:0:0:0:
182,192,61180,1,0,0:0:0:0:
475,192,61180,1,0,0:0:0:0:
256,192,61269,128,0,61357:0:0:0:0:
182,192,61357,128,0,61445:0:0:0:0:
402,192,61357,1,0,0:0:0:0:
109,192,61445,128,0,61533:0:0:0:0:
329,192,61533,128,0,61621:0:0:0:30:BaSS.wav
475,192,61533,1,0,0:0:0:0:
36,192,61533,1,0,0:0:0:0:
182,192,61621,128,0,61710:0:0:0:0:
109,192,61710,128,0,61798:0:0:0:0:
329,192,61710,1,0,0:0:0:0:
36,192,61798,128,0,61886:0:0:0:0:
329,192,61886,128,0,61974:0:0:0:30:KicK.wav
475,192,61886,1,0,0:0:0:0:
402,192,61886,1,0,0:0:0:0:
256,192,61886,1,0,0:0:0:0:
182,192,61974,128,0,62063:0:0:0:0:
109,192,62063,128,0,62151:0:0:0:0:
329,192,62063,1,0,0:0:0:0:
36,192,62151,128,0,62239:0:0:0:0:
182,192,62239,128,0,62327:0:0:0:30:BaSS.wav
475,192,62239,1,0,0:0:0:0:
402,192,62239,1,0,0:0:0:0:
256,192,62327,128,0,62416:0:0:0:0:
329,192,62416,128,0,62504:0:0:0:0:
109,192,62416,1,0,0:0:0:0:
402,192,62504,128,0,62592:0:0:0:0:
475,192,62592,128,0,62680:0:0:0:30:KicK.wav
36,192,62592,1,0,0:0:0:0:
109,192,62592,1,0,0:0:0:0:
329,192,62592,1,0,0:0:0:0:
256,192,62680,128,0,62769:0:0:0:0:
182,192,62769,128,0,62857:0:0:0:0:
402,192,62769,1,0,0:0:0:0:
109,192,62857,128,0,62945:0:0:0:0:
36,192,62945,128,0,63033:0:0:0:30:BaSS.wav
475,192,62945,1,0,0:0:0:0:
329,192,62945,1,0,0:0:0:0:
256,192,63033,128,0,63121:0:0:0:0:
329,192,63121,128,0,63210:0:0:0:0:
109,192,63121,1,0,0:0:0:0:
402,192,63210,128,0,63298:0:0:0:0:
475,192,63298,128,0,63386:0:0:0:30:KicK.wav
36,192,63298,1,0,0:0:0:0:
109,192,63298,1,0,0:0:0:0:
329,192,63298,1,0,0:0:0:0:
256,192,63386,128,0,63474:0:0:0:0:
182,192,63474,128,0,63563:0:0:0:30:KicK.wav
36,192,63474,1,0,0:0:0:0:
475,192,63474,1,0,0:0:0:0:
402,192,63474,1,0,0:0:0:0:
109,192,63563,128,0,63651:0:0:0:0:
36,192,63651,128,0,63739:0:0:0:30:KicK.wav
329,192,63651,1,0,0:0:0:0:
475,192,63651,1,0,0:0:0:0:
402,192,63651,1,0,0:0:0:0:
256,192,63739,128,0,63827:0:0:0:0:
475,192,63827,128,0,63916:0:0:0:30:KicK.wav
109,192,63827,1,0,0:0:0:0:
36,192,63827,1,0,0:0:0:0:
182,192,63827,1,0,0:0:0:0:
402,192,63916,128,0,64004:0:0:0:0:
329,192,64004,128,0,64092:0:0:0:30:KicK.wav
182,192,64004,1,0,0:0:0:0:
109,192,64004,1,0,0:0:0:0:
36,192,64004,1,0,0:0:0:0:
402,192,64092,128,0,64180:0:0:0:0:
475,192,64180,128,0,64269:0:0:0:30:KicK.wav
182,192,64180,1,0,0:0:0:0:
109,192,64180,1,0,0:0:0:0:
36,192,64180,1,0,0:0:0:0:
329,192,64269,128,0,64357:0:0:0:0:
475,192,64357,128,0,64445:0:0:0:30:KicK.wav
109,192,64357,1,0,0:0:0:0:
182,192,64357,1,0,0:0:0:0:
36,192,64357,1,0,0:0:0:0:
256,192,64445,128,0,64533:0:0:0:0:
475,192,64533,1,0,0:0:0:30:KicK.wav
402,192,64533,1,0,0:0:0:0:
329,192,64533,1,0,0:0:0:0:
36,192,64533,128,0,64621:0:0:0:0:
109,192,64621,128,0,64710:0:0:0:0:
329,192,64710,1,0,0:0:0:30:KicK.wav
402,192,64710,1,0,0:0:0:0:
475,192,64710,1,0,0:0:0:0:
182,192,64710,128,0,64798:0:0:0:0:
109,192,64798,128,0,64886:0:0:0:0:
402,192,64886,1,0,0:0:0:30:KicK.wav
329,192,64886,1,0,0:0:0:0:
475,192,64886,1,0,0:0:0:0:
36,192,64886,128,0,64974:0:0:0:0:
182,192,64974,128,0,65063:0:0:0:0:
475,192,65063,128,0,65151:0:0:0:30:KicK.wav
109,192,65063,1,0,0:0:0:0:
36,192,65063,1,0,0:0:0:0:
182,192,65151,1,0,0:0:0:30:Snare.wav
329,192,65151,128,0,65239:0:0:0:0:
256,192,65151,1,0,0:0:0:0:
109,192,65239,1,0,0:0:0:30:Snare.wav
475,192,65239,128,0,65327:0:0:0:0:
36,192,65239,1,0,0:0:0:0:
329,192,65327,128,0,65416:0:0:0:30:Snare.wav
182,192,65327,1,0,0:0:0:0:
256,192,65327,1,0,0:0:0:0:
36,192,65416,128,0,65504:0:0:0:30:BaSS.wav
475,192,65416,1,0,0:0:0:0:
402,192,65416,1,0,0:0:0:0:
182,192,65504,128,0,65592:0:0:0:30:Snare.wav
329,192,65504,1,0,0:0:0:0:
256,192,65504,1,0,0:0:0:0:
402,192,65592,1,0,0:0:0:30:Snare.wav
36,192,65592,128,0,65680:0:0:0:0:
475,192,65592,1,0,0:0:0:0:
182,192,65680,128,0,65769:0:0:0:30:Snare.wav
329,192,65680,1,0,0:0:0:0:
256,192,65680,1,0,0:0:0:0:
475,192,65769,1,0,0:0:0:30:BaSS.wav
402,192,65769,1,0,0:0:0:0:
36,192,65769,1,0,0:0:0:0:
182,192,65945,1,0,0:0:0:30:Snare.wav
475,192,65945,1,0,0:0:0:0:
402,192,65989,1,0,0:0:0:30:Snare.wav
109,192,66033,1,0,0:0:0:30:Snare.wav
329,192,66033,1,0,0:0:0:0:
256,192,66077,1,0,0:0:0:30:Snare.wav
36,192,66121,1,0,0:0:0:30:BaSS.wav
182,192,66121,1,0,0:0:0:0:
182,192,66298,1,0,0:0:0:30:BaSS.wav
329,192,66298,1,0,0:0:0:0:
475,192,66474,5,0,0:0:0:30:CrashR.wav
402,192,66474,1,0,0:0:0:0:
182,192,66474,128,0,66519:0:0:0:0:
36,192,66474,128,0,66519:0:0:0:0:
329,192,66651,1,0,0:0:0:0:
182,192,66651,128,0,66695:0:0:0:0:
36,192,66651,128,0,66695:0:0:0:0:
256,192,66827,1,0,0:0:0:0:
182,192,66827,128,0,66871:0:0:0:0:
36,192,66827,128,0,66871:0:0:0:0:
329,192,66916,1,0,0:0:0:0:
402,192,67004,1,0,0:0:0:0:
36,192,67004,128,0,67048:0:0:0:0:
182,192,67004,128,0,67048:0:0:0:0:
475,192,67092,1,0,0:0:0:0:
256,192,67180,1,0,0:0:0:0:
182,192,67180,128,0,67224:0:0:0:0:
36,192,67180,128,0,67224:0:0:0:0:
402,192,67357,1,0,0:0:0:0:
36,192,67357,128,0,67401:0:0:0:0:
182,192,67357,128,0,67401:0:0:0:0:
329,192,67533,1,0,0:0:0:0:
182,192,67533,128,0,67577:0:0:0:0:
36,192,67533,128,0,67577:0:0:0:0:
256,192,67710,1,0,0:0:0:0:
182,192,67710,128,0,67754:0:0:0:0:
36,192,67710,128,0,67754:0:0:0:0:
182,192,67886,1,0,0:0:0:0:
475,192,67886,128,0,67930:0:0:0:0:
329,192,67886,128,0,67930:0:0:0:0:
109,192,68063,1,0,0:0:0:0:
475,192,68063,128,0,68107:0:0:0:0:
329,192,68063,128,0,68107:0:0:0:0:
36,192,68239,1,0,0:0:0:0:
329,192,68239,128,0,68283:0:0:0:0:
475,192,68239,128,0,68283:0:0:0:0:
182,192,68327,1,0,0:0:0:0:
109,192,68416,1,0,0:0:0:0:
475,192,68416,128,0,68460:0:0:0:0:
329,192,68416,128,0,68460:0:0:0:0:
36,192,68504,1,0,0:0:0:0:
256,192,68592,1,0,0:0:0:0:
475,192,68592,128,0,68636:0:0:0:0:
329,192,68592,128,0,68636:0:0:0:0:
109,192,68769,1,0,0:0:0:0:
329,192,68769,128,0,68813:0:0:0:0:
475,192,68769,128,0,68813:0:0:0:0:
182,192,68945,1,0,0:0:0:0:
475,192,68945,128,0,68989:0:0:0:0:
329,192,68945,128,0,68989:0:0:0:0:
256,192,69121,1,0,0:0:0:0:
329,192,69121,128,0,69166:0:0:0:0:
475,192,69121,128,0,69166:0:0:0:0:
329,192,69298,1,0,0:0:0:0:
109,192,69298,128,0,69342:0:0:0:0:
36,192,69298,128,0,69342:0:0:0:0:
256,192,69474,1,0,0:0:0:0:
36,192,69474,128,0,69519:0:0:0:0:
109,192,69474,128,0,69519:0:0:0:0:
329,192,69563,1,0,0:0:0:0:
402,192,69651,1,0,0:0:0:0:
36,192,69651,128,0,69695:0:0:0:0:
109,192,69651,128,0,69695:0:0:0:0:
256,192,69739,1,0,0:0:0:0:
475,192,69827,1,0,0:0:0:0:
36,192,69827,128,0,69871:0:0:0:0:
109,192,69827,128,0,69871:0:0:0:0:
329,192,69916,1,0,0:0:0:0:
475,192,70004,1,0,0:0:0:0:
109,192,70004,128,0,70048:0:0:0:0:
36,192,70004,128,0,70048:0:0:0:0:
256,192,70092,1,0,0:0:0:0:
329,192,70180,1,0,0:0:0:0:
36,192,70180,128,0,70224:0:0:0:0:
109,192,70180,128,0,70224:0:0:0:0:
402,192,70269,1,0,0:0:0:0:
475,192,70357,1,0,0:0:0:0:
109,192,70357,128,0,70401:0:0:0:0:
36,192,70357,128,0,70401:0:0:0:0:
329,192,70445,1,0,0:0:0:0:
402,192,70533,1,0,0:0:0:0:
109,192,70533,128,0,70577:0:0:0:0:
36,192,70533,128,0,70577:0:0:0:0:
256,192,70621,1,0,0:0:0:0:
109,192,70710,1,0,0:0:0:0:
402,192,70710,128,0,70754:0:0:0:0:
475,192,70710,128,0,70754:0:0:0:0:
402,192,70886,128,0,70930:0:0:0:0:
475,192,70886,128,0,70930:0:0:0:0:
182,192,71063,1,0,0:0:0:0:
402,192,71063,128,0,71107:0:0:0:0:
475,192,71063,128,0,71107:0:0:0:0:
256,192,71151,1,0,0:0:0:0:
329,192,71239,1,0,0:0:0:0:
402,192,71239,128,0,71283:0:0:0:0:
475,192,71239,128,0,71283:0:0:0:0:
182,192,71327,1,0,0:0:0:0:
36,192,71416,1,0,0:0:0:0:
402,192,71416,128,0,71460:0:0:0:0:
475,192,71416,128,0,71460:0:0:0:0:
109,192,71592,1,0,0:0:0:0:
402,192,71592,128,0,71636:0:0:0:0:
475,192,71592,128,0,71636:0:0:0:0:
182,192,71769,1,0,0:0:0:0:
402,192,71769,128,0,71813:0:0:0:0:
475,192,71769,128,0,71813:0:0:0:0:
256,192,71945,1,0,0:0:0:0:
402,192,71945,128,0,71989:0:0:0:0:
475,192,71945,128,0,71989:0:0:0:0:
329,192,72121,1,0,0:0:0:0:
109,192,72121,128,0,72166:0:0:0:0:
36,192,72121,128,0,72166:0:0:0:0:
329,192,72298,1,0,0:0:0:0:
109,192,72298,128,0,72342:0:0:0:0:
182,192,72298,128,0,72342:0:0:0:0:
402,192,72386,1,0,0:0:0:0:
475,192,72474,1,0,0:0:0:0:
182,192,72474,128,0,72519:0:0:0:0:
256,192,72474,128,0,72519:0:0:0:0:
329,192,72563,1,0,0:0:0:0:
402,192,72651,1,0,0:0:0:0:
182,192,72651,128,0,72695:0:0:0:0:
109,192,72651,128,0,72695:0:0:0:0:
256,192,72739,1,0,0:0:0:0:
329,192,72827,1,0,0:0:0:0:
109,192,72827,128,0,72871:0:0:0:0:
36,192,72827,128,0,72871:0:0:0:0:
475,192,72916,1,0,0:0:0:0:
402,192,73004,1,0,0:0:0:0:
109,192,73004,128,0,73048:0:0:0:0:
182,192,73004,128,0,73048:0:0:0:0:
329,192,73092,1,0,0:0:0:0:
475,192,73180,1,0,0:0:0:0:
256,192,73180,128,0,73224:0:0:0:0:
182,192,73180,128,0,73224:0:0:0:0:
329,192,73269,1,0,0:0:0:0:
402,192,73357,1,0,0:0:0:0:
182,192,73357,128,0,73401:0:0:0:0:
109,192,73357,128,0,73401:0:0:0:0:
256,192,73445,1,0,0:0:0:0:
36,192,73533,1,0,0:0:0:0:
475,192,73533,128,0,73577:0:0:0:0:
329,192,73533,128,0,73577:0:0:0:0:
109,192,73621,1,0,0:0:0:0:
402,192,73710,1,0,0:0:0:0:
256,192,73710,128,0,73754:0:0:0:0:
182,192,73710,128,0,73754:0:0:0:0:
109,192,73798,1,0,0:0:0:0:
36,192,73886,1,0,0:0:0:0:
329,192,73886,128,0,73930:0:0:0:0:
256,192,73886,128,0,73930:0:0:0:0:
182,192,73974,1,0,0:0:0:0:
109,192,74063,1,0,0:0:0:0:
329,192,74063,128,0,74107:0:0:0:0:
402,192,74063,128,0,74107:0:0:0:0:
256,192,74151,1,0,0:0:0:0:
182,192,74239,1,0,0:0:0:0:
402,192,74239,128,0,74283:0:0:0:0:
475,192,74239,128,0,74283:0:0:0:0:
256,192,74327,1,0,0:0:0:0:
109,192,74416,1,0,0:0:0:0:
402,192,74416,128,0,74460:0:0:0:0:
329,192,74416,128,0,74460:0:0:0:0:
182,192,74504,1,0,0:0:0:0:
36,192,74592,1,0,0:0:0:0:
329,192,74592,128,0,74636:0:0:0:0:
256,192,74592,128,0,74636:0:0:0:0:
109,192,74680,1,0,0:0:0:0:
475,192,74769,1,0,0:0:0:0:
256,192,74769,128,0,74813:0:0:0:0:
182,192,74769,128,0,74813:0:0:0:0:
402,192,74857,1,0,0:0:0:0:
329,192,74945,1,0,0:0:0:0:
109,192,74945,128,0,74989:0:0:0:0:
36,192,74945,128,0,74989:0:0:0:0:
402,192,75121,1,0,0:0:0:0:
109,192,75121,128,0,75166:0:0:0:0:
182,192,75121,128,0,75166:0:0:0:0:
329,192,75210,1,0,0:0:0:0:
256,192,75298,128,0,75342:0:0:0:0:
182,192,75298,128,0,75342:0:0:0:0:
402,192,75386,1,0,0:0:0:0:
182,192,75474,128,0,75519:0:0:0:0:
109,192,75474,128,0,75519:0:0:0:0:
329,192,75474,1,0,0:0:0:0:
256,192,75563,1,0,0:0:0:0:
36,192,75651,1,0,0:0:0:0:
475,192,75651,128,0,75695:0:0:0:0:
329,192,75651,128,0,75695:0:0:0:0:
329,192,75827,128,0,75871:0:0:0:0:
475,192,75827,128,0,75871:0:0:0:0:
109,192,75827,1,0,0:0:0:0:
475,192,76004,128,0,76048:0:0:0:0:
329,192,76004,128,0,76048:0:0:0:0:
182,192,76004,1,0,0:0:0:0:
329,192,76180,128,0,76224:0:0:0:0:
475,192,76180,128,0,76224:0:0:0:0:
256,192,76180,1,0,0:0:0:0:
182,192,76357,128,0,76401:0:0:0:0:
36,192,76357,128,0,76401:0:0:0:0:
402,192,76357,1,0,0:0:0:0:
36,192,76533,128,0,76577:0:0:0:0:
182,192,76533,128,0,76577:0:0:0:0:
182,192,76710,128,0,76754:0:0:0:0:
36,192,76710,128,0,76754:0:0:0:0:
329,192,76710,1,0,0:0:0:0:
475,192,76798,1,0,0:0:0:0:
36,192,76886,128,0,76930:0:0:0:0:
182,192,76886,128,0,76930:0:0:0:0:
329,192,76886,1,0,0:0:0:0:
256,192,76974,1,0,0:0:0:0:
475,192,77063,128,0,77107:0:0:0:0:
329,192,77063,128,0,77107:0:0:0:0:
182,192,77063,1,0,0:0:0:0:
329,192,77239,128,0,77283:0:0:0:0:
475,192,77239,128,0,77283:0:0:0:0:
475,192,77416,128,0,77460:0:0:0:0:
329,192,77416,128,0,77460:0:0:0:0:
36,192,77416,1,0,0:0:0:0:
109,192,77504,1,0,0:0:0:0:
475,192,77592,128,0,77636:0:0:0:0:
329,192,77592,128,0,77636:0:0:0:0:
182,192,77592,1,0,0:0:0:0:
256,192,77680,1,0,0:0:0:0:
109,192,77769,1,0,0:0:0:30:CrashR.wav
329,192,77769,1,0,0:0:0:30:BaSS.wav
475,192,77769,1,0,0:0:0:0:
402,192,77769,1,0,0:0:0:0:
36,192,77769,128,0,78474:0:0:0:0:
256,192,77945,1,0,0:0:0:0:
182,192,78121,1,0,0:0:0:0:
256,192,78210,1,0,0:0:0:0:
109,192,78298,1,0,0:0:0:0:
329,192,78298,1,0,0:0:0:0:
402,192,78386,1,0,0:0:0:0:
109,192,78474,1,0,0:0:0:30:KicK.wav
182,192,78474,1,0,0:0:0:0:
475,192,78474,128,0,78827:0:0:0:0:
329,192,78474,1,0,0:0:0:0:
256,192,78651,1,0,0:0:0:0:
402,192,78651,128,0,78827:0:0:0:0:
36,192,78827,1,0,0:0:0:30:BaSS.wav
109,192,78827,1,0,0:0:0:0:
329,192,78827,128,0,79180:0:0:0:0:
182,192,79004,1,0,0:0:0:0:
402,192,79004,128,0,79180:0:0:0:0:
475,192,79180,128,0,79533:0:0:0:30:BaSS.wav
109,192,79180,1,0,0:0:0:0:
36,192,79180,1,0,0:0:0:0:
256,192,79357,1,0,0:0:0:0:
402,192,79533,128,0,79886:0:0:0:0:
109,192,79533,1,0,0:0:0:0:
182,192,79621,1,0,0:0:0:0:
475,192,79710,1,0,0:0:0:0:
256,192,79710,1,0,0:0:0:0:
182,192,79798,1,0,0:0:0:0:
329,192,79886,128,0,80239:0:0:0:30:KicK.wav
475,192,79886,1,0,0:0:0:0:
109,192,79886,1,0,0:0:0:0:
36,192,79886,1,0,0:0:0:0:
109,192,80063,1,0,0:0:0:30:BaSS.wav
36,192,80063,1,0,0:0:0:0:
256,192,80239,128,0,80592:0:0:0:30:KicK.wav
475,192,80239,1,0,0:0:0:0:
402,192,80239,1,0,0:0:0:0:
182,192,80239,1,0,0:0:0:0:
109,192,80416,1,0,0:0:0:0:
36,192,80592,128,0,80945:0:0:0:30:BaSS.wav
329,192,80592,1,0,0:0:0:0:
475,192,80592,1,0,0:0:0:0:
256,192,80680,1,0,0:0:0:0:
182,192,80769,1,0,0:0:0:0:
402,192,80769,1,0,0:0:0:0:
329,192,80857,1,0,0:0:0:0:
475,192,80945,128,0,81298:0:0:0:0:
256,192,80945,1,0,0:0:0:0:
182,192,81121,1,0,0:0:0:0:
402,192,81298,128,0,81651:0:0:0:30:KicK.wav
256,192,81298,1,0,0:0:0:0:
109,192,81298,1,0,0:0:0:0:
36,192,81298,1,0,0:0:0:0:
329,192,81474,128,0,81651:0:0:0:0:
182,192,81474,1,0,0:0:0:0:
475,192,81651,1,0,0:0:0:30:BaSS.wav
36,192,81651,1,0,0:0:0:0:
256,192,81651,1,0,0:0:0:0:
182,192,81739,1,0,0:0:0:0:
329,192,81827,1,0,0:0:0:0:
109,192,81827,1,0,0:0:0:0:
36,192,81916,1,0,0:0:0:0:
182,192,82004,128,0,82710:0:0:0:30:BaSS.wav
475,192,82004,1,0,0:0:0:0:
402,192,82004,1,0,0:0:0:0:
36,192,82180,1,0,0:0:0:30:KicK.wav
109,192,82180,1,0,0:0:0:0:
256,192,82180,1,0,0:0:0:0:
329,192,82269,1,0,0:0:0:0:
402,192,82357,1,0,0:0:0:0:
256,192,82445,1,0,0:0:0:0:
402,192,82533,1,0,0:0:0:30:BaSS.wav
109,192,82533,1,0,0:0:0:0:
475,192,82533,1,0,0:0:0:0:
36,192,82710,128,0,83416:0:0:0:30:KicK.wav
475,192,82710,1,0,0:0:0:0:
109,192,82710,1,0,0:0:0:0:
402,192,82710,1,0,0:0:0:0:
329,192,82886,1,0,0:0:0:30:BaSS.wav
182,192,82886,1,0,0:0:0:0:
402,192,83063,1,0,0:0:0:30:KicK.wav
475,192,83063,1,0,0:0:0:0:
182,192,83063,1,0,0:0:0:0:
475,192,83239,1,0,0:0:0:30:KicK.wav
402,192,83239,1,0,0:0:0:0:
256,192,83239,1,0,0:0:0:0:
109,192,83416,128,0,83769:0:0:0:30:BaSS.wav
475,192,83416,1,0,0:0:0:0:
329,192,83416,1,0,0:0:0:0:
256,192,83592,128,0,83769:0:0:0:0:
402,192,83592,1,0,0:0:0:0:
402,192,83769,128,0,84121:0:0:0:0:
256,192,83945,128,0,84121:0:0:0:0:
109,192,83945,1,0,0:0:0:0:
475,192,84121,128,0,84474:0:0:0:30:KicK.wav
182,192,84121,1,0,0:0:0:0:
329,192,84121,1,0,0:0:0:0:
36,192,84121,1,0,0:0:0:0:
256,192,84298,1,0,0:0:0:0:
36,192,84474,128,0,84827:0:0:0:30:BaSS.wav
329,192,84474,1,0,0:0:0:0:
402,192,84474,1,0,0:0:0:0:
256,192,84651,1,0,0:0:0:0:
402,192,84827,128,0,85180:0:0:0:30:BaSS.wav
182,192,84827,1,0,0:0:0:0:
109,192,84827,1,0,0:0:0:0:
256,192,85004,128,0,85180:0:0:0:0:
36,192,85004,1,0,0:0:0:0:
109,192,85180,128,0,85533:0:0:0:0:
256,192,85357,128,0,85533:0:0:0:0:
475,192,85357,1,0,0:0:0:0:
475,192,85533,128,0,85886:0:0:0:30:KicK.wav
329,192,85533,1,0,0:0:0:0:
36,192,85533,1,0,0:0:0:0:
402,192,85533,1,0,0:0:0:0:
36,192,85710,1,0,0:0:0:30:BaSS.wav
182,192,85710,1,0,0:0:0:0:
402,192,85886,128,0,86239:0:0:0:30:KicK.wav
109,192,85886,1,0,0:0:0:0:
329,192,85886,1,0,0:0:0:0:
256,192,85886,1,0,0:0:0:0:
182,192,86063,1,0,0:0:0:0:
329,192,86239,128,0,86945:0:0:0:30:BaSS.wav
109,192,86239,1,0,0:0:0:0:
36,192,86239,1,0,0:0:0:0:
256,192,86416,1,0,0:0:0:0:
182,192,86592,128,0,86769:0:0:0:0:
475,192,86592,1,0,0:0:0:0:
109,192,86769,128,0,86945:0:0:0:0:
402,192,86769,1,0,0:0:0:0:
256,192,86945,1,0,0:0:0:30:KicK.wav
475,192,86945,1,0,0:0:0:0:
402,192,86945,1,0,0:0:0:0:
36,192,86945,128,0,87210:0:0:0:0:
182,192,87121,1,0,0:0:0:0:
475,192,87210,128,0,87651:0:0:0:0:
109,192,87298,1,0,0:0:0:30:BaSS.wav
256,192,87298,1,0,0:0:0:0:
329,192,87474,128,0,87651:0:0:0:0:
182,192,87474,1,0,0:0:0:0:
36,192,87651,128,0,88004:0:0:0:30:BaSS.wav
256,192,87651,1,0,0:0:0:0:
402,192,87651,1,0,0:0:0:0:
402,192,87827,1,0,0:0:0:30:BaSS.wav
256,192,87827,1,0,0:0:0:0:
475,192,88004,1,0,0:0:0:30:KicK.wav
402,192,88004,1,0,0:0:0:0:
109,192,88004,1,0,0:0:0:0:
182,192,88004,1,0,0:0:0:0:
256,192,88092,1,0,0:0:0:0:
109,192,88180,1,0,0:0:0:30:BaSS.wav
36,192,88180,1,0,0:0:0:0:
329,192,88180,1,0,0:0:0:0:
402,192,88269,1,0,0:0:0:0:
475,192,88357,128,0,88710:0:0:0:30:KicK.wav
256,192,88357,1,0,0:0:0:0:
109,192,88357,1,0,0:0:0:0:
36,192,88357,1,0,0:0:0:0:
182,192,88533,1,0,0:0:0:30:BaSS.wav
329,192,88533,1,0,0:0:0:0:
36,192,88710,128,0,89063:0:0:0:30:KicK.wav
402,192,88710,1,0,0:0:0:0:
329,192,88710,1,0,0:0:0:0:
182,192,88710,1,0,0:0:0:0:
256,192,88886,1,0,0:0:0:30:Snare.wav
109,192,88886,1,0,0:0:0:0:
329,192,88974,1,0,0:0:0:30:Snare.wav
475,192,89063,128,0,89769:0:0:0:30:CrashR.wav
182,192,89063,1,0,0:0:0:30:BaSS.wav
109,192,89063,1,0,0:0:0:0:
402,192,89063,1,0,0:0:0:0:
256,192,89239,1,0,0:0:0:0:
329,192,89416,1,0,0:0:0:0:
256,192,89504,1,0,0:0:0:0:
182,192,89592,1,0,0:0:0:0:
402,192,89592,1,0,0:0:0:0:
109,192,89680,1,0,0:0:0:0:
36,192,89769,128,0,90121:0:0:0:30:KicK.wav
402,192,89769,1,0,0:0:0:0:
329,192,89769,1,0,0:0:0:0:
182,192,89769,1,0,0:0:0:0:
109,192,89945,128,0,90121:0:0:0:0:
256,192,89945,1,0,0:0:0:0:
182,192,90121,128,0,90474:0:0:0:30:BaSS.wav
475,192,90121,1,0,0:0:0:0:
402,192,90121,1,0,0:0:0:0:
109,192,90298,128,0,90474:0:0:0:0:
329,192,90298,1,0,0:0:0:0:
36,192,90474,128,0,90827:0:0:0:30:BaSS.wav
475,192,90474,1,0,0:0:0:0:
402,192,90474,1,0,0:0:0:0:
256,192,90651,1,0,0:0:0:0:
109,192,90827,128,0,91180:0:0:0:0:
402,192,90827,1,0,0:0:0:0:
329,192,90916,1,0,0:0:0:0:
256,192,91004,1,0,0:0:0:0:
36,192,91004,1,0,0:0:0:0:
329,192,91092,1,0,0:0:0:0:
182,192,91180,128,0,91533:0:0:0:30:KicK.wav
475,192,91180,1,0,0:0:0:0:
402,192,91180,1,0,0:0:0:0:
36,192,91180,1,0,0:0:0:0:
329,192,91357,1,0,0:0:0:30:BaSS.wav
475,192,91357,1,0,0:0:0:0:
256,192,91533,128,0,91886:0:0:0:30:KicK.wav
109,192,91533,1,0,0:0:0:0:
36,192,91533,1,0,0:0:0:0:
402,192,91533,1,0,0:0:0:0:
329,192,91710,1,0,0:0:0:0:
36,192,91886,128,0,92239:0:0:0:30:BaSS.wav
182,192,91886,1,0,0:0:0:0:
475,192,91886,1,0,0:0:0:0:
402,192,91974,1,0,0:0:0:0:
329,192,92063,1,0,0:0:0:0:
109,192,92063,1,0,0:0:0:0:
402,192,92151,1,0,0:0:0:0:
475,192,92239,128,0,92592:0:0:0:0:
256,192,92239,1,0,0:0:0:0:
182,192,92327,1,0,0:0:0:0:
109,192,92416,1,0,0:0:0:0:
329,192,92416,1,0,0:0:0:0:
36,192,92592,128,0,93298:0:0:0:30:KicK.wav
402,192,92592,1,0,0:0:0:0:
329,192,92592,1,0,0:0:0:0:
182,192,92592,1,0,0:0:0:0:
109,192,92857,128,0,93298:0:0:0:0:
402,192,92945,1,0,0:0:0:30:BaSS.wav
256,192,92945,1,0,0:0:0:0:
182,192,93121,128,0,93298:0:0:0:0:
475,192,93298,128,0,94004:0:0:0:30:BaSS.wav
402,192,93298,1,0,0:0:0:0:
329,192,93298,1,0,0:0:0:0:
329,192,93474,1,0,0:0:0:30:KicK.wav
402,192,93474,1,0,0:0:0:0:
182,192,93474,128,0,93651:0:0:0:0:
36,192,93474,1,0,0:0:0:0:
256,192,93651,128,0,93827:0:0:0:0:
329,192,93827,128,0,94004:0:0:0:30:BaSS.wav
109,192,93827,1,0,0:0:0:0:
182,192,93827,1,0,0:0:0:0:
402,192,94004,1,0,0:0:0:30:KicK.wav
36,192,94004,128,0,94710:0:0:0:0:
182,192,94004,128,0,94180:0:0:0:0:
109,192,94004,1,0,0:0:0:0:
256,192,94004,1,0,0:0:0:0:
475,192,94180,1,0,0:0:0:30:BaSS.wav
402,192,94180,1,0,0:0:0:0:
256,192,94180,128,0,94357:0:0:0:0:
475,192,94357,1,0,0:0:0:30:KicK.wav
329,192,94357,128,0,94533:0:0:0:0:
109,192,94357,1,0,0:0:0:0:
182,192,94357,1,0,0:0:0:0:
402,192,94533,1,0,0:0:0:30:KicK.wav
475,192,94533,1,0,0:0:0:0:
109,192,94533,1,0,0:0:0:0:
182,192,94533,1,0,0:0:0:0:
329,192,94621,1,0,0:0:0:0:
475,192,94710,128,0,95416:0:0:0:30:BaSS.wav
256,192,94710,1,0,0:0:0:0:
182,192,94710,1,0,0:0:0:0:
109,192,94886,1,0,0:0:0:0:
402,192,95063,1,0,0:0:0:30:KicK.wav
182,192,95063,1,0,0:0:0:0:
329,192,95063,1,0,0:0:0:0:
109,192,95151,1,0,0:0:0:0:
36,192,95239,1,0,0:0:0:0:
182,192,95327,1,0,0:0:0:0:
402,192,95416,128,0,96121:0:0:0:30:BaSS.wav
329,192,95416,1,0,0:0:0:0:
36,192,95416,1,0,0:0:0:0:
256,192,95592,1,0,0:0:0:0:
109,192,95592,1,0,0:0:0:0:
182,192,95769,1,0,0:0:0:30:KicK.wav
475,192,95769,1,0,0:0:0:0:
36,192,95769,1,0,0:0:0:0:
256,192,95945,1,0,0:0:0:0:
109,192,95945,1,0,0:0:0:0:
329,192,96121,128,0,96827:0:0:0:30:BaSS.wav
475,192,96121,1,0,0:0:0:0:
182,192,96121,1,0,0:0:0:0:
109,192,96298,1,0,0:0:0:0:
36,192,96474,1,0,0:0:0:30:KicK.wav
475,192,96474,1,0,0:0:0:0:
402,192,96474,1,0,0:0:0:0:
109,192,96563,1,0,0:0:0:0:
182,192,96651,1,0,0:0:0:0:
402,192,96651,1,0,0:0:0:0:
109,192,96739,1,0,0:0:0:0:
256,192,96827,128,0,97180:0:0:0:30:BaSS.wav
36,192,96827,1,0,0:0:0:0:
475,192,96827,1,0,0:0:0:0:
402,192,97004,1,0,0:0:0:0:
109,192,97004,1,0,0:0:0:0:
36,192,97180,1,0,0:0:0:30:KicK.wav
475,192,97180,1,0,0:0:0:0:
329,192,97180,1,0,0:0:0:0:
182,192,97180,1,0,0:0:0:0:
36,192,97357,1,0,0:0:0:30:KicK.wav
256,192,97357,1,0,0:0:0:0:
402,192,97357,1,0,0:0:0:0:
109,192,97357,1,0,0:0:0:0:
182,192,97533,1,0,0:0:0:30:KicK.wav
475,192,97533,128,0,98239:0:0:0:0:
36,192,97533,1,0,0:0:0:0:
402,192,97533,1,0,0:0:0:0:
256,192,97710,1,0,0:0:0:30:KicK.wav
109,192,97710,1,0,0:0:0:0:
402,192,97710,1,0,0:0:0:0:
329,192,97886,1,0,0:0:0:30:KicK.wav
182,192,97886,1,0,0:0:0:0:
36,192,97886,1,0,0:0:0:0:
256,192,98063,1,0,0:0:0:30:KicK.wav
402,192,98063,1,0,0:0:0:0:
36,192,98063,1,0,0:0:0:0:
36,192,98239,128,0,98592:0:0:0:30:KicK.wav
182,192,98239,1,0,0:0:0:0:
109,192,98239,1,0,0:0:0:0:
329,192,98239,1,0,0:0:0:0:
402,192,98416,1,0,0:0:0:30:KicK.wav
475,192,98416,1,0,0:0:0:0:
256,192,98416,1,0,0:0:0:0:
182,192,98592,128,0,98945:0:0:0:30:KicK.wav
329,192,98592,1,0,0:0:0:0:
475,192,98592,1,0,0:0:0:0:
402,192,98592,1,0,0:0:0:0:
109,192,98769,1,0,0:0:0:30:KicK.wav
36,192,98769,1,0,0:0:0:0:
256,192,98769,1,0,0:0:0:0:
475,192,98945,128,0,99651:0:0:0:30:KicK.wav
402,192,98945,1,0,0:0:0:0:
329,192,98945,1,0,0:0:0:0:
182,192,99033,1,0,0:0:0:30:Snare.wav
36,192,99033,1,0,0:0:0:0:
402,192,99121,1,0,0:0:0:30:Snare.wav
256,192,99121,1,0,0:0:0:0:
109,192,99210,1,0,0:0:0:30:Snare.wav
36,192,99210,1,0,0:0:0:0:
402,192,99298,5,0,0:0:0:30:BaSS.wav
329,192,99298,1,0,0:0:0:0:
182,192,99386,1,0,0:0:0:30:Snare.wav
36,192,99386,1,0,0:0:0:0:
402,192,99474,1,0,0:0:0:30:Snare.wav
256,192,99474,1,0,0:0:0:0:
109,192,99563,1,0,0:0:0:30:Snare.wav
182,192,99563,1,0,0:0:0:0:
36,192,99651,128,0,100180:0:0:0:30:BaSS.wav
329,192,99651,1,0,0:0:0:0:
402,192,99651,1,0,0:0:0:0:
182,192,99827,5,0,0:0:0:30:Snare.wav
256,192,99871,1,0,0:0:0:30:Snare.wav
329,192,99916,1,0,0:0:0:30:Snare.wav
402,192,99960,1,0,0:0:0:30:Snare.wav
475,192,100004,1,0,0:0:0:30:BaSS.wav
109,192,100004,1,0,0:0:0:0:
182,192,100004,1,0,0:0:0:0:
109,192,100180,1,0,0:0:0:30:BaSS.wav
256,192,100180,1,0,0:0:0:0:
402,192,100180,1,0,0:0:0:0:
475,192,100357,5,0,0:0:0:30:CrashR.wav
402,192,100357,1,0,0:0:0:30:KicK.wav
329,192,100357,1,0,0:0:0:0:
36,192,100357,1,0,0:0:0:0:
182,192,100357,1,0,0:0:0:0:
256,192,100533,1,0,0:0:0:30:BaSS.wav
109,192,100533,1,0,0:0:0:0:
256,192,100710,1,0,0:0:0:30:BaSS.wav
109,192,100710,1,0,0:0:0:0:
329,192,100710,1,0,0:0:0:0:
402,192,100798,1,0,0:0:0:0:
475,192,100886,1,0,0:0:0:30:KicK.wav
182,192,100886,1,0,0:0:0:0:
36,192,100886,1,0,0:0:0:0:
256,192,100886,1,0,0:0:0:0:
329,192,100974,1,0,0:0:0:0:
402,192,101063,1,0,0:0:0:30:BaSS.wav
475,192,101063,1,0,0:0:0:0:
109,192,101063,1,0,0:0:0:0:
402,192,101239,1,0,0:0:0:30:BaSS.wav
329,192,101239,1,0,0:0:0:0:
182,192,101239,1,0,0:0:0:0:
329,192,101416,1,0,0:0:0:30:KicK.wav
256,192,101416,1,0,0:0:0:0:
109,192,101416,1,0,0:0:0:0:
475,192,101416,1,0,0:0:0:0:
256,192,101592,1,0,0:0:0:30:BaSS.wav
182,192,101592,1,0,0:0:0:0:
36,192,101592,1,0,0:0:0:0:
182,192,101769,1,0,0:0:0:30:KicK.wav
109,192,101769,1,0,0:0:0:0:
475,192,101769,1,0,0:0:0:0:
329,192,101769,1,0,0:0:0:0:
475,192,101945,1,0,0:0:0:30:BaSS.wav
329,192,101945,1,0,0:0:0:0:
36,192,102121,1,0,0:0:0:30:BaSS.wav
256,192,102121,1,0,0:0:0:0:
402,192,102121,1,0,0:0:0:0:
109,192,102298,1,0,0:0:0:30:KicK.wav
182,192,102298,1,0,0:0:0:0:
329,192,102298,1,0,0:0:0:0:
475,192,102474,1,0,0:0:0:30:BaSS.wav
402,192,102474,1,0,0:0:0:0:
36,192,102474,1,0,0:0:0:0:
329,192,102651,1,0,0:0:0:30:BaSS.wav
256,192,102651,1,0,0:0:0:0:
109,192,102651,1,0,0:0:0:0:
329,192,102827,1,0,0:0:0:30:KicK.wav
402,192,102827,1,0,0:0:0:0:
182,192,102827,1,0,0:0:0:0:
36,192,102827,1,0,0:0:0:0:
402,192,103004,1,0,0:0:0:30:BaSS.wav
475,192,103004,1,0,0:0:0:0:
256,192,103004,1,0,0:0:0:0:
475,192,103180,1,0,0:0:0:30:CrashR.wav
36,192,103180,1,0,0:0:0:30:KicK.wav
109,192,103180,1,0,0:0:0:0:
329,192,103180,1,0,0:0:0:0:
402,192,103180,1,0,0:0:0:0:
256,192,103269,1,0,0:0:0:0:
182,192,103357,1,0,0:0:0:30:BaSS.wav
36,192,103357,1,0,0:0:0:0:
475,192,103357,1,0,0:0:0:0:
329,192,103445,1,0,0:0:0:0:
475,192,103533,1,0,0:0:0:30:BaSS.wav
109,192,103533,1,0,0:0:0:0:
182,192,103533,1,0,0:0:0:0:
256,192,103621,1,0,0:0:0:0:
329,192,103710,1,0,0:0:0:30:KicK.wav
36,192,103710,1,0,0:0:0:0:
109,192,103710,1,0,0:0:0:0:
475,192,103710,1,0,0:0:0:0:
182,192,103798,1,0,0:0:0:0:
256,192,103886,1,0,0:0:0:30:BaSS.wav
402,192,103886,1,0,0:0:0:0:
36,192,103886,1,0,0:0:0:0:
329,192,104063,1,0,0:0:0:30:BaSS.wav
475,192,104063,1,0,0:0:0:0:
109,192,104063,1,0,0:0:0:0:
182,192,104151,1,0,0:0:0:0:
475,192,104239,1,0,0:0:0:30:KicK.wav
256,192,104239,1,0,0:0:0:0:
402,192,104239,1,0,0:0:0:0:
36,192,104239,1,0,0:0:0:0:
109,192,104416,1,0,0:0:0:30:BaSS.wav
36,192,104416,1,0,0:0:0:0:
329,192,104416,1,0,0:0:0:0:
182,192,104592,1,0,0:0:0:30:CrashR.wav
36,192,104592,1,0,0:0:0:30:KicK.wav
475,192,104592,1,0,0:0:0:0:
402,192,104592,1,0,0:0:0:0:
256,192,104769,1,0,0:0:0:30:BaSS.wav
109,192,104769,1,0,0:0:0:0:
329,192,104945,1,0,0:0:0:30:BaSS.wav
182,192,104945,1,0,0:0:0:0:
475,192,104945,1,0,0:0:0:0:
109,192,105121,1,0,0:0:0:30:KicK.wav
36,192,105121,1,0,0:0:0:0:
256,192,105121,1,0,0:0:0:0:
402,192,105121,1,0,0:0:0:0:
36,192,105298,1,0,0:0:0:30:CrashR.wav
109,192,105298,1,0,0:0:0:30:BaSS.wav
475,192,105298,1,0,0:0:0:0:
329,192,105298,1,0,0:0:0:0:
182,192,105298,1,0,0:0:0:0:
402,192,105474,1,0,0:0:0:30:BaSS.wav
256,192,105474,1,0,0:0:0:0:
36,192,105474,1,0,0:0:0:0:
329,192,105651,1,0,0:0:0:30:KicK.wav
182,192,105651,1,0,0:0:0:0:
475,192,105651,1,0,0:0:0:0:
36,192,105651,1,0,0:0:0:0:
256,192,105827,1,0,0:0:0:30:BaSS.wav
36,192,105827,1,0,0:0:0:0:
109,192,105827,1,0,0:0:0:0:
182,192,106004,1,0,0:0:0:30:CrashR.wav
402,192,106004,1,0,0:0:0:30:KicK.wav
475,192,106004,1,0,0:0:0:0:
329,192,106004,1,0,0:0:0:0:
36,192,106004,1,0,0:0:0:0:
256,192,106180,1,0,0:0:0:30:BaSS.wav
109,192,106180,1,0,0:0:0:0:
182,192,106357,128,0,106445:0:0:0:30:BaSS.wav
402,192,106357,1,0,0:0:0:0:
475,192,106357,1,0,0:0:0:0:
256,192,106445,128,0,106533:0:0:0:0:
329,192,106533,128,0,106621:0:0:0:30:KicK.wav
36,192,106533,1,0,0:0:0:0:
109,192,106533,1,0,0:0:0:0:
475,192,106533,1,0,0:0:0:0:
402,192,106621,128,0,106710:0:0:0:0:
475,192,106710,128,0,106798:0:0:0:30:BaSS.wav
182,192,106710,1,0,0:0:0:0:
36,192,106710,1,0,0:0:0:0:
256,192,106886,1,0,0:0:0:30:BaSS.wav
109,192,106886,1,0,0:0:0:0:
402,192,106886,1,0,0:0:0:0:
329,192,107063,1,0,0:0:0:30:KicK.wav
475,192,107063,1,0,0:0:0:0:
182,192,107063,1,0,0:0:0:0:
36,192,107063,1,0,0:0:0:0:
402,192,107239,1,0,0:0:0:30:BaSS.wav
256,192,107239,1,0,0:0:0:0:
109,192,107239,1,0,0:0:0:0:
475,192,107416,1,0,0:0:0:30:CrashR.wav
402,192,107416,1,0,0:0:0:30:KicK.wav
256,192,107416,1,0,0:0:0:0:
109,192,107416,1,0,0:0:0:0:
36,192,107416,1,0,0:0:0:0:
329,192,107592,1,0,0:0:0:30:BaSS.wav
182,192,107592,1,0,0:0:0:0:
329,192,107769,128,0,107857:0:0:0:30:BaSS.wav
109,192,107769,1,0,0:0:0:0:
36,192,107769,1,0,0:0:0:0:
256,192,107857,128,0,107945:0:0:0:0:
182,192,107945,128,0,108033:0:0:0:30:KicK.wav
36,192,107945,1,0,0:0:0:0:
402,192,107945,1,0,0:0:0:0:
475,192,107945,1,0,0:0:0:0:
109,192,108033,128,0,108121:0:0:0:0:
36,192,108121,128,0,108210:0:0:0:30:BaSS.wav
475,192,108121,1,0,0:0:0:0:
329,192,108121,1,0,0:0:0:0:
109,192,108298,1,0,0:0:0:30:BaSS.wav
402,192,108298,1,0,0:0:0:0:
256,192,108298,1,0,0:0:0:0:
182,192,108474,1,0,0:0:0:30:KicK.wav
36,192,108474,1,0,0:0:0:0:
329,192,108474,1,0,0:0:0:0:
475,192,108474,1,0,0:0:0:0:
402,192,108651,1,0,0:0:0:30:BaSS.wav
256,192,108651,1,0,0:0:0:0:
109,192,108651,1,0,0:0:0:0:
36,192,108827,1,0,0:0:0:30:CrashR.wav
109,192,108827,1,0,0:0:0:30:KicK.wav
475,192,108827,1,0,0:0:0:0:
402,192,108827,1,0,0:0:0:0:
256,192,108827,1,0,0:0:0:0:
109,192,109004,1,0,0:0:0:30:Snare.wav
36,192,109004,1,0,0:0:0:30:BaSS.wav
402,192,109004,1,0,0:0:0:0:
329,192,109004,1,0,0:0:0:0:
329,192,109180,1,0,0:0:0:30:Snare.wav
256,192,109180,1,0,0:0:0:30:BaSS.wav
109,192,109180,1,0,0:0:0:0:
36,192,109180,1,0,0:0:0:0:
402,192,109269,1,0,0:0:0:0:
36,192,109357,1,0,0:0:0:30:Snare.wav
109,192,109357,1,0,0:0:0:30:BaSS.wav
182,192,109357,1,0,0:0:0:0:
475,192,109357,1,0,0:0:0:0:
256,192,109445,1,0,0:0:0:0:
475,192,109533,1,0,0:0:0:30:CrashR.wav
402,192,109533,1,0,0:0:0:30:Snare.wav
36,192,109533,1,0,0:0:0:30:BaSS.wav
109,192,109533,1,0,0:0:0:0:
329,192,109533,1,0,0:0:0:0:
256,192,109621,1,0,0:0:0:0:
475,192,109710,1,0,0:0:0:30:Snare.wav
402,192,109710,1,0,0:0:0:30:BaSS.wav
182,192,109710,1,0,0:0:0:0:
109,192,109710,1,0,0:0:0:0:
329,192,109798,1,0,0:0:0:0:
182,192,109886,1,0,0:0:0:30:Snare.wav
256,192,109886,1,0,0:0:0:30:BaSS.wav
475,192,109886,1,0,0:0:0:0:
36,192,109886,1,0,0:0:0:0:
402,192,109974,1,0,0:0:0:0:
256,192,110063,1,0,0:0:0:30:Snare.wav
329,192,110063,1,0,0:0:0:30:BaSS.wav
109,192,110063,1,0,0:0:0:0:
36,192,110063,1,0,0:0:0:0:
402,192,110151,1,0,0:0:0:0:
36,192,110239,1,0,0:0:0:30:CrashR.wav
109,192,110239,1,0,0:0:0:30:BaSS.wav
182,192,110239,1,0,0:0:0:0:
475,192,110239,1,0,0:0:0:0:
329,192,110327,1,0,0:0:0:30:Snare.wav
402,192,110327,1,0,0:0:0:0:
256,192,110327,1,0,0:0:0:0:
475,192,110416,1,0,0:0:0:30:BaSS.wav
109,192,110416,1,0,0:0:0:0:
36,192,110416,1,0,0:0:0:0:
329,192,110504,1,0,0:0:0:30:Snare.wav
402,192,110504,1,0,0:0:0:0:
182,192,110504,1,0,0:0:0:0:
475,192,110592,1,0,0:0:0:30:CrashR.wav
109,192,110592,1,0,0:0:0:30:BaSS.wav
36,192,110592,1,0,0:0:0:0:
256,192,110592,1,0,0:0:0:0:
402,192,110680,1,0,0:0:0:30:Snare.wav
182,192,110680,1,0,0:0:0:0:
329,192,110680,1,0,0:0:0:0:
475,192,110769,1,0,0:0:0:30:BaSS.wav
36,192,110769,1,0,0:0:0:0:
109,192,110769,1,0,0:0:0:0:
256,192,110857,1,0,0:0:0:30:Snare.wav
329,192,110857,1,0,0:0:0:0:
182,192,110857,1,0,0:0:0:0:
475,192,110945,128,0,111254:0:0:0:30:CrashR.wav
402,192,110945,1,0,0:0:0:30:BaSS.wav
109,192,110945,1,0,0:0:0:0:
36,192,110945,1,0,0:0:0:0:
182,192,110989,1,0,0:0:0:30:Snare.wav
256,192,111033,1,0,0:0:0:30:Snare.wav
329,192,111077,1,0,0:0:0:30:Snare.wav
109,192,111121,1,0,0:0:0:30:BaSS.wav
402,192,111121,1,0,0:0:0:0:
182,192,111166,1,0,0:0:0:30:Snare.wav
256,192,111210,1,0,0:0:0:30:Snare.wav
329,192,111254,1,0,0:0:0:30:Snare.wav
36,192,111298,128,0,111651:0:0:0:30:CrashR.wav
402,192,111298,1,0,0:0:0:30:BaSS.wav
109,192,111298,1,0,0:0:0:0:
475,192,111298,1,0,0:0:0:0:
182,192,111342,1,0,0:0:0:30:Snare.wav
256,192,111386,1,0,0:0:0:30:Snare.wav
329,192,111430,1,0,0:0:0:30:Snare.wav
402,192,111474,1,0,0:0:0:30:BaSS.wav
109,192,111474,1,0,0:0:0:0:
182,192,111519,1,0,0:0:0:30:Snare.wav
256,192,111563,1,0,0:0:0:30:Snare.wav
329,192,111607,1,0,0:0:0:30:Snare.wav
402,192,111651,1,0,0:0:0:30:CrashR.wav
182,192,111651,1,0,0:0:0:30:BaSS.wav
109,192,111651,1,0,0:0:0:0:
475,192,111651,128,0,112004:0:0:0:0:
329,192,111827,1,0,0:0:0:0:
36,192,112004,128,0,112357:0:0:0:30:KicK.wav
402,192,112004,1,0,0:0:0:0:
109,192,112004,1,0,0:0:0:0:
182,192,112004,1,0,0:0:0:0:
256,192,112092,1,0,0:0:0:0:
329,192,112180,1,0,0:0:0:0:
109,192,112180,1,0,0:0:0:0:
402,192,112269,1,0,0:0:0:0:
475,192,112357,128,0,112710:0:0:0:30:BaSS.wav
256,192,112357,1,0,0:0:0:0:
182,192,112357,1,0,0:0:0:0:
402,192,112533,128,0,112710:0:0:0:0:
109,192,112533,1,0,0:0:0:0:
329,192,112710,128,0,113063:0:0:0:30:KicK.wav
256,192,112710,1,0,0:0:0:0:
182,192,112710,1,0,0:0:0:0:
36,192,112710,1,0,0:0:0:0:
402,192,112886,128,0,113063:0:0:0:0:
182,192,112886,1,0,0:0:0:0:
475,192,113063,128,0,113416:0:0:0:30:CrashR.wav
256,192,113063,1,0,0:0:0:30:BaSS.wav
109,192,113063,1,0,0:0:0:0:
36,192,113063,1,0,0:0:0:0:
109,192,113239,1,0,0:0:0:0:
256,192,113416,128,0,113769:0:0:0:30:KicK.wav
36,192,113416,1,0,0:0:0:0:
402,192,113416,1,0,0:0:0:0:
182,192,113416,1,0,0:0:0:0:
402,192,113592,1,0,0:0:0:0:
36,192,113769,128,0,114121:0:0:0:30:CrashR.wav
475,192,113769,1,0,0:0:0:30:BaSS.wav
329,192,113769,1,0,0:0:0:0:
182,192,113769,1,0,0:0:0:0:
109,192,113945,128,0,114121:0:0:0:0:
256,192,113945,1,0,0:0:0:0:
182,192,114121,128,0,114474:0:0:0:30:KicK.wav
475,192,114121,1,0,0:0:0:0:
402,192,114121,1,0,0:0:0:0:
329,192,114121,1,0,0:0:0:0:
109,192,114298,128,0,114474:0:0:0:30:KicK.wav
475,192,114298,1,0,0:0:0:0:
402,192,114298,1,0,0:0:0:0:
329,192,114298,1,0,0:0:0:0:
475,192,114474,1,0,0:0:0:30:CrashR.wav
402,192,114474,1,0,0:0:0:30:BaSS.wav
329,192,114474,1,0,0:0:0:0:
36,192,114474,128,0,114739:0:0:0:0:
256,192,114563,1,0,0:0:0:0:
329,192,114651,1,0,0:0:0:0:
182,192,114651,1,0,0:0:0:0:
402,192,114739,1,0,0:0:0:0:
475,192,114827,128,0,115092:0:0:0:30:KicK.wav
36,192,114827,1,0,0:0:0:0:
109,192,114827,1,0,0:0:0:0:
182,192,114827,1,0,0:0:0:0:
329,192,114916,1,0,0:0:0:30:Snare.wav
402,192,114916,1,0,0:0:0:0:
182,192,115004,1,0,0:0:0:30:Snare.wav
109,192,115004,1,0,0:0:0:0:
329,192,115092,1,0,0:0:0:30:Snare.wav
402,192,115092,1,0,0:0:0:0:
256,192,115180,1,0,0:0:0:30:CrashR.wav
109,192,115180,1,0,0:0:0:30:KicK.wav
36,192,115180,1,0,0:0:0:0:
182,192,115180,1,0,0:0:0:0:
475,192,115180,1,0,0:0:0:0:
256,192,115445,1,0,0:0:0:30:CrashR.wav
329,192,115445,1,0,0:0:0:30:KicK.wav
475,192,115445,1,0,0:0:0:0:
36,192,115445,1,0,0:0:0:0:
109,192,115445,1,0,0:0:0:0:
256,192,115710,1,0,0:0:0:30:CrashR.wav
182,192,115710,1,0,0:0:0:30:KicK.wav
402,192,115710,1,0,0:0:0:0:
475,192,115710,1,0,0:0:0:0:
36,192,115710,1,0,0:0:0:0:
475,192,115886,1,0,0:0:0:30:CrashR.wav
402,192,115886,1,0,0:0:0:30:BaSS.wav
36,192,115886,1,0,0:0:0:0:
109,192,115886,1,0,0:0:0:0:
256,192,115886,128,0,116239:0:0:0:0:
475,192,116239,1,0,0:0:0:30:KicK.wav
402,192,116239,1,0,0:0:0:0:
36,192,116239,1,0,0:0:0:0:
182,192,116239,128,0,116592:0:0:0:0:
329,192,116592,1,0,0:0:0:30:CrashR.wav
475,192,116592,1,0,0:0:0:30:BaSS.wav
36,192,116592,1,0,0:0:0:0:
109,192,116592,1,0,0:0:0:0:
402,192,116592,1,0,0:0:0:0:
182,192,116769,1,0,0:0:0:0:
109,192,116769,1,0,0:0:0:0:
256,192,116945,1,0,0:0:0:30:KicK.wav
182,192,116945,1,0,0:0:0:0:
475,192,116945,1,0,0:0:0:0:
36,192,116945,1,0,0:0:0:0:
402,192,117033,1,0,0:0:0:30:Snare.wav
329,192,117033,1,0,0:0:0:0:
182,192,117121,1,0,0:0:0:30:Snare.wav
109,192,117121,1,0,0:0:0:0:
36,192,117121,1,0,0:0:0:0:
256,192,117210,1,0,0:0:0:30:Snare.wav
329,192,117210,1,0,0:0:0:0:
36,192,117298,1,0,0:0:0:30:CrashR.wav
109,192,117298,1,0,0:0:0:30:BaSS.wav
402,192,117298,1,0,0:0:0:0:
182,192,117298,1,0,0:0:0:0:
475,192,117298,128,0,117651:0:0:0:0:
109,192,117651,1,0,0:0:0:30:KicK.wav
36,192,117651,1,0,0:0:0:0:
402,192,117651,1,0,0:0:0:0:
256,192,117651,1,0,0:0:0:0:
329,192,117739,1,0,0:0:0:0:
182,192,117739,1,0,0:0:0:0:
256,192,117827,1,0,0:0:0:0:
109,192,117827,1,0,0:0:0:0:
182,192,117916,1,0,0:0:0:0:
36,192,117916,1,0,0:0:0:0:
475,192,118004,1,0,0:0:0:30:BaSS.wav
329,192,118004,1,0,0:0:0:0:
402,192,118004,1,0,0:0:0:0:
36,192,118180,1,0,0:0:0:0:
182,192,118180,1,0,0:0:0:0:
109,192,118357,1,0,0:0:0:30:KicK.wav
475,192,118357,1,0,0:0:0:0:
256,192,118357,1,0,0:0:0:0:
402,192,118357,1,0,0:0:0:0:
182,192,118533,1,0,0:0:0:0:
329,192,118533,1,0,0:0:0:0:
256,192,118710,1,0,0:0:0:30:CrashR.wav
402,192,118710,1,0,0:0:0:30:BaSS.wav
475,192,118710,1,0,0:0:0:0:
109,192,118710,1,0,0:0:0:0:
36,192,118710,128,0,119063:0:0:0:0:
182,192,119063,5,0,0:0:0:30:KicK.wav
475,192,119063,1,0,0:0:0:0:
402,192,119151,1,0,0:0:0:0:
256,192,119151,1,0,0:0:0:0:
329,192,119239,1,0,0:0:0:0:
109,192,119239,1,0,0:0:0:0:
182,192,119327,1,0,0:0:0:0:
402,192,119327,1,0,0:0:0:0:
109,192,119416,1,0,0:0:0:30:CrashR.wav
36,192,119416,1,0,0:0:0:30:BaSS.wav
256,192,119416,1,0,0:0:0:0:
329,192,119416,1,0,0:0:0:0:
475,192,119416,128,0,119769:0:0:0:0:
109,192,119592,1,0,0:0:0:0:
36,192,119592,1,0,0:0:0:0:
402,192,119769,1,0,0:0:0:30:KicK.wav
329,192,119769,1,0,0:0:0:0:
182,192,119769,1,0,0:0:0:0:
36,192,119769,1,0,0:0:0:0:
36,192,119945,1,0,0:0:0:30:KicK.wav
109,192,119945,1,0,0:0:0:0:
402,192,119945,1,0,0:0:0:0:
256,192,119945,1,0,0:0:0:0:
475,192,120121,5,0,0:0:0:30:CrashR.wav
402,192,120121,1,0,0:0:0:30:KicK.wav
36,192,120121,1,0,0:0:0:0:
329,192,120121,1,0,0:0:0:0:
182,192,120121,1,0,0:0:0:0:
256,192,120298,1,0,0:0:0:30:KicK.wav
109,192,120298,1,0,0:0:0:0:
402,192,120298,1,0,0:0:0:0:
475,192,120298,1,0,0:0:0:0:
329,192,120474,5,0,0:0:0:30:KicK.wav
109,192,120474,1,0,0:0:0:0:
36,192,120474,1,0,0:0:0:0:
182,192,120474,1,0,0:0:0:0:
402,192,120563,1,0,0:0:0:0:
475,192,120651,1,0,0:0:0:30:KicK.wav
109,192,120651,1,0,0:0:0:0:
36,192,120651,1,0,0:0:0:0:
182,192,120651,1,0,0:0:0:0:
256,192,120739,1,0,0:0:0:0:
475,192,120827,1,0,0:0:0:30:CrashR.wav
36,192,120827,1,0,0:0:0:30:KicK.wav
402,192,120827,1,0,0:0:0:0:
329,192,120827,1,0,0:0:0:0:
109,192,120827,1,0,0:0:0:0:
256,192,120916,1,0,0:0:0:0:
402,192,121004,1,0,0:0:0:30:KicK.wav
182,192,121004,1,0,0:0:0:0:
36,192,121004,1,0,0:0:0:0:
475,192,121004,1,0,0:0:0:0:
329,192,121092,1,0,0:0:0:0:
475,192,121180,5,0,0:0:0:30:KicK.wav
256,192,121180,1,0,0:0:0:0:
109,192,121180,1,0,0:0:0:0:
36,192,121180,1,0,0:0:0:0:
402,192,121269,1,0,0:0:0:0:
329,192,121357,5,0,0:0:0:30:KicK.wav
182,192,121357,1,0,0:0:0:0:
109,192,121357,1,0,0:0:0:0:
36,192,121357,1,0,0:0:0:0:
402,192,121445,1,0,0:0:0:0:
475,192,121533,128,0,122239:0:0:0:30:CrashR.wav
109,192,121533,1,0,0:0:0:30:BaSS.wav
36,192,121533,1,0,0:0:0:0:
256,192,121533,1,0,0:0:0:0:
329,192,121621,1,0,0:0:0:30:Snare.wav
402,192,121621,1,0,0:0:0:0:
36,192,121710,1,0,0:0:0:30:Snare.wav
182,192,121710,1,0,0:0:0:0:
402,192,121798,1,0,0:0:0:30:Snare.wav
256,192,121798,1,0,0:0:0:0:
182,192,121886,1,0,0:0:0:30:CrashR.wav
36,192,121886,1,0,0:0:0:30:BaSS.wav
109,192,121886,1,0,0:0:0:0:
402,192,121974,1,0,0:0:0:30:Snare.wav
256,192,121974,1,0,0:0:0:0:
36,192,122063,1,0,0:0:0:30:Snare.wav
182,192,122063,1,0,0:0:0:0:
329,192,122151,1,0,0:0:0:30:Snare.wav
402,192,122151,1,0,0:0:0:0:
109,192,122239,1,0,0:0:0:30:CrashR.wav
256,192,122239,1,0,0:0:0:30:BaSS.wav
36,192,122239,128,0,122592:0:0:0:0:
182,192,122239,1,0,0:0:0:0:
182,192,122416,1,0,0:0:0:30:Snare.wav
256,192,122460,1,0,0:0:0:30:Snare.wav
329,192,122504,1,0,0:0:0:30:Snare.wav
402,192,122548,1,0,0:0:0:30:Snare.wav
182,192,122592,1,0,0:0:0:30:CrashR.wav
109,192,122592,1,0,0:0:0:30:BaSS.wav
475,192,122592,128,0,122945:0:0:0:0:
256,192,122592,1,0,0:0:0:0:
329,192,122769,1,0,0:0:0:30:CrashR.wav
402,192,122769,1,0,0:0:0:30:BaSS.wav
36,192,122769,1,0,0:0:0:0:
256,192,122813,1,0,0:0:0:30:Snare.wav
182,192,122857,1,0,0:0:0:30:Snare.wav
109,192,122901,1,0,0:0:0:30:Snare.wav
36,192,122945,128,0,123651:0:0:0:30:CrashR.wav
402,192,122945,1,0,0:0:0:0:
329,192,122945,1,0,0:0:0:0:
256,192,122945,1,0,0:0:0:0:
109,192,123121,1,0,0:0:0:0:
182,192,123298,1,0,0:0:0:0:
256,192,123474,1,0,0:0:0:0:
329,192,123651,1,0,0:0:0:0:
475,192,123651,128,0,124004:0:0:0:0:
182,192,123827,1,0,0:0:0:0:
36,192,124004,1,0,0:0:0:0:
329,192,124004,128,0,124357:0:0:0:0:
109,192,124180,1,0,0:0:0:0:
475,192,124357,128,0,125769:0:0:0:0:
182,192,124357,1,0,0:0:0:0:
256,192,124533,1,0,0:0:0:0:
109,192,124621,1,0,0:0:0:0:
182,192,124886,1,0,0:0:0:0:
402,192,125063,1,0,0:0:0:0:
256,192,125416,1,0,0:0:0:0:
182,192,125592,1,0,0:0:0:0:
109,192,125769,1,0,0:0:0:0:
36,192,125769,128,0,126474:0:0:0:0:
182,192,125945,1,0,0:0:0:0:
329,192,126121,1,0,0:0:0:0:
475,192,126298,1,0,0:0:0:0:
109,192,126474,128,0,126827:0:0:0:0:
256,192,126474,1,0,0:0:0:0:
402,192,126651,1,0,0:0:0:0:
256,192,126827,128,0,127180:0:0:0:0:
36,192,126827,1,0,0:0:0:0:
109,192,127004,1,0,0:0:0:0:
182,192,127180,1,0,0:0:0:0:
36,192,127180,128,0,127224:0:0:0:0:
402,192,127180,128,0,127886:0:0:0:0:
329,192,127357,1,0,0:0:0:0:
109,192,127533,128,0,127577:0:0:0:0:
256,192,127533,1,0,0:0:0:0:
475,192,127710,1,0,0:0:0:0:
182,192,127886,128,0,127930:0:0:0:0:
36,192,127886,128,0,128592:0:0:0:0:
329,192,127886,1,0,0:0:0:0:
402,192,128063,1,0,0:0:0:0:
256,192,128239,128,0,128283:0:0:0:0:
475,192,128239,1,0,0:0:0:0:
109,192,128416,1,0,0:0:0:0:
475,192,128592,128,0,129298:0:0:0:0:
329,192,128592,1,0,0:0:0:0:
182,192,128769,1,0,0:0:0:0:
36,192,128945,1,0,0:0:0:0:
109,192,129121,1,0,0:0:0:0:
256,192,129298,128,0,129651:0:0:0:0:
182,192,129298,1,0,0:0:0:0:
402,192,129474,1,0,0:0:0:0:
182,192,129651,128,0,130004:0:0:0:0:
36,192,129651,1,0,0:0:0:0:
109,192,130004,128,0,130710:0:0:0:0:
475,192,130004,1,0,0:0:0:0:
256,192,130180,1,0,0:0:0:0:
402,192,130269,1,0,0:0:0:0:
329,192,130533,1,0,0:0:0:0:
36,192,130710,128,0,131416:0:0:0:0:
475,192,130710,1,0,0:0:0:0:
329,192,131063,1,0,0:0:0:0:
256,192,131239,1,0,0:0:0:0:
475,192,131416,128,0,132121:0:0:0:0:
182,192,131416,1,0,0:0:0:0:
182,192,131592,1,0,0:0:0:0:
36,192,131680,1,0,0:0:0:0:
402,192,131945,1,0,0:0:0:0:
256,192,132033,1,0,0:0:0:0:
36,192,132121,128,0,132474:0:0:0:0:
109,192,132121,1,0,0:0:0:0:
329,192,132386,1,0,0:0:0:0:
475,192,132474,128,0,132827:0:0:0:0:
182,192,132651,1,0,0:0:0:0:
36,192,132827,128,0,134239:0:0:0:0:
256,192,132827,1,0,0:0:0:0:
109,192,132827,1,0,0:0:0:0:
329,192,133004,1,0,0:0:0:0:
402,192,133180,1,0,0:0:0:0:
475,192,133357,1,0,0:0:0:0:
109,192,133533,1,0,0:0:0:0:
182,192,133710,1,0,0:0:0:0:
256,192,133886,1,0,0:0:0:0:
329,192,134063,1,0,0:0:0:0:
475,192,134239,1,0,0:0:0:0:
402,192,134239,1,0,0:0:0:0:
