osu file format v14

[General]
AudioFilename: audio.mp3
AudioLeadIn: 0
PreviewTime: 155991
Countdown: 0
SampleSet: Soft
StackLeniency: 0.4
Mode: 0
LetterboxInBreaks: 0
WidescreenStoryboard: 0

[Editor]
DistanceSpacing: 0.9
BeatDivisor: 4
GridSize: 4
TimelineZoom: 1.1

[Metadata]
Title:jihad
TitleUnicode:jihad
Artist:KOTOKO
ArtistUnicode:KOTOKO
Creator:Mariko Sakuragi
Version:Insane+
Source:BALDR SKY Dive2 "RECORDARE"
Tags:Giga Sekai Project Baldrhead Eroge Science Fiction Barudosukai Visual Novel Cyberpunk 石田琴子 コトコ C.G mix 尾崎 武士
BeatmapID:2371574
BeatmapSetID:1135541

[Difficulty]
HPDrainRate:6
CircleSize:4
OverallDifficulty:8
ApproachRate:8
SliderMultiplier:2
SliderTickRate:2

[Events]
//Background and Video events
0,0,"jihad.jpg",0,0
//Break Periods
2,182858,191241
//Storyboard Layer 0 (Background)
//Storyboard Layer 1 (Fail)
//Storyboard Layer 2 (Pass)
//Storyboard Layer 3 (Foreground)
//Storyboard Layer 4 (Overlay)
//Storyboard Sound Samples

[TimingPoints]
1325,333.333333333333,4,2,0,5,1,0
21324,-133.333333333333,4,2,1,40,0,0
22658,-100,4,2,1,60,0,0
24658,-133.333333333333,4,2,1,60,0,0
27991,-100,4,2,1,60,0,0
35324,-133.333333333333,4,2,1,60,0,0
38658,-100,4,2,1,60,0,0
43991,-200,4,2,1,60,0,0
44491,-200,4,1,1,40,0,0
54574,-200,4,2,1,5,0,0
54658,-133.333333333333,4,1,1,50,0,0
65324,-83.3333333333333,4,2,1,60,0,0
74991,-133.333333333333,4,2,1,60,0,0
75991,-71.4285714285714,4,2,1,80,0,1
76408,-71.4285714285714,4,2,2,80,0,1
78658,-71.4285714285714,4,2,1,80,0,1
89408,-71.4285714285714,4,2,2,80,0,1
90658,-71.4285714285714,4,2,1,80,0,1
90741,-71.4285714285714,4,2,2,80,0,1
91824,-71.4285714285714,4,2,1,80,0,1
99991,-133.333333333333,4,2,1,80,0,0
101324,-133.333333333333,4,3,1,40,0,0
102658,-100,4,2,1,60,0,0
104658,-133.333333333333,4,2,1,60,0,0
107991,-100,4,2,1,60,0,0
115324,-133.333333333333,4,2,1,60,0,0
118658,-100,4,2,1,60,0,0
123991,-200,4,2,1,60,0,0
124491,-200,4,1,1,40,0,0
134574,-200,4,2,1,5,0,0
134658,-133.333333333333,4,1,1,40,0,0
145324,-83.3333333333333,4,2,1,60,0,0
154991,-133.333333333333,4,2,1,60,0,0
155991,-71.4285714285714,4,2,1,80,0,1
157074,-71.4285714285714,4,2,2,80,0,1
158658,-71.4285714285714,4,2,1,80,0,1
158741,-71.4285714285714,4,2,2,80,0,1
159574,-71.4285714285714,4,2,1,80,0,1
170741,-71.4285714285714,4,2,2,80,0,1
171324,-71.4285714285714,4,2,1,80,0,1
179991,-133.333333333333,4,2,1,80,0,0
180324,-133.333333333333,4,2,1,50,0,0
181324,-133.333333333333,4,2,1,60,0,0
191991,-133.333333333333,4,2,1,50,0,0
193158,-133.333333333333,4,2,1,5,0,0
193324,-200,4,2,1,50,0,0
193408,-200,4,2,1,30,0,0
194658,-200,4,2,1,40,0,0
194741,-200,4,2,1,20,0,0
195658,-200,4,2,1,40,0,0
198491,-200,4,2,1,5,0,0
198658,-200,4,2,1,40,0,0
198741,-200,4,2,1,25,0,0
199824,-200,4,2,1,5,0,0
199991,-200,4,2,1,40,0,0
200824,-200,4,2,1,5,0,0
200991,-200,4,2,1,40,0,0
202491,-200,4,2,1,5,0,0
202658,-100,4,2,1,40,0,0
203991,-100,4,3,1,60,0,0
206658,-90.9090909090909,4,3,1,60,0,0
207991,-83.3333333333333,4,3,1,60,0,0
210658,-76.9230769230769,4,3,1,60,0,0
211991,-90.9090909090909,4,3,1,60,0,0
213324,-76.9230769230769,4,3,1,60,0,0
213991,-76.9230769230769,4,3,1,80,0,0
214658,-71.4285714285714,4,3,1,80,0,0
215324,-71.4285714285714,4,3,1,60,0,0
217658,-76.9230769230769,4,3,1,60,0,0
217991,-83.3333333333333,4,3,1,60,0,0
218324,-90.9090909090909,4,3,1,60,0,0
218658,-100,4,3,1,60,0,0
219324,-133.333333333333,4,3,1,60,0,0
219991,-100,4,3,1,60,0,0
221324,-90.9090909090909,4,3,1,60,0,0
225324,-133.333333333333,4,2,1,40,0,0
234658,-100,4,2,1,40,0,0
235324,-100,4,2,1,60,0,0
235365,-100,4,2,2,50,0,0
235658,-100,4,2,1,60,0,0
235699,-100,4,2,2,50,0,0
235991,-71.4285714285714,4,2,1,80,0,1
238741,-71.4285714285714,4,2,2,80,0,1
240658,-71.4285714285714,4,2,1,80,0,1
250658,-100,4,3,1,60,0,0
251991,-100,4,2,1,60,0,0
253991,-133.333333333333,4,2,1,60,0,0
254324,-133.333333333333,4,2,1,60,0,0
257324,-100,4,2,1,60,0,0
264658,-133.333333333333,4,2,1,60,0,0
264991,-133.333333333333,4,2,1,60,0,0
267991,-100,4,2,1,60,0,0

[Colours]
Combo1 : 156,148,197
Combo2 : 36,189,185
Combo3 : 34,133,170

[HitObjects]
256,192,19991,12,0,21158,0:0:0:0:
40,84,21324,6,0,L|52:168,1,75.0000028610231,8|0,0:1|0:0,0:0:0:0:
50,158,21658,1,2,0:3:0:0:
172,156,21824,2,0,L|160:240,1,75.0000028610231,8|0,1:0|0:0,0:0:0:0:
161,230,22158,1,10,0:1:0:0:
72,308,22324,1,2,0:3:0:0:
91,338,22407,1,2,0:3:0:0:
122,358,22490,1,2,0:3:0:0:
159,359,22573,1,2,0:3:0:0:
194,344,22658,6,0,P|276:312|396:332,1,200,4|10,0:0|0:0,0:0:0:0:
484,384,23158,1,2,0:0:0:0:
484,384,23324,2,0,P|500:332|480:276,1,100,2|0,0:0|0:0,0:0:0:0:
420,216,23658,1,8,0:0:0:0:
476,132,23824,1,2,0:0:0:0:
344,16,23991,6,0,L|333:115,1,100,2|2,0:0|0:1,0:0:0:0:
168,16,24324,2,0,L|178:115,1,100,8|2,0:0|0:1,0:0:0:0:
320,212,24658,2,0,L|311:295,1,75.0000028610231,10|0,0:1|0:0,0:0:0:0:
192,212,24991,2,0,L|200:295,1,75.0000028610231,8|0,0:0|0:0,0:0:0:0:
236,376,25324,6,0,B|168:405|148:342|64:398,1,150.000005722046,6|8,0:0|0:0,0:0:0:0:
4,332,25824,1,2,0:0:0:0:
4,332,25991,2,0,B|-4:288|-4:288|4:236,1,75.0000028610231,2|2,0:0|0:0,0:0:0:0:
88,212,26324,2,0,B|96:168|96:168|88:116,1,75.0000028610231,8|2,0:0|0:0,0:0:0:0:
12,64,26658,5,8,0:1:0:0:
128,32,26824,1,2,0:0:0:0:
232,76,26991,1,2,0:0:0:0:
236,180,27158,1,2,0:0:0:0:
354,243,27324,5,8,0:0:0:0:
265,271,27491,1,2,0:0:0:0:
236,180,27658,1,8,0:0:0:0:
325,152,27824,1,8,0:0:0:0:
265,271,27991,6,0,B|232:276|232:276|200:268|200:268|136:300|44:256,1,200,12|8,0:0|0:0,0:0:0:0:
8,196,28491,1,2,0:0:0:0:
8,196,28658,2,0,P|-4:144|12:92,1,100,2|0,0:0|0:0,0:0:0:0:
92,44,28991,1,8,0:0:0:0:
176,96,29158,1,2,0:0:0:0:
356,8,29324,6,0,L|232:20,1,100,6|0,0:0|0:0,0:0:0:0:
356,184,29658,2,0,L|232:171,1,100,8|2,0:0|0:0,0:0:0:0:
140,212,29991,2,0,L|152:92,1,100,2|0,0:0|0:0,0:0:0:0:
220,272,30324,2,0,L|232:391,1,100,8|2,0:0|0:0,0:0:0:0:
408,268,30658,6,0,P|468:196|392:104,1,200,4|10,0:0|0:1,0:0:0:0:
256,173,31158,1,2,0:0:0:0:
256,173,31324,2,0,L|356:184,1,100,2|0,0:0|0:0,0:0:0:0:
432,360,31658,1,10,0:1:0:0:
312,276,31824,1,2,0:0:0:0:
336,88,31991,5,10,0:1:0:0:
436,88,32158,1,2,0:0:0:0:
312,72,32324,1,8,0:0:0:0:
460,104,32491,1,2,0:0:0:0:
504,216,32658,5,8,0:0:0:0:
460,316,32824,1,2,0:0:0:0:
400,160,32991,1,8,0:0:0:0:
304,104,33158,1,8,0:0:0:0:
160,272,33324,6,0,B|260:236|264:308|384:256,1,200,4|10,0:0|0:0,0:0:0:0:
424,188,33824,1,2,0:0:0:0:
424,188,33991,2,0,P|436:136|420:84,1,100,2|0,0:0|0:0,0:0:0:0:
340,36,34324,1,8,0:0:0:0:
260,96,34491,1,2,0:0:0:0:
96,44,34658,6,0,L|107:155,1,100,2|2,0:0|0:1,0:0:0:0:
240,284,34991,2,0,L|251:172,1,100,8|2,0:0|0:1,0:0:0:0:
116,232,35324,2,0,L|125:319,1,75.0000028610231,10|0,0:1|0:0,0:0:0:0:
240,284,35658,2,0,L|230:371,1,75.0000028610231,8|0,0:0|0:0,0:0:0:0:
356,256,35991,6,0,L|338:88,1,150.000005722046,6|8,0:0|0:0,0:0:0:0:
324,4,36491,1,2,0:0:0:0:
324,4,36658,2,0,P|272:20|224:16,1,75.0000028610231,2|2,0:0|0:0,0:0:0:0:
180,96,36991,2,0,P|232:112|280:108,1,75.0000028610231,8|2,0:0|0:0,0:0:0:0:
412,40,37324,5,8,0:1:0:0:
344,140,37491,1,2,0:0:0:0:
428,212,37658,1,2,0:0:0:0:
360,292,37824,1,2,0:0:0:0:
200,240,37991,5,8,0:0:0:0:
284,272,38158,1,2,0:0:0:0:
352,216,38324,1,8,0:0:0:0:
268,184,38491,1,8,0:0:0:0:
300,360,38658,6,0,B|364:340|364:340|508:368,1,200,12|8,0:0|0:0,0:0:0:0:
468,272,39158,1,2,0:0:0:0:
468,272,39324,2,0,B|452:220|452:220|468:172,1,100,2|0,0:0|0:0,0:0:0:0:
512,88,39658,1,8,0:0:0:0:
412,98,39824,1,2,0:0:0:0:
252,0,39991,6,0,L|371:12,1,100,6|0,0:0|0:0,0:0:0:0:
512,88,40324,2,0,L|392:100,1,100,8|2,0:0|0:0,0:0:0:0:
300,108,40658,2,0,L|311:215,1,100,2|0,0:0|0:0,0:0:0:0:
412,208,40991,2,0,L|400:315,1,100,8|2,0:0|0:0,0:0:0:0:
236,360,41324,6,0,B|164:384|88:352|88:352|128:324,1,200,4|8,0:0|0:1,0:0:0:0:
208,268,41824,1,2,0:1:0:0:
208,268,41991,2,0,P|224:220|208:168,1,100,2|2,0:1|0:1,0:0:0:0:
116,147,42324,2,0,B|116:115|116:115|112:91|112:91|116:67|116:67|116:39,1,100,6|0,0:0|0:0,0:0:0:0:
116,48,42658,5,14,0:1:0:0:
360,324,43991,6,0,L|520:324,2,150,4|2|2,0:0|0:0|0:0,0:0:0:0:
284,324,45158,1,10,0:0:0:0:
284,324,45324,1,10,0:0:0:0:
176,56,46658,6,0,L|16:56,2,150,10|2|2,0:0|0:0|0:0,0:0:0:0:
256,56,47825,1,10,0:0:0:0:
256,56,47991,1,10,0:0:0:0:
480,296,49324,6,0,L|480:180,1,100,10|2,0:0|0:0,0:0:0:0:
396,60,49991,2,0,L|396:164,1,100,2|2,0:0|0:0,0:0:0:0:
396,244,50491,1,10,0:0:0:0:
396,244,50658,6,0,L|284:244,1,100,10|2,0:0|0:0,0:0:0:0:
156,168,51324,2,0,L|264:168,1,100,2|2,0:0|0:0,0:0:0:0:
464,108,51991,6,0,P|368:164|352:356,1,300,10|2,0:0|0:0,0:0:0:0:
416,384,53158,1,10,0:0:0:0:
416,384,53324,1,10,0:0:0:0:
156,93,54158,1,8,0:3:0:0:
156,93,54324,6,0,L|156:185,1,75,8|0,0:3|2:0,0:0:0:0:
156,252,54658,5,12,0:0:0:0:
156,252,54991,2,0,L|244:252,1,75.0000028610231,8|2,0:0|0:0,0:0:0:0:
236,340,55324,2,0,L|312:296,1,75.0000028610231,8|2,0:0|0:0,0:0:0:0:
352,376,55658,2,0,L|396:299,1,75.0000028610231,10|2,0:0|0:0,0:0:0:0:
468,352,55991,6,0,L|468:200,1,150.000005722046,8|10,0:0|0:0,0:0:0:0:
468,116,56491,1,2,0:0:0:0:
468,116,56658,2,0,L|372:116,1,75.0000028610231,8|0,0:0|0:0,0:0:0:0:
312,200,56991,2,0,L|400:200,1,75.0000028610231,8|0,0:0|0:0,0:0:0:0:
468,28,57324,6,0,L|292:28,1,150.000005722046,10|8,0:0|0:0,0:0:0:0:
232,28,57824,1,2,0:0:0:0:
232,28,57991,2,0,B|220:68|220:68|239:119,1,75.0000028610231,8|2,0:0|0:0,0:0:0:0:
140,108,58324,2,0,B|149:148|149:148|192:183,1,75.0000028610231,10|2,0:0|0:0,0:0:0:0:
84,216,58658,6,0,B|136:268|136:268|224:268,1,150.000005722046,10|10,0:0|0:0,0:0:0:0:
304,268,59158,1,2,0:0:0:0:
304,268,59324,2,0,L|304:188,1,75.0000028610231,8|0,0:0|0:0,0:0:0:0:
388,112,59658,2,0,L|388:187,1,75.0000028610231,8|0,0:0|0:0,0:0:0:0:
220,188,59991,6,0,L|220:38,1,150.000005722046,10|10,0:0|0:0,0:0:0:0:
132,40,60491,1,0,0:0:0:0:
132,40,60658,2,0,L|132:128,1,75.0000028610231,10|0,0:0|0:0,0:0:0:0:
40,112,60991,2,0,L|40:196,1,75.0000028610231,10|0,0:0|0:0,0:0:0:0:
220,272,61324,6,0,B|220:352|220:352|136:352,1,150.000005722046,10|10,0:0|0:0,0:0:0:0:
60,352,61824,1,0,0:0:0:0:
60,352,61991,2,0,L|60:248,1,75.0000028610231,10|0,0:0|0:0,0:0:0:0:
140,180,62324,2,0,L|140:276,1,75.0000028610231,10|0,0:0|0:0,0:0:0:0:
308,356,62658,6,0,L|308:204,3,150.000005722046,10|8|8|8,0:0|0:0|0:0|0:0,0:0:0:0:
308,116,63824,1,2,0:0:0:0:
104,64,63991,5,10,0:0:0:0:
228,164,64158,1,8,0:3:0:0:
200,72,64324,1,8,0:3:0:0:
68,316,64658,5,2,0:0:0:0:
148,356,64824,1,8,0:1:0:0:
228,316,64991,1,8,0:1:0:0:
308,356,65158,1,8,0:1:0:0:
448,316,65324,6,0,P|424:240|456:64,1,239.999992675781,14|0,0:0|0:0,0:0:0:0:
228,316,65824,2,0,P|252:240|220:64,1,239.999992675781,10|0,0:0|0:0,0:0:0:0:
128,20,66324,2,0,P|112:84|132:160,1,119.999996337891,8|8,0:0|0:0,0:0:0:0:
228,316,66658,6,0,P|244:252|224:176,1,119.999996337891,10|0,0:0|0:0,0:0:0:0:
124,248,66991,1,2,0:0:0:0:
346,143,67158,2,0,P|298:97|222:76,1,119.999996337891,8|0,0:0|0:0,0:0:0:0:
235,199,67491,1,2,0:0:0:0:
436,212,67658,1,8,0:0:0:0:
332,268,67824,1,2,0:0:0:0:
432,32,67991,6,0,P|356:56|180:24,1,239.999992675781,14|0,0:0|0:0,0:0:0:0:
0,304,68491,2,0,P|76:280|252:312,1,239.999992675781,10|0,0:0|0:0,0:0:0:0:
332,368,68991,2,0,P|348:304|328:228,1,119.999996337891,8|8,0:0|0:0,0:0:0:0:
256,52,69324,6,0,P|240:116|260:192,1,119.999996337891,10|0,0:0|0:0,0:0:0:0:
356,116,69658,1,2,0:0:0:0:
439,315,69824,2,0,P|455:251|435:175,1,119.999996337891,8|0,0:0|0:0,0:0:0:0:
339,251,70158,1,2,0:0:0:0:
452,84,70324,1,8,0:0:0:0:
356,116,70491,1,2,0:0:0:0:
204,20,70658,6,0,L|336:20,1,119.999996337891,10|0,0:0|0:0,0:0:0:0:
324,20,70991,1,2,0:0:0:0:
204,168,71158,2,0,L|72:168,1,119.999996337891,10|2,0:0|0:0,0:0:0:0:
84,168,71491,1,2,0:0:0:0:
204,264,71658,2,0,P|268:244|296:176,1,119.999996337891,10|0,0:0|0:0,0:0:0:0:
276,108,71991,5,8,0:0:0:0:
112,260,72158,2,0,P|131:324|199:352,1,119.999996337891,2|0,0:0|0:0,0:0:0:0:
175,349,72491,1,10,0:0:0:0:
324,264,72658,2,0,L|192:264,1,119.999996337891,2|0,0:0|0:0,0:0:0:0:
48,168,72991,2,0,L|188:168,1,119.999996337891,10|0,0:0|0:0,0:0:0:0:
264,336,73324,6,0,B|204:240|308:204|236:84,1,239.999992675781,10|0,0:0|0:0,0:0:0:0:
472,8,73824,2,0,B|412:104|516:140|444:260,1,239.999992675781,10|0,0:0|0:0,0:0:0:0:
380,336,74324,1,10,0:0:0:0:
200,176,74491,1,8,0:0:0:0:
228,176,74574,1,8,0:0:0:0:
260,176,74658,6,0,L|380:176,1,119.999996337891,10|0,0:0|0:0,0:0:0:0:
280,264,74991,6,0,P|342:188|264:91,1,225.000008583069,14|0,0:0|0:0,0:0:0:0:
64,40,75658,1,2,0:0:0:0:
64,40,75741,1,2,0:0:0:0:
64,40,75824,1,2,0:0:0:0:
64,40,75908,1,2,0:0:0:0:
64,40,75991,6,0,B|228:84|196:-40|352:20,1,279.999991455078,6|10,0:0|0:0,0:0:0:0:
365,27,76408,1,2,0:0:0:0:
395,44,76491,1,2,0:0:0:0:
422,66,76574,1,2,0:0:0:0:
444,93,76658,1,10,0:1:0:0:
461,123,76741,1,2,0:0:0:0:
472,157,76824,1,10,0:1:0:0:
476,191,76907,1,2,0:0:0:0:
474,226,76991,1,10,0:0:0:0:
466,260,77074,1,2,0:0:0:0:
451,292,77157,1,2,0:0:0:0:
431,320,77241,1,2,0:0:0:0:
404,342,77324,6,0,P|373:358|320:367,3,69.9999978637696,10|2|2|2,0:1|0:0|0:0|0:0,0:0:0:0:
272,288,77658,2,0,P|240:271|206:263,1,69.9999978637696,10|2,0:0|0:0,0:0:0:0:
108,328,77824,1,2,0:0:0:0:
108,328,77908,1,2,0:0:0:0:
108,328,77991,1,10,0:1:0:0:
108,328,78074,1,2,0:0:0:0:
108,328,78158,2,0,P|91:296|83:262,1,69.9999978637696,10|2,0:1|0:0,0:0:0:0:
144,180,78324,2,0,P|161:148|169:114,1,69.9999978637696,10|2,0:0|0:0,0:0:0:0:
92,44,78491,1,2,0:0:0:0:
40,196,78658,6,0,P|123:280|248:176,1,279.999991455078,10|8,0:1|0:0,0:0:0:0:
276,84,79158,2,0,P|344:64|428:96,1,139.999995727539,2|10,0:0|0:1,0:0:0:0:
492,176,79491,1,10,0:1:0:0:
492,304,79658,1,10,0:0:0:0:
380,360,79824,1,2,0:0:0:0:
128,280,79991,6,0,P|244:276|380:360,1,279.999991455078,10|10,0:1|0:0,0:0:0:0:
420,240,80491,1,2,0:0:0:0:
420,240,80658,2,0,P|400:172|432:88,1,139.999995727539,10|10,0:1|0:1,0:0:0:0:
288,16,80991,2,0,P|308:84|276:168,1,139.999995727539,10|2,0:0|0:0,0:0:0:0:
20,264,81324,6,0,P|74:161|215:85,1,279.999991455078,6|10,0:0|0:0,0:0:0:0:
356,224,81824,2,0,P|288:244|204:212,1,139.999995727539,2|8,0:0|0:1,0:0:0:0:
112,12,82158,1,10,0:1:0:0:
215,85,82324,1,10,0:0:0:0:
100,136,82491,1,2,0:1:0:0:
248,76,82658,6,0,B|396:52|372:164|506:160,1,279.999991455078,10|10,0:1|0:0,0:0:0:0:
292,168,83158,2,0,L|276:307,1,139.999995727539,8|8,0:0|0:1,0:0:0:0:
277,307,83491,1,10,0:1:0:0:
184,228,83658,1,10,0:0:0:0:
388,292,83824,1,2,0:0:0:0:
140,312,83991,6,0,P|84:200|216:140,1,279.999991455078,10|8,0:1|0:0,0:0:0:0:
380,168,84491,1,2,0:0:0:0:
380,168,84658,2,0,P|361:98|292:41,1,139.999995727539,10|8,0:1|0:1,0:0:0:0:
308,272,84991,2,0,P|376:292|460:260,1,139.999995727539,8|0,0:0|0:0,0:0:0:0:
512,36,85324,5,8,0:1:0:0:
512,36,85658,2,0,L|470:170,1,139.999995727539,14|0,0:0|0:0,0:0:0:0:
360,376,85991,2,0,L|317:243,1,139.999995727539,6|8,0:0|0:0,0:0:0:0:
144,136,86324,1,10,0:0:0:0:
144,316,86491,1,8,0:0:0:0:
72,252,86658,6,0,P|204:244|208:388,1,279.999991455078,6|8,0:0|0:0,0:0:0:0:
72,252,87158,2,0,P|32:200|48:124,1,139.999995727539,2|10,0:0|0:1,0:0:0:0:
260,40,87491,1,10,0:1:0:0:
176,134,87658,1,10,0:0:0:0:
137,14,87824,1,2,0:0:0:0:
260,40,87991,6,0,B|350:125|464:77|464:77|413:37,1,279.999991455078,10|10,0:1|0:0,0:0:0:0:
320,188,88491,2,0,L|320:344,1,139.999995727539,2|10,0:0|0:1,0:0:0:0:
428,256,88824,1,10,0:1:0:0:
428,256,88908,1,2,0:0:0:0:
428,256,88991,2,0,L|428:172,1,69.9999978637696,10|2,0:0|0:0,0:0:0:0:
320,188,89158,2,0,L|320:104,1,69.9999978637696,2|2,0:0|0:0,0:0:0:0:
236,24,89324,5,10,0:1:0:0:
208,46,89408,1,2,0:0:0:0:
175,59,89491,1,2,0:0:0:0:
140,63,89574,1,2,0:0:0:0:
104,60,89658,1,10,0:0:0:0:
71,47,89741,1,2,0:0:0:0:
44,24,89824,1,2,0:0:0:0:
23,52,89908,1,2,0:0:0:0:
14,85,89991,1,10,0:1:0:0:
14,119,90074,1,2,0:0:0:0:
23,152,90158,1,10,0:1:0:0:
43,180,90241,1,2,0:0:0:0:
72,200,90324,2,0,P|113:209|160:209,1,69.9999978637696,10|2,0:0|0:0,0:0:0:0:
256,284,90491,2,0,P|214:293|167:293,1,69.9999978637696,2|2,0:0|0:0,0:0:0:0:
128,116,90658,5,10,0:1:0:0:
140,83,90741,1,2,0:0:0:0:
163,57,90824,1,2,0:0:0:0:
194,41,90908,1,2,0:0:0:0:
228,35,90991,1,10,0:0:0:0:
261,43,91074,1,2,0:0:0:0:
291,61,91158,2,0,P|328:71|376:63,1,69.9999978637696,2|2,0:0|0:0,0:0:0:0:
472,32,91324,2,0,L|472:120,1,69.9999978637696,10|2,0:1|0:0,0:0:0:0:
391,183,91491,2,0,L|391:271,1,69.9999978637696,10|0,0:1|0:0,0:0:0:0:
484,320,91658,1,10,0:0:0:0:
360,380,91824,1,2,0:3:0:0:
324,380,91908,1,2,0:3:0:0:
288,380,91991,6,0,P|256:320|268:248,1,139.999995727539,14|0,0:1|0:0,0:0:0:0:
370,55,92324,2,0,P|402:115|390:187,1,139.999995727539,10|0,0:0|0:0,0:0:0:0:
160,136,92658,2,0,L|316:136,1,139.999995727539,10|10,0:1|0:1,0:0:0:0:
160,240,92991,2,0,L|4:240,1,139.999995727539,8|0,0:0|0:0,0:0:0:0:
192,36,93324,6,0,B|256:84|256:84|256:300,1,279.999991455078,2|8,0:0|0:0,0:0:0:0:
448,384,93824,2,0,B|384:336|384:336|384:120,1,279.999991455078,2|10,0:0|0:1,0:0:0:0:
384,8,94324,1,10,0:0:0:0:
492,72,94491,1,2,0:0:0:0:
256,112,94658,6,0,P|140:116|4:32,1,279.999991455078,10|8,0:1|0:0,0:0:0:0:
144,0,95158,1,2,0:0:0:0:
144,0,95324,2,0,P|140:116|224:252,3,279.999991455078,10|10|10|8,0:1|0:0|0:1|0:0,0:0:0:0:
340,312,96491,1,2,0:0:0:0:
340,312,96658,2,0,L|484:312,1,139.999995727539,10|8,0:1|0:0,0:0:0:0:
336,212,96991,1,10,0:1:0:0:
248,372,97158,1,10,0:1:0:0:
212,372,97241,1,10,0:1:0:0:
176,372,97324,6,0,B|104:372|104:372|64:316,1,139.999995727539,6|0,0:0|0:0,0:0:0:0:
0,208,97658,2,0,B|72:208|72:208|112:152,1,139.999995727539,8|0,0:0|0:0,0:0:0:0:
176,44,97991,2,0,L|324:44,1,139.999995727539,10|10,0:1|0:1,0:0:0:0:
456,152,98324,2,0,L|300:152,1,139.999995727539,8|0,0:0|0:0,0:0:0:0:
176,260,98658,6,0,L|456:260,1,279.999991455078,10|10,0:1|0:0,0:0:0:0:
176,352,99158,2,0,P|263:262|152:172,1,279.999991455078,2|10,0:0|0:1,0:0:0:0:
28,128,99658,1,10,0:0:0:0:
140,24,99824,1,2,0:0:0:0:
28,128,99991,6,0,L|28:296,1,150.000005722046,10|0,0:1|0:0,0:0:0:0:
28,356,100491,1,2,0:0:0:0:
136,260,100658,2,0,B|176:260|176:260|192:272|192:272|216:256|216:256|280:288|360:256,1,225.000008583069,2|0,0:0|0:0,0:0:0:0:
428,140,101324,5,4,0:0:0:0:
300,140,101491,1,2,0:2:0:0:
428,140,101658,2,0,L|428:80,1,37.5000014305115,8|0,0:2|0:0,0:0:0:0:
428,24,101824,1,2,0:3:0:0:
300,24,101991,1,12,0:3:0:0:
428,140,102158,1,0,0:3:0:0:
300,24,102324,1,2,0:0:0:0:
264,24,102408,1,2,0:0:0:0:
228,24,102491,1,2,0:0:0:0:
192,24,102574,1,2,0:0:0:0:
156,24,102658,6,0,P|72:52|28:184,1,200,4|10,0:0|0:0,0:0:0:0:
112,292,103158,1,2,0:0:0:0:
112,292,103324,2,0,P|128:240|108:184,1,100,2|0,0:0|0:0,0:0:0:0:
24,240,103658,1,8,0:0:0:0:
24,340,103824,1,2,0:0:0:0:
211,302,103991,6,0,L|87:289,1,100,2|2,0:0|0:1,0:0:0:0:
320,184,104324,2,0,L|196:196,1,100,8|2,0:0|0:1,0:0:0:0:
312,352,104658,2,0,L|320:272,1,75.0000028610231,10|0,0:1|0:0,0:0:0:0:
416,212,104991,2,0,L|407:132,1,75.0000028610231,8|0,0:0|0:0,0:0:0:0:
444,48,105324,6,0,B|376:19|356:82|272:26,1,150.000005722046,6|8,0:0|0:0,0:0:0:0:
208,0,105824,1,2,0:0:0:0:
208,0,105991,2,0,P|200:52|216:96,1,75.0000028610231,2|2,0:0|0:0,0:0:0:0:
280,136,106324,2,0,P|288:188|272:232,1,75.0000028610231,8|2,0:0|0:0,0:0:0:0:
92,312,106658,5,8,0:1:0:0:
227,289,106824,1,2,0:0:0:0:
184,176,106991,1,2,0:0:0:0:
92,224,107157,1,2,0:0:0:0:
227,289,107324,5,8,0:0:0:0:
304,345,107491,1,2,0:0:0:0:
360,266,107658,1,8,0:0:0:0:
283,209,107824,1,8,0:0:0:0:
400,352,107991,6,0,P|468:280|412:196,1,200,12|8,0:0|0:0,0:0:0:0:
312,192,108491,1,2,0:0:0:0:
312,192,108658,2,0,P|296:140|316:84,1,100,2|0,0:0|0:0,0:0:0:0:
392,44,108991,1,8,0:0:0:0:
300,4,109158,1,2,0:0:0:0:
100,68,109324,6,0,L|219:80,1,100,6|0,0:0|0:0,0:0:0:0:
411,181,109658,2,0,L|291:193,1,100,8|2,0:0|0:0,0:0:0:0:
148,200,109991,2,0,L|160:319,1,100,2|0,0:0|0:0,0:0:0:0:
248,384,110324,2,0,L|260:264,1,100,8|2,0:0|0:0,0:0:0:0:
280,88,110658,6,0,B|316:88|340:76|340:76|368:92|368:92|420:68|488:100,1,200,4|10,0:0|0:1,0:0:0:0:
420,180,111158,1,2,0:0:0:0:
420,180,111324,2,0,L|420:284,1,100,2|0,0:0|0:0,0:0:0:0:
420,380,111658,1,10,0:1:0:0:
508,332,111824,1,2,0:0:0:0:
332,332,111991,5,10,0:1:0:0:
332,220,112158,1,2,0:0:0:0:
228,272,112324,1,8,0:0:0:0:
228,152,112491,1,2,0:0:0:0:
108,204,112658,5,8,0:0:0:0:
108,84,112824,1,2,0:0:0:0:
220,16,112991,1,8,0:0:0:0:
340,84,113158,1,8,0:0:0:0:
460,152,113324,6,0,P|440:240|468:376,1,200,4|10,0:0|0:0,0:0:0:0:
352,320,113824,1,2,0:0:0:0:
352,320,113991,2,0,P|300:304|244:324,1,100,2|0,0:0|0:0,0:0:0:0:
176,376,114324,1,8,0:0:0:0:
92,320,114491,1,2,0:0:0:0:
192,148,114658,6,0,L|178:275,1,100,2|2,0:0|0:1,0:0:0:0:
64,72,114991,2,0,L|77:199,1,100,8|2,0:0|0:1,0:0:0:0:
172,44,115324,2,0,L|247:51,1,75.0000028610231,10|0,0:1|0:0,0:0:0:0:
364,128,115658,2,0,L|288:135,1,75.0000028610231,8|0,0:0|0:0,0:0:0:0:
192,148,115991,6,0,L|172:328,1,150.000005722046,6|8,0:0|0:0,0:0:0:0:
276,364,116491,1,2,0:0:0:0:
276,364,116658,2,0,L|266:272,1,75.0000028610231,2|2,0:0|0:0,0:0:0:0:
356,232,116991,2,0,B|396:244|396:244|444:228,1,75.0000028610231,8|2,0:0|0:0,0:0:0:0:
508,60,117324,5,8,0:1:0:0:
396,100,117491,1,2,0:0:0:0:
488,164,117658,1,2,0:0:0:0:
508,268,117824,1,2,0:0:0:0:
508,60,117991,5,8,0:0:0:0:
424,8,118158,1,2,0:0:0:0:
396,100,118324,1,8,0:0:0:0:
312,48,118491,1,8,0:0:0:0:
364,196,118658,6,0,B|264:236|264:148|140:208,1,200,12|8,0:0|0:0,0:0:0:0:
96,264,119158,1,2,0:0:0:0:
96,264,119324,2,0,P|80:316|100:372,1,100,2|0,0:0|0:0,0:0:0:0:
188,384,119658,1,8,0:0:0:0:
256,312,119824,1,2,0:0:0:0:
179,96,119991,6,0,L|167:207,1,100,6|0,0:0|0:0,0:0:0:0:
353,96,120324,2,0,L|364:207,1,100,8|2,0:0|0:0,0:0:0:0:
256,312,120658,2,0,L|269:184,1,100,2|0,0:0|0:0,0:0:0:0:
376,284,120991,2,0,L|389:411,1,100,8|2,0:0|0:0,0:0:0:0:
452,232,121324,6,0,P|374:183|292:260,1,200,4|8,0:0|0:1,0:0:0:0:
260,348,121824,1,2,0:1:0:0:
260,348,121991,2,0,P|208:364|152:344,1,100,2|2,0:1|0:1,0:0:0:0:
32,208,122324,2,0,B|60:216|60:216|76:208|76:208|104:216|144:208,1,100,6|0,0:0|0:0,0:0:0:0:
256,84,122658,5,12,0:0:0:0:
212,256,122824,1,12,0:0:0:0:
260,348,123158,5,12,0:0:0:0:
216,176,123324,1,12,0:0:0:0:
28,32,123658,5,8,0:1:0:0:
50,42,123741,1,8,0:1:0:0:
73,49,123824,1,8,0:1:0:0:
97,52,123908,1,8,0:1:0:0:
121,53,123991,6,0,P|196:28|288:32,2,150,14|2|2,0:1|0:0|0:0,0:0:0:0:
96,132,125158,1,10,0:0:0:0:
96,132,125324,1,10,0:0:0:0:
391,331,126658,6,0,P|316:356|224:352,2,150,10|2|2,0:1|0:0|0:0,0:0:0:0:
416,252,127825,1,10,0:0:0:0:
416,252,127991,1,10,0:0:0:0:
20,192,129324,6,0,L|140:192,1,100,10|2,0:0|0:0,0:0:0:0:
256,276,129991,2,0,L|156:276,1,100,2|2,0:0|0:0,0:0:0:0:
76,276,130491,1,10,0:0:0:0:
76,276,130658,6,0,L|76:376,1,100,10|2,0:0|0:0,0:0:0:0:
156,276,131324,2,0,L|156:168,1,100,2|2,0:0|0:0,0:0:0:0:
436,120,131991,6,0,P|490:100|382:73,1,300,10|2,0:0|0:0,0:0:0:0:
352,128,133158,1,10,0:0:0:0:
352,128,133324,1,10,0:0:0:0:
32,28,134158,1,8,0:3:0:0:
32,28,134324,6,0,L|124:28,1,75,8|0,0:3|2:0,0:0:0:0:
184,28,134658,5,12,0:0:0:0:
184,103,134991,2,0,L|184:28,1,75.0000028610231,8|2,0:0|0:0,0:0:0:0:
236,180,135324,2,0,L|273:115,1,75.0000028610231,8|2,0:0|0:0,0:0:0:0:
240,272,135658,2,0,L|304:234,1,75.0000028610231,10|2,0:0|0:0,0:0:0:0:
200,356,135991,6,0,L|352:356,1,150.000005722046,10|10,0:0|0:0,0:0:0:0:
444,356,136491,1,2,0:0:0:0:
444,356,136658,2,0,L|444:264,1,75.0000028610231,8|0,0:0|0:0,0:0:0:0:
356,260,136991,2,0,L|356:168,1,75.0000028610231,8|2,0:0|0:0,0:0:0:0:
440,68,137324,6,0,B|396:96|396:96|276:96,1,150.000005722046,10|8,0:0|0:0,0:0:0:0:
208,100,137824,1,2,0:0:0:0:
208,100,137991,2,0,L|208:184,1,75.0000028610231,10|2,0:0|0:0,0:0:0:0:
112,184,138324,2,0,L|154:256,1,75.0000028610231,10|2,0:0|0:0,0:0:0:0:
72,304,138658,6,0,B|140:344|140:344|224:312,1,150.000005722046,10|10,0:0|0:0,0:0:0:0:
292,280,139158,1,2,0:0:0:0:
292,280,139324,2,0,B|330:266|330:266|368:284,1,75.0000028610231,8|0,0:0|0:0,0:0:0:0:
424,348,139658,2,0,B|462:361|462:361|500:344,1,75.0000028610231,8|0,0:0|0:0,0:0:0:0:
456,260,139991,6,0,L|456:104,1,150.000005722046,10|10,0:0|0:0,0:0:0:0:
456,20,140491,1,0,0:0:0:0:
456,20,140658,2,0,L|368:20,1,75.0000028610231,10|0,0:0|0:0,0:0:0:0:
364,108,140991,2,0,L|276:108,1,75.0000028610231,10|0,0:0|0:0,0:0:0:0:
108,108,141324,6,0,B|184:108|184:108|184:24,1,150.000005722046,10|10,0:0|0:0,0:0:0:0:
12,76,141824,1,0,0:0:0:0:
12,76,141991,2,0,L|12:168,1,75.0000028610231,10|0,0:0|0:0,0:0:0:0:
88,200,142324,2,0,L|88:292,1,75.0000028610231,10|0,0:0|0:0,0:0:0:0:
8,368,142658,6,0,L|172:368,3,150.000005722046,10|8|8|8,0:0|0:0|0:0|0:0,0:0:0:0:
248,368,143824,1,2,0:0:0:0:
372,180,143991,5,10,0:0:0:0:
248,280,144158,1,8,0:3:0:0:
276,188,144324,1,8,0:3:0:0:
492,292,144658,5,2,0:0:0:0:
492,204,144824,1,8,0:1:0:0:
492,112,144991,1,8,0:1:0:0:
492,20,145158,1,8,0:1:0:0:
180,72,145324,6,0,B|296:28|308:124|428:60,1,239.999992675781,14|0,0:0|0:0,0:0:0:0:
240,176,145824,2,0,B|124:220|112:124|-8:188,1,239.999992675781,10|0,0:0|0:0,0:0:0:0:
60,384,146324,2,0,P|76:320|56:244,1,119.999996337891,8|8,0:0|0:0,0:0:0:0:
180,72,146658,6,0,P|164:136|184:212,1,119.999996337891,10|0,0:0|0:0,0:0:0:0:
264,268,146991,1,2,0:0:0:0:
460,184,147158,2,0,P|396:168|320:188,1,119.999996337891,8|0,0:0|0:0,0:0:0:0:
264,268,147491,1,2,0:0:0:0:
336,80,147658,1,8,0:0:0:0:
260,140,147824,1,2,0:0:0:0:
444,336,147991,6,0,B|436:304|448:284|448:284|436:256|436:256|480:188|440:100,1,239.999992675781,14|0,0:0|0:0,0:0:0:0:
114,177,148491,2,0,B|146:169|166:181|166:181|194:169|194:169|262:213|350:173,1,239.999992675781,10|0,0:0|0:0,0:0:0:0:
328,0,148991,2,0,P|309:63|254:119,1,119.999996337891,8|8,0:0|0:0,0:0:0:0:
166,281,149324,6,0,P|129:234|113:176,1,119.999996337891,10|0,0:0|0:0,0:0:0:0:
160,64,149658,1,2,0:0:0:0:
412,80,149824,2,0,P|352:71|294:86,1,119.999996337891,8|0,0:0|0:0,0:0:0:0:
221,183,150158,1,2,0:0:0:0:
404,264,150324,1,8,0:0:0:0:
360,164,150491,1,2,0:0:0:0:
292,364,150658,6,0,L|164:364,1,119.999996337891,10|0,0:0|0:0,0:0:0:0:
292,364,150991,1,2,0:0:0:0:
24,192,151158,2,0,L|152:192,1,119.999996337891,10|2,0:0|0:0,0:0:0:0:
24,192,151491,1,2,0:0:0:0:
144,276,151658,2,0,P|205:249|226:178,1,119.999996337891,10|0,0:0|0:0,0:0:0:0:
196,116,151991,5,8,0:0:0:0:
304,268,152158,2,0,P|359:287|413:266,1,119.999996337891,2|0,0:0|0:0,0:0:0:0:
304,268,152491,1,10,0:0:0:0:
356,72,152658,2,0,L|356:196,1,119.999996337891,2|0,0:0|0:0,0:0:0:0:
496,316,152991,2,0,L|496:192,1,119.999996337891,10|0,0:0|0:0,0:0:0:0:
304,268,153324,6,0,B|216:236|140:288|140:288|104:260|56:268,1,239.999992675781,10|0,0:0|0:0,0:0:0:0:
268,64,153824,2,0,B|356:96|432:44|432:44|468:72|516:64,1,239.999992675781,10|0,0:0|0:0,0:0:0:0:
432,168,154324,2,0,L|432:304,1,119.999996337891,10|8,0:0|0:0,0:0:0:0:
432,368,154574,1,8,0:0:0:0:
432,368,154658,5,10,0:0:0:0:
140,284,154991,2,0,P|250:288|345:231,1,225.000008583069,14|0,0:0|0:0,0:0:0:0:
496,44,155658,1,2,0:0:0:0:
496,44,155741,1,2,0:0:0:0:
496,44,155824,1,2,0:0:0:0:
496,44,155908,1,2,0:0:0:0:
496,44,155991,6,0,B|346:88|359:-34|198:44,1,279.999991455078,6|8,0:0|0:0,0:0:0:0:
140,128,156491,1,2,0:0:0:0:
140,128,156574,1,2,0:0:0:0:
140,128,156658,2,0,L|140:212,1,69.9999978637696,10|0,0:1|0:0,0:0:0:0:
140,284,156824,1,10,0:1:0:0:
300,208,156991,1,10,0:0:0:0:
300,208,157074,1,2,0:0:0:0:
300,208,157158,1,2,0:0:0:0:
300,208,157241,1,2,0:0:0:0:
300,208,157324,5,10,0:1:0:0:
332,221,157408,1,2,0:0:0:0:
353,248,157491,1,2,0:0:0:0:
351,282,157574,1,2,0:0:0:0:
330,310,157658,1,10,0:0:0:0:
296,319,157741,1,2,0:0:0:0:
261,311,157824,1,2,0:0:0:0:
240,282,157908,1,2,0:0:0:0:
207,268,157991,1,10,0:1:0:0:
172,269,158074,1,2,0:0:0:0:
140,284,158158,1,10,0:1:0:0:
117,310,158241,1,2,0:0:0:0:
84,322,158324,2,0,P|55:329|14:321,1,69.9999978637696,10|2,0:0|0:0,0:0:0:0:
84,184,158491,2,0,P|112:175|153:181,1,69.9999978637696,2|2,0:0|0:0,0:0:0:0:
240,282,158658,5,10,0:1:0:0:
273,272,158741,1,2,0:0:0:0:
296,246,158824,1,2,0:0:0:0:
305,211,158908,1,2,0:0:0:0:
300,176,158991,1,10,0:0:0:0:
282,146,159074,1,2,0:0:0:0:
275,110,159158,2,0,P|293:81|335:48,3,69.9999978637696,2|2|10|2,0:0|0:0|0:1|0:0,0:0:0:0:
484,36,159491,1,10,0:1:0:0:
484,36,159574,1,2,0:0:0:0:
484,36,159658,2,0,L|475:119,1,69.9999978637696,10|0,0:0|0:0,0:0:0:0:
400,180,159824,2,0,L|408:263,1,69.9999978637696,2|0,0:0|0:0,0:0:0:0:
464,352,159991,6,0,B|322:399|336:259|178:328,1,279.999991455078,10|10,0:1|0:0,0:0:0:0:
92,384,160491,1,2,0:0:0:0:
92,384,160658,2,0,P|67:322|104:254,1,139.999995727539,10|10,0:1|0:1,0:0:0:0:
196,92,160991,2,0,P|220:153|183:221,1,139.999995727539,10|2,0:0|0:0,0:0:0:0:
80,160,161324,6,0,L|368:160,1,279.999991455078,6|10,0:0|0:0,0:0:0:0:
440,64,161824,2,0,L|288:64,1,139.999995727539,2|8,0:0|0:1,0:0:0:0:
113,289,162158,1,10,0:1:0:0:
80,160,162324,1,10,0:0:0:0:
201,197,162491,1,2,0:1:0:0:
112,288,162658,6,0,P|184:208|352:160,1,279.999991455078,10|10,0:1|0:0,0:0:0:0:
504,256,163158,2,0,P|436:276|352:244,1,139.999995727539,8|8,0:0|0:1,0:0:0:0:
371,258,163491,1,10,0:1:0:0:
300,64,163658,1,10,0:0:0:0:
436,160,163824,1,2,0:0:0:0:
200,164,163991,6,0,B|96:184|40:100|40:100|-16:148|32:220,1,279.999991455078,10|8,0:1|0:0,0:0:0:0:
188,280,164491,1,2,0:0:0:0:
188,280,164658,2,0,P|256:263|313:193,1,139.999995727539,10|8,0:1|0:1,0:0:0:0:
188,48,164991,2,0,P|256:64|313:134,1,139.999995727539,8|0,0:0|0:0,0:0:0:0:
360,344,165324,5,8,0:1:0:0:
360,344,165658,2,0,B|404:284|404:284|404:192,1,139.999995727539,14|0,0:0|0:0,0:0:0:0:
160,32,165991,2,0,B|116:92|116:92|116:184,1,139.999995727539,14|8,0:0|0:0,0:0:0:0:
312,252,166324,1,8,0:0:0:0:
288,48,166491,1,10,0:0:0:0:
212,120,166658,6,0,B|332:204|364:60|492:160,1,279.999991455078,6|8,0:0|0:0,0:0:0:0:
401,351,167158,2,0,P|420:283|388:198,1,139.999995727539,2|10,0:0|0:1,0:0:0:0:
288,48,167491,1,10,0:1:0:0:
182,113,167658,1,10,0:0:0:0:
293,169,167824,1,2,0:0:0:0:
288,48,167991,6,0,P|176:116|20:124,1,279.999991455078,10|10,0:1|0:0,0:0:0:0:
164,44,168491,2,0,P|183:112|151:197,1,139.999995727539,2|10,0:0|0:1,0:0:0:0:
16,344,168824,1,10,0:1:0:0:
41,219,168991,1,10,0:0:0:0:
134,303,169158,1,2,0:0:0:0:
320,152,169324,6,0,B|369:196|369:196|280:284|161:196,1,279.999991455078,10|8,0:1|0:0,0:0:0:0:
32,96,169824,2,0,P|100:77|185:109,1,139.999995727539,2|10,0:0|0:1,0:0:0:0:
252,340,170158,1,10,0:1:0:0:
376,356,170324,1,10,0:0:0:0:
456,260,170491,1,2,0:0:0:0:
456,260,170574,1,2,0:0:0:0:
456,260,170658,6,0,P|461:217|445:164,3,69.9999978637696,10|2|2|2,0:1|0:0|0:0|0:0,0:0:0:0:
396,116,170991,2,0,P|390:73|406:20,1,69.9999978637696,10|2,0:0|0:0,0:0:0:0:
296,132,171158,1,2,0:0:0:0:
296,132,171241,1,2,0:0:0:0:
296,132,171324,2,0,P|274:169|267:224,1,69.9999978637696,10|2,0:1|0:0,0:0:0:0:
376,324,171491,2,0,P|366:290|347:261,1,69.9999978637696,10|2,0:1|0:0,0:0:0:0:
128,252,171658,1,10,0:0:0:0:
157,270,171741,1,2,0:3:0:0:
189,281,171824,1,2,0:3:0:0:
223,288,171908,1,2,0:3:0:0:
257,288,171991,6,0,P|207:338|117:353,1,139.999995727539,14|0,0:1|0:0,0:0:0:0:
12,184,172324,2,0,P|62:234|152:249,1,139.999995727539,10|0,0:0|0:0,0:0:0:0:
356,180,172658,2,0,L|356:36,1,139.999995727539,2|2,0:0|0:0,0:0:0:0:
240,172,172991,2,0,L|240:316,1,139.999995727539,8|0,0:0|0:0,0:0:0:0:
140,160,173324,6,0,P|232:76|338:189,1,279.999991455078,2|8,0:0|0:0,0:0:0:0:
437,169,173824,2,0,P|345:253|239:140,1,279.999991455078,2|8,0:0|0:1,0:0:0:0:
436,0,174324,1,10,0:0:0:0:
337,157,174491,1,2,0:0:0:0:
148,56,174658,6,0,B|268:140|300:-4|428:96,1,279.999991455078,10|8,0:1|0:0,0:0:0:0:
485,287,175158,1,2,0:0:0:0:
485,287,175324,2,0,P|360:287|357:132,3,279.999991455078,10|10|10|8,0:1|0:0|0:1|0:0,0:0:0:0:
468,156,176491,1,2,0:0:0:0:
468,156,176658,2,0,P|489:88|460:2,1,139.999995727539,8|8,0:1|0:0,0:0:0:0:
348,0,176991,1,10,0:1:0:0:
244,72,177158,1,10,0:1:0:0:
208,72,177241,1,10,0:1:0:0:
172,72,177324,6,0,L|20:72,1,139.999995727539,6|0,0:0|0:0,0:0:0:0:
316,144,177658,2,0,B|349:80|349:80|321:6,1,139.999995727539,8|0,0:0|0:0,0:0:0:0:
208,164,177991,2,0,B|174:227|174:227|202:301,1,139.999995727539,10|10,0:1|0:1,0:0:0:0:
300,368,178324,2,0,L|452:368,1,139.999995727539,8|0,0:0|0:0,0:0:0:0:
316,244,178658,6,0,P|176:228|40:140,1,279.999991455078,10|10,0:1|0:0,0:0:0:0:
168,360,179158,2,0,P|184:220|272:84,1,279.999991455078,2|10,0:0|0:1,0:0:0:0:
368,48,179658,1,10,0:0:0:0:
476,112,179824,1,2,0:0:0:0:
368,48,179991,6,0,P|300:76|212:64,1,150.000005722046,10|0,0:1|0:0,0:0:0:0:
152,36,180491,1,2,0:0:0:0:
56,176,180658,2,0,B|104:184|104:184|132:172|132:172|164:184|164:184|216:164|276:184,1,225.000008583069,2|0,0:0|0:0,0:0:0:0:
328,296,181324,5,4,0:0:0:0:
390,195,181491,1,2,0:2:0:0:
491,259,181658,1,8,0:2:0:0:
400,340,181824,1,2,0:3:0:0:
296,208,181991,1,12,0:3:0:0:
428,104,182158,1,4,0:3:0:0:
296,208,182324,2,0,L|200:208,1,75.0000028610231,8|0,0:1|0:0,0:0:0:0:
80,208,182658,5,2,0:0:0:0:
256,192,191991,12,0,193158,0:0:0:0:
374,265,193324,6,0,B|278:221|158:265|158:265|174:209|266:189,1,350,4|0,0:0|0:0,0:0:0:0:
192,0,194658,6,0,P|304:44|336:172,1,250,2|0,0:0|0:0,0:0:0:0:
288,336,195658,5,2,0:0:0:0:
256,192,195991,12,0,198491,0:0:0:0:
156,52,198658,6,0,B|308:100|268:4|412:64|412:64|396:100|348:132,1,350,2|0,0:0|0:0,0:0:0:0:
336,372,199991,6,0,B|372:236|220:296|276:132,1,250,2|0,0:0|0:0,0:0:0:0:
492,64,200991,5,2,0:0:0:0:
256,192,201324,12,0,202491,0:0:0:0:
404,208,202658,5,10,0:3:0:0:
404,192,202824,1,2,0:0:0:0:
404,168,202991,1,2,0:3:0:0:
404,132,203158,1,2,0:3:0:0:
404,80,203324,5,2,0:0:0:0:
316,244,203491,1,2,0:3:0:0:
200,296,203658,1,2,0:0:0:0:
60,244,203824,1,2,0:3:0:0:
60,220,203908,1,2,0:3:0:0:
60,196,203991,6,0,B|60:140|60:140|4:84|52:0,1,200,6|2,0:2|0:2,0:0:0:0:
136,68,204491,1,2,0:0:0:0:
136,68,204658,2,0,L|256:68,1,100,2|0,0:2|0:0,0:0:0:0:
336,68,204991,1,2,0:2:0:0:
408,140,205158,1,2,0:0:0:0:
268,340,205324,6,0,P|272:236|328:152,1,200,6|2,0:0|0:2,0:0:0:0:
440,40,205824,1,2,0:0:0:0:
440,40,205991,2,0,L|440:160,1,100,2|0,0:2|0:0,0:0:0:0:
440,240,206324,1,2,0:0:0:0:
440,240,206491,1,2,0:2:0:0:
148,192,206658,6,0,B|180:188|204:204|204:204|224:188|224:188|292:224|364:184,1,220.000006713867,6|2,0:0|0:0,0:0:0:0:
348,28,207158,1,2,0:2:0:0:
348,28,207324,2,0,P|304:64|292:120,1,110.000003356934,2|0,0:2|0:0,0:0:0:0:
410,274,207658,2,0,P|395:221|353:188,1,110.000003356934,2|2,0:2|0:0,0:0:0:0:
112,264,207991,6,0,B|148:216|148:216|148:20,1,239.999992675781,6|2,0:0|0:2,0:0:0:0:
248,88,208491,1,2,0:0:0:0:
248,88,208658,2,0,L|380:88,1,119.999996337891,2|0,0:2|0:0,0:0:0:0:
476,88,208991,1,2,0:0:0:0:
461,113,209074,1,2,0:2:0:0:
453,142,209158,1,2,0:0:0:0:
452,171,209241,1,2,0:2:0:0:
458,200,209324,6,0,B|490:297|416:364|416:364|384:340|388:308,1,239.999992675781,6|2,0:0|0:0,0:0:0:0:
312,244,209824,1,2,0:0:0:0:
312,244,209991,2,0,L|180:244,1,119.999996337891,2|0,0:2|0:0,0:0:0:0:
84,244,210324,1,2,0:0:0:0:
136,340,210491,1,2,0:2:0:0:
232,152,210658,6,0,P|168:44|32:24,1,259.999988098145,6|2,0:0|0:0,0:0:0:0:
0,244,211158,1,2,0:0:0:0:
0,244,211324,2,0,L|136:244,1,129.999994049073,6|0,0:0|0:0,0:0:0:0:
242,336,211658,2,0,L|98:336,1,129.999994049073,2|2,0:0|0:2,0:0:0:0:
242,244,211991,6,0,B|332:264|328:352|328:352|452:336|456:232,2,330.000010070801,6|2|2,0:0|0:0|0:0,0:0:0:0:
130,244,213158,1,2,0:2:0:0:
130,244,213324,6,0,P|136:180|204:140,1,129.999994049073,6|2,0:0|0:0,0:0:0:0:
296,140,213658,1,2,0:0:0:0:
372,216,213824,1,2,0:0:0:0:
452,52,213991,5,6,0:1:0:0:
348,52,214158,1,2,0:2:0:0:
244,52,214324,1,2,0:0:0:0:
140,52,214491,1,2,0:0:0:0:
5,201,214658,6,0,P|132:182|115:28,1,279.999991455078,6|2,0:2|0:2,0:0:0:0:
5,201,215158,1,2,0:3:0:0:
5,201,215324,2,0,L|5:350,1,139.999995727539,8|0,0:1|0:0,0:0:0:0:
96,384,215658,1,2,0:0:0:0:
96,384,215824,1,2,0:2:0:0:
355,369,215991,6,0,P|234:301|96:296,1,279.999991455078,6|8,0:2|0:1,0:0:0:0:
220,208,216491,1,2,0:2:0:0:
220,208,216658,2,0,P|244:136|200:56,1,139.999995727539,2|2,0:0|0:2,0:0:0:0:
156,16,216991,1,2,0:0:0:0:
156,16,217158,1,2,0:0:0:0:
0,156,217324,6,0,L|151:140,1,139.999995727539,6|0,0:2|0:0,0:0:0:0:
96,296,217658,2,0,L|231:310,1,129.999994049073,2|2,0:2|0:0,0:0:0:0:
220,208,217991,2,0,L|343:195,1,119.999996337891,8|2,0:1|0:2,0:0:0:0:
344,292,218324,2,0,L|455:303,1,110.000003356934,8|2,0:1|0:2,0:0:0:0:
436,204,218658,6,0,L|436:92,1,100,8|2,0:1|0:2,0:0:0:0:
436,16,218991,1,2,0:2:0:0:
436,16,219158,1,2,0:2:0:0:
352,64,219324,2,0,L|260:64,1,75.0000028610231,2|2,0:2|0:2,0:0:0:0:
208,152,219658,2,0,L|300:152,1,75.0000028610231,2|2,0:2|0:2,0:0:0:0:
208,248,219991,6,0,P|144:232|128:104,1,200,6|2,0:2|0:2,0:0:0:0:
184,36,220491,1,2,0:0:0:0:
184,36,220658,2,0,P|140:12|80:24,1,100,8|0,0:1|0:0,0:0:0:0:
16,80,220991,2,0,L|16:188,1,100,8|2,0:1|0:2,0:0:0:0:
16,352,221324,6,0,B|136:304|120:400|256:336,1,220.000006713867,6|2,0:2|0:2,0:0:0:0:
328,262,221824,1,2,0:0:0:0:
328,262,221991,2,0,L|328:150,1,110.000003356934,2|0,0:2|0:0,0:0:0:0:
224,56,222324,2,0,L|224:168,1,110.000003356934,2|2,0:0|0:2,0:0:0:0:
328,56,222658,5,6,0:2:0:0:
124,128,222824,1,2,0:2:0:0:
328,152,222991,1,2,0:2:0:0:
148,224,223158,1,2,0:0:0:0:
312,248,223324,5,2,0:2:0:0:
180,308,223491,1,2,0:2:0:0:
328,152,223658,1,6,0:2:0:0:
220,200,223824,1,6,0:2:0:0:
328,56,223991,5,6,0:1:0:0:
76,352,224658,1,8,0:0:0:0:
76,352,224824,1,8,0:0:0:0:
76,352,225158,1,8,0:1:0:0:
0,276,225324,6,0,B|132:204|156:340|296:268,1,300.000011444092,6|0,0:0|0:0,0:0:0:0:
332,188,226158,1,2,0:0:0:0:
332,188,226324,2,0,L|332:88,1,75.0000028610231,2|10,0:0|0:1,0:0:0:0:
216,212,226658,6,0,P|292:320|428:244,1,300.000011444092,10|0,0:1|0:0,0:0:0:0:
456,168,227491,1,2,0:0:0:0:
456,168,227658,2,0,L|456:84,1,75.0000028610231,2|10,0:0|0:1,0:0:0:0:
216,124,227991,6,0,B|264:108|264:108|388:124,1,150.000005722046,10|2,0:1|0:0,0:0:0:0:
216,212,228491,2,0,P|144:184|132:112,1,150.000005722046,2|2,0:0|0:0,0:0:0:0:
176,32,228991,1,2,0:0:0:0:
40,100,229158,1,10,0:1:0:0:
40,100,229324,6,0,L|40:332,1,225.000008583069,10|2,0:1|0:0,0:0:0:0:
132,284,229991,2,0,L|132:196,1,75.0000028610231,2|0,0:0|0:0,0:0:0:0:
132,209,230491,1,10,0:1:0:0:
358,242,230658,6,0,P|318:158|122:122,1,300.000011444092,6|0,0:0|0:0,0:0:0:0:
48,176,231491,1,2,0:0:0:0:
48,176,231658,2,0,P|28:140|36:88,1,75.0000028610231,2|10,0:0|0:1,0:0:0:0:
196,20,231991,5,10,0:1:0:0:
160,20,232158,1,2,0:0:0:0:
124,20,232324,1,2,0:0:0:0:
88,20,232491,1,2,0:0:0:0:
316,20,232824,1,2,0:0:0:0:
352,20,232991,1,2,0:0:0:0:
388,20,233158,1,10,0:1:0:0:
504,20,233324,6,0,P|460:76|464:168,1,150.000005722046,10|2,0:1|0:0,0:0:0:0:
500,220,233824,1,2,0:0:0:0:
512,256,233991,1,2,0:0:0:0:
508,293,234158,1,2,0:0:0:0:
356,376,234324,1,2,0:3:0:0:
416,270,234491,1,6,0:0:0:0:
476,376,234658,5,6,0:0:0:0:
296,270,234824,1,2,0:3:0:0:
296,270,234991,2,0,L|296:140,1,100,6|0,0:0|0:0,0:0:0:0:
296,68,235324,2,2,L|321:68,6,25,6|2|2|2|2|2|2,0:0|0:0|0:0|0:0|0:0|0:0|0:0,0:0:0:0:
260,96,235658,2,2,L|228:96,6,25,6|2|2|2|2|2|2,0:0|0:0|0:0|0:0|0:0|0:0|0:0,0:0:0:0:
192,67,235991,6,0,P|263:180|400:240,1,279.999991455078,6|8,0:0|0:0,0:3:0:0:
512,288,236491,2,0,P|476:346|411:367,1,139.999995727539,2|2,0:0|0:0,0:3:0:0:
296,316,236824,1,10,0:1:0:0:
410,264,236991,1,10,0:0:0:0:
309,190,237158,1,2,0:0:0:0:
296,316,237324,6,0,P|400:272|476:128,1,279.999991455078,10|10,0:1|0:0,0:0:0:0:
388,40,237824,2,0,B|320:40|320:40|248:-4,1,139.999995727539,2|10,0:0|0:1,0:0:0:0:
148,144,238158,1,10,0:1:0:0:
148,144,238241,1,2,0:0:0:0:
148,144,238324,2,0,L|240:144,1,69.9999978637696,10|0,0:0|0:0,0:0:0:0:
328,144,238491,1,2,0:0:0:0:
176,240,238658,5,10,0:1:0:0:
145,256,238741,1,2,0:0:0:0:
110,260,238824,1,2,0:0:0:0:
75,255,238908,1,2,0:0:0:0:
44,238,238991,1,8,0:0:0:0:
20,212,239074,1,2,0:0:0:0:
7,178,239158,1,2,0:0:0:0:
40,188,239241,1,2,0:0:0:0:
70,205,239324,1,10,0:1:0:0:
95,229,239408,1,2,0:0:0:0:
110,260,239491,1,10,0:1:0:0:
113,294,239574,1,2,0:0:0:0:
120,328,239658,1,10,0:0:0:0:
145,351,239741,1,2,0:0:0:0:
177,363,239824,1,2,0:0:0:0:
212,361,239908,1,2,0:0:0:0:
245,352,239991,5,10,0:1:0:0:
241,317,240074,1,2,0:0:0:0:
251,283,240158,1,2,0:0:0:0:
277,260,240241,1,2,0:0:0:0:
311,257,240324,1,10,0:0:0:0:
345,265,240408,1,2,0:0:0:0:
379,259,240491,1,2,0:0:0:0:
407,238,240574,1,2,0:0:0:0:
422,206,240658,2,0,P|431:166|425:118,1,69.9999978637696,10|0,0:1|0:0,0:0:0:0:
324,12,240824,2,0,P|333:52|327:100,1,69.9999978637696,10|0,0:1|0:0,0:0:0:0:
248,184,240991,1,10,0:0:0:0:
106,119,241158,1,2,0:3:0:0:
94,87,241241,1,2,0:3:0:0:
106,55,241324,6,0,B|266:55,1,139.999995727539,14|0,0:1|0:0,0:0:0:0:
388,184,241658,2,0,B|228:184,1,139.999995727539,10|0,0:0|0:0,0:0:0:0:
164,312,241991,2,0,P|138:248|161:183,1,139.999995727539,10|10,0:1|0:1,0:0:0:0:
246,55,242324,2,0,P|271:118|248:183,1,139.999995727539,8|0,0:0|0:0,0:0:0:0:
0,255,242658,6,0,B|75:211|137:239|137:239|75:211|111:99,1,279.999991455078,2|8,0:0|0:0,0:0:0:0:
372,336,243158,2,0,P|336:237|176:164,1,279.999991455078,2|8,0:0|0:1,0:0:0:0:
76,228,243658,1,10,0:0:0:0:
164,312,243824,1,2,0:0:0:0:
112,92,243991,6,0,B|192:56|300:96|300:96|312:40|368:16,1,279.999991455078,10|8,0:1|0:0,0:0:0:0:
476,4,244491,1,2,0:0:0:0:
475,4,244658,2,0,P|439:137|477:270,3,279.999991455078,10|10|10|8,0:1|0:0|0:1|0:0,0:0:0:0:
392,364,245824,1,2,0:0:0:0:
392,364,245991,2,0,L|244:364,1,139.999995727539,8|8,0:1|0:0,0:0:0:0:
124,364,246324,1,10,0:1:0:0:
36,276,246491,1,10,0:1:0:0:
36,240,246574,1,10,0:1:0:0:
36,204,246658,6,0,L|36:56,1,139.999995727539,6|0,0:0|0:0,0:0:0:0:
192,148,246991,2,0,L|192:296,1,139.999995727539,8|0,0:0|0:0,0:0:0:0:
264,80,247324,2,0,P|200:47|119:85,1,139.999995727539,10|10,0:1|0:1,0:0:0:0:
286,180,247658,2,0,P|346:141|353:52,1,139.999995727539,8|0,0:0|0:0,0:0:0:0:
116,288,247991,6,0,L|396:288,1,279.999991455078,10|10,0:1|0:0,0:0:0:0:
510,49,248491,2,0,P|445:137|273:177,1,279.999991455078,2|2,0:0|0:0,0:0:0:0:
164,144,248991,1,10,0:0:0:0:
60,216,249158,1,2,0:0:0:0:
268,72,249324,5,10,0:1:0:0:
160,272,250658,5,2,0:1:0:0:
40,204,250824,1,0,0:0:0:0:
160,272,250991,1,2,0:0:0:0:
144,160,251158,5,2,0:0:0:0:
56,316,251324,1,10,0:1:0:0:
40,204,251491,1,10,0:1:0:0:
160,272,251658,1,10,0:0:0:0:
196,272,251741,1,2,0:0:0:0:
232,272,251824,1,2,0:0:0:0:
268,272,251908,1,2,0:0:0:0:
308,272,251991,6,0,P|400:216|404:112,1,200,14|10,0:1|0:0,0:0:0:0:
360,48,252491,1,2,0:0:0:0:
360,48,252658,2,0,L|232:48,1,100,2|0,0:0|0:0,0:0:0:0:
160,48,252991,1,8,0:0:0:0:
92,120,253158,1,2,0:0:0:0:
208,244,253324,6,0,L|195:120,1,100,2|2,0:0|0:1,0:0:0:0:
368,244,253658,2,0,L|380:120,1,100,8|2,0:0|0:1,0:0:0:0:
292,304,253991,2,0,L|300:387,1,75.0000028610231,10|0,0:1|0:0,0:0:0:0:
208,244,254324,2,0,L|199:327,1,75.0000028610231,8|0,0:0|0:0,0:0:0:0:
108,384,254658,6,0,L|89:208,1,150.000005722046,6|8,0:0|0:0,0:0:0:0:
76,140,255158,1,2,0:0:0:0:
76,140,255324,2,0,P|116:140|148:156,1,75.0000028610231,2|2,0:0|0:0,0:0:0:0:
188,244,255658,2,0,P|228:244|260:228,1,75.0000028610231,8|2,0:0|0:0,0:0:0:0:
332,32,255991,5,8,0:1:0:0:
316,152,256158,1,2,0:0:0:0:
396,232,256324,1,2,0:0:0:0:
500,232,256491,1,2,0:0:0:0:
370,357,256658,5,8,0:0:0:0:
320,282,256824,1,2,0:0:0:0:
396,232,256991,1,8,0:0:0:0:
444,308,257158,1,8,0:0:0:0:
284,284,257324,6,0,B|216:300|188:256|188:256|128:232|72:288,1,200,12|8,0:0|0:0,0:0:0:0:
36,344,257824,1,2,0:0:0:0:
36,344,257991,2,0,P|4:312|0:248,1,100,2|0,0:0|0:0,0:0:0:0:
56,176,258324,1,8,0:0:0:0:
4,88,258491,1,2,0:0:0:0:
184,16,258658,6,0,L|56:29,1,100,6|0,0:0|0:0,0:0:0:0:
264,140,258991,2,0,L|136:126,1,100,8|2,0:0|0:0,0:0:0:0:
352,232,259324,2,0,L|224:245,1,100,2|0,0:0|0:0,0:0:0:0:
432,356,259657,2,0,L|304:342,1,100,8|2,0:0|0:0,0:0:0:0:
168,304,259991,6,0,B|120:204|208:196|148:100,1,200,4|10,0:0|0:1,0:0:0:0:
112,20,260491,1,2,0:0:0:0:
112,20,260658,2,0,L|12:20,1,100,2|0,0:0|0:0,0:0:0:0:
0,216,260991,1,10,0:1:0:0:
84,164,261158,1,2,0:0:0:0:
168,304,261324,5,10,0:1:0:0:
80,252,261491,1,2,0:0:0:0:
168,312,261658,1,8,0:0:0:0:
256,252,261824,1,2,0:0:0:0:
168,320,261991,5,8,0:0:0:0:
208,152,262158,1,2,0:0:0:0:
168,328,262324,1,8,0:0:0:0:
96,124,262491,1,8,0:0:0:0:
374,239,262658,6,0,P|306:171|188:154,1,200,4|10,0:0|0:0,0:0:0:0:
132,216,263158,1,2,0:0:0:0:
132,216,263324,2,0,L|132:332,1,100,2|0,0:0|0:0,0:0:0:0:
52,380,263658,1,8,0:0:0:0:
0,296,263824,1,2,0:0:0:0:
231,326,263991,6,0,L|115:313,1,100,2|2,0:1|0:1,0:0:0:0:
324,200,264324,2,0,L|208:212,1,100,8|2,0:0|0:1,0:0:0:0:
104,220,264658,2,0,L|112:140,1,75.0000028610231,10|0,0:1|0:0,0:0:0:0:
208,108,264991,2,0,L|199:28,1,75.0000028610231,8|0,0:0|0:0,0:0:0:0:
328,72,265324,6,0,B|404:100|416:52|484:76,1,150.000005722046,6|8,0:0|0:0,0:0:0:0:
448,168,265824,1,2,0:0:0:0:
448,168,265991,2,0,L|448:260,1,75.0000028610231,2|2,0:0|0:0,0:0:0:0:
364,300,266324,2,0,L|364:208,1,75.0000028610231,8|2,0:0|0:0,0:0:0:0:
364,80,266658,5,8,0:1:0:0:
268,152,266824,1,2,0:0:0:0:
180,80,266991,1,2,0:0:0:0:
104,152,267158,1,2,0:0:0:0:
148,228,267324,5,8,0:0:0:0:
100,308,267491,1,2,0:0:0:0:
148,228,267658,1,8,0:0:0:0:
56,228,267824,1,8,0:0:0:0:
272,312,267991,6,0,P|340:312|476:384,1,200,12|8,0:0|0:0,0:0:0:0:
464,260,268491,1,2,0:0:0:0:
464,260,268658,2,0,P|452:204|476:152,1,100,2|0,0:0|0:0,0:0:0:0:
508,72,268991,1,8,0:0:0:0:
408,80,269158,1,2,0:0:0:0:
244,0,269324,6,0,L|351:11,1,100,6|0,0:0|0:0,0:0:0:0:
244,160,269658,2,0,L|351:148,1,100,8|2,0:0|0:0,0:0:0:0:
152,80,269991,2,0,L|140:191,1,100,2|0,0:0|0:0,0:0:0:0:
216,340,270324,2,0,L|204:228,1,100,8|2,0:0|0:0,0:0:0:0:
26,306,270658,6,0,P|94:306|210:234,1,200,4|8,0:0|0:1,0:0:0:0:
244,144,271158,1,2,0:1:0:0:
244,144,271324,2,0,P|184:140|128:176,1,100,2|2,0:1|0:1,0:0:0:0:
308,220,271658,2,0,B|325:187|325:187|341:170|341:170|332:144|338:103,1,100,6|0,0:0|0:0,0:0:0:0:
276,52,271991,5,14,0:1:0:0:
256,192,272074,12,0,273158,0:0:0:0:
256,192,273324,5,14,0:1:0:0:
