osu file format v14

[General]
AudioFilename: mylove.mp3
AudioLeadIn: 0
PreviewTime: 55329
Countdown: 0
SampleSet: Soft
StackLeniency: 0.3
Mode: 0
LetterboxInBreaks: 0
WidescreenStoryboard: 0

[Editor]
Bookmarks: 2630,19621,36612,55727,72718,91833,108824,125815,144930,161922,181037,200152,217143,236258,253249,272364,289355,308205
DistanceSpacing: 1.2
BeatDivisor: 4
GridSize: 4
TimelineZoom: 1

[Metadata]
Title:frozen fir tree
TitleUnicode:frozen fir tree
Artist:KOTOKO
ArtistUnicode:KOTOKO
Creator:Andrea
Version:Snowy
Source:
Tags:Sekai-nyan osuplayer111 Yaginuma Satoshi 八木沼悟志 fripSide 空中パズル Kuchu Puzzle Xmas Christmas Collab
BeatmapID:832828
BeatmapSetID:380639

[Difficulty]
HPDrainRate:7
CircleSize:4.5
OverallDifficulty:7
ApproachRate:8
SliderMultiplier:1.8
SliderTickRate:1

[Events]
//Background and Video events
0,0,"mylove.jpg",0,0
//Break Periods
//Storyboard Layer 0 (Background)
//Storyboard Layer 1 (Fail)
//Storyboard Layer 2 (Pass)
//Storyboard Layer 3 (Foreground)
//Storyboard Sound Samples

[TimingPoints]
2630,530.973451327434,4,2,1,60,1,0
53868,-100,4,2,1,50,0,0
54134,-100,4,2,1,60,0,0
54399,-100,4,2,1,50,0,0
55461,-100,4,2,1,60,0,0
55727,-100,4,1,1,80,0,1
72585,-100,4,1,1,80,0,0
72718,-100,4,1,1,80,0,1
91833,-100,4,2,1,80,0,0
92231,-100,4,2,1,60,0,0
144930,-100,4,1,1,80,0,1
161789,-100,4,1,1,80,0,0
161922,-100,4,1,1,80,0,1
181037,-100,4,1,1,80,0,0
198028,-100,4,2,1,80,0,0
198293,-100,4,2,1,70,0,0
198426,-100,4,2,1,80,0,0
198824,-100,4,2,1,70,0,0
198957,-100,4,2,1,80,0,0
199090,-100,4,2,1,60,0,0
217143,-100,4,1,1,80,0,1
236125,-100,4,1,1,80,0,0
236258,-100,4,1,1,80,0,1
253116,-100,4,1,1,80,0,0
253249,-100,4,1,1,80,0,1
272231,-100,4,1,1,80,0,0
272364,-100,4,1,1,80,0,1
289355,-100,4,1,1,80,0,0

[Colours]
Combo1 : 255,255,128
Combo2 : 0,128,255
Combo3 : 128,0,64

[HitObjects]
48,148,2364,5,0,0:0:0:0:
116,64,2630,1,4,0:0:0:0:
224,64,2895,1,0,0:0:0:0:
224,64,3028,2,0,P|292:64|336:112,1,135
396,200,3691,2,0,L|316:256,1,90,2|0,0:0|0:0,0:0:0:0:
108,280,4222,2,0,L|188:224,1,90
124,352,4753,2,0,L|40:236,2,135,2|0|0,0:0|0:0|0:0,0:0:0:0:
256,276,5815,2,0,B|312:276|312:276|372:304|372:304|432:304,1,180,2|0,0:0|0:0,0:0:0:0:
496,152,6612,5,0,0:0:0:0:
424,72,6877,1,2,0:0:0:0:
316,72,7143,1,0,0:0:0:0:
316,72,7276,2,0,P|236:72|192:40,1,135
108,104,7939,2,0,L|32:160,1,90,2|0,0:0|0:0,0:0:0:0:
40,344,8470,2,0,L|116:288,1,90
198,228,9001,2,0,B|242:236|270:208|270:208|328:208,2,135,2|0|0,0:0|0:0|0:0,0:0:0:0:
328,296,10063,2,0,L|328:112,1,180,2|0,0:0|0:0,0:0:0:0:
152,40,10860,6,0,P|108:40|72:68,1,90,0|2,0:0|0:0,0:0:0:0:
0,144,11391,1,0,0:0:0:0:
0,144,11523,2,0,L|80:256,1,135
212,280,12187,2,0,L|152:208,1,90,2|0,0:0|0:0,0:0:0:0:
300,280,12718,2,0,L|360:208,1,90
256,57,13249,2,0,L|256:192,2,135,2|0|0,0:0|0:0|0:0,0:0:0:0:
176,248,14311,2,0,P|256:284|336:248,1,180,2|0,0:0|0:0,0:0:0:0:
336,92,15107,5,0,0:0:0:0:
336,92,15240,1,0,0:0:0:0:
336,92,15373,2,0,P|256:56|176:92,1,180,2|0,0:0|0:0,0:0:0:0:
256,192,16169,1,0,0:0:0:0:
256,192,16302,1,0,0:0:0:0:
256,192,16435,2,0,P|300:192|340:216,1,90,2|0,0:0|0:0,0:0:0:0:
292,364,16966,2,0,P|248:364|208:340,1,90
164,244,17497,5,2,0:0:0:0:
256,192,17762,1,0,0:0:0:0:
256,192,17895,2,0,L|392:192,1,135,0|2,0:0|0:0,0:0:0:0:
256,36,18691,2,0,L|120:36,1,135,0|2,0:0|0:0,0:0:0:0:
32,100,19355,1,0,0:0:0:0:
32,100,19488,1,0,0:0:0:0:
32,100,19621,6,0,B|21:149|21:149|37:198,1,90,12|0,0:0|2:0,0:0:0:0:
143,319,20152,2,0,B|155:281|155:281|144:232,1,90,8|0,0:0|2:0,0:0:0:0:
280,192,20683,2,0,B|328:192|328:192|356:204|356:204|416:204,1,135,8|0,0:0|2:0,0:0:0:0:
392,128,21214,2,0,L|408:36,1,90,8|0,0:0|2:0,0:0:0:0:
256,44,21745,6,0,P|204:36|128:68,1,135,10|0,0:0|2:0,0:0:0:0:
80,132,22276,2,0,P|56:96|56:40,1,90,8|0,0:0|2:0,0:0:0:0:
208,120,22806,2,0,B|224:176|168:228|200:308,1,180,10|10,0:0|0:0,0:0:0:0:
308,284,23603,1,0,2:0:0:0:
308,284,23736,1,0,2:0:0:0:
308,284,23868,6,0,B|356:284|356:284|400:308,1,90,10|0,0:0|2:0,0:0:0:0:
488,192,24399,2,0,L|388:192,1,90,8|0,0:0|2:0,0:0:0:0:
308,100,24930,2,0,B|356:100|356:100|400:76,1,90,8|0,0:0|2:0,0:0:0:0:
398,192,25461,1,8,0:0:0:0:
256,160,25727,1,0,2:0:0:0:
256,160,25860,1,0,2:0:0:0:
256,160,25992,6,0,P|220:128|200:40,1,135,10|0,0:0|2:0,0:0:0:0:
116,64,26523,2,0,L|72:148,1,90,8|0,0:0|2:0,0:0:0:0:
116,284,27054,2,0,L|157:204,1,90,10|0,0:0|2:0,0:0:0:0:
200,132,27453,1,8,0:0:0:0:
200,132,27585,2,0,P|244:120|288:132,1,90,10|8,0:0|2:0,0:0:0:0:
344,248,28116,6,0,L|388:96,1,135,12|0,0:0|2:0,0:0:0:0:
464,128,28647,2,0,L|444:216,1,90,8|0,0:0|2:0,0:0:0:0:
304,84,29178,2,0,P|224:92|156:48,1,135,8|0,0:0|2:0,0:0:0:0:
104,40,29709,2,0,L|60:128,1,90,8|0,0:0|2:0,0:0:0:0:
56,260,30240,6,0,P|108:260|184:332,1,135,10|0,2:0|0:0,0:0:0:0:
172,307,30771,1,10,0:0:0:0:
256,360,31037,1,0,2:0:0:0:
339,307,31302,2,0,P|389:264|456:260,1,135,10|0,0:0|2:0,0:0:0:0:
420,340,31833,1,2,1:2:0:0:
352,192,32099,1,8,0:0:0:0:
256,272,32364,6,0,L|256:132,1,135,8|0,2:0|0:0,0:0:0:0:
256,137,32895,1,8,0:0:0:0:
256,36,33160,1,0,2:0:0:0:
168,100,33426,2,0,B|124:100|124:100|76:68,1,90,10|0,0:0|2:0,0:0:0:0:
20,192,33957,1,8,0:0:0:0:
85,309,34222,1,8,0:0:0:0:
20,192,34488,6,0,L|168:192,1,135,10|0,0:0|2:0,0:0:0:0:
200,276,35019,2,0,L|64:276,1,135,8|0,0:0|2:0,0:0:0:0:
136,352,35550,2,0,L|240:352,1,90,8|0,0:0|2:0,0:0:0:0:
336,352,36081,1,10,0:0:0:0:
404,244,36346,1,8,0:0:0:0:
404,244,36479,1,0,2:0:0:0:
404,244,36612,6,0,L|452:160,1,90,12|0,0:0|0:0,0:0:0:0:
504,72,37143,1,8,0:0:0:0:
352,116,37408,1,0,0:0:0:0:
352,116,37541,1,0,0:0:0:0:
352,116,37674,2,0,L|304:200,1,90,8|0,0:0|0:0,0:0:0:0:
240,164,38072,2,0,L|164:276,1,135
168,376,38736,6,0,P|136:321|72:325,1,135,8|0,0:0|0:0,0:0:0:0:
72,324,39267,2,0,L|32:241,1,90,8|0,0:0|0:0,0:0:0:0:
61,32,39798,2,0,L|128:200,1,180,8|10,0:0|0:0,0:0:0:0:
228,160,40594,1,0,0:0:0:0:
188,60,40860,5,8,0:0:0:0:
292,36,41125,1,2,0:0:0:0:
292,36,41258,1,0,0:0:0:0:
292,36,41391,1,8,0:0:0:0:
332,136,41656,1,0,0:0:0:0:
364,240,41922,2,0,P|408:240|444:268,1,90,8|0,0:0|0:0,0:0:0:0:
464,340,42320,2,0,P|420:340|384:312,1,90,2|0,0:0|0:0,0:0:0:0:
308,312,42718,2,0,B|272:312|272:312|252:304|252:304|220:304,1,90,0|8,0:0|0:0,0:0:0:0:
52,184,43249,5,2,0:0:0:0:
52,184,43382,1,0,0:0:0:0:
52,184,43514,2,0,B|52:136|52:136|80:100,1,90,8|2,0:0|0:0,0:0:0:0:
156,32,44045,2,0,L|192:60,1,45,8|0,0:0|0:0,0:0:0:0:
300,48,44444,2,0,L|336:76,1,45,8|10,0:0|0:0,0:0:0:0:
420,144,44842,1,8,0:0:0:0:
420,288,45107,5,12,0:0:0:0:
500,216,45373,1,0,0:0:0:0:
500,216,45506,1,0,0:0:0:0:
500,216,45638,1,8,0:0:0:0:
340,216,45904,1,0,0:0:0:0:
256,332,46169,2,0,P|212:332|172:308,1,90,8|0,0:0|0:0,0:0:0:0:
112,344,46568,2,0,L|184:224,1,135
220,164,47099,1,0,0:0:0:0:
220,164,47231,5,8,0:0:0:0:
272,68,47497,1,0,0:0:0:0:
372,112,47762,1,8,0:0:0:0:
324,212,48028,1,0,0:0:0:0:
324,212,48160,2,0,P|356:268|324:324,1,135
220,164,48824,1,10,0:0:0:0:
272,68,49090,5,8,0:0:0:0:
272,68,49222,1,0,0:0:0:0:
272,68,49355,2,0,P|316:68|356:96,1,90,12|0,0:0|0:0,0:0:0:0:
220,164,49886,2,0,P|176:164|136:136,1,90,8|0,0:0|0:0,0:0:0:0:
80,48,50417,1,8,0:0:0:0:
20,232,50683,1,0,0:0:0:0:
20,232,50815,1,0,0:0:0:0:
20,232,50948,2,0,L|64:312,1,90,8|8,0:0|0:0,0:0:0:0:
144,166,51479,6,0,L|76:42,1,135,12|0,0:0|0:0,0:0:0:0:
79,47,52010,1,8,0:0:0:0:
256,92,52276,1,0,0:0:0:0:
433,47,52541,2,0,B|480:124|480:124|432:200,1,180,8|10,0:0|0:0,0:0:0:0:
360,348,53337,1,0,0:0:0:0:
360,348,53470,1,0,0:0:0:0:
360,348,53603,5,2,0:0:0:0:
256,288,53868,1,8,0:0:0:0:
152,348,54134,1,0,0:0:0:0:
256,176,54399,1,8,0:0:0:0:
256,148,54532,1,8,0:0:0:0:
256,120,54665,2,8,L|256:88,8,22.5
392,192,55461,1,2,0:0:0:0:
392,192,55594,1,0,0:0:0:0:
392,192,55727,6,0,P|396:244|380:292,1,90,4|0,0:0|0:0,0:0:0:0:
252,336,56258,2,0,P|241:292|246:247,1,90
256,168,56656,1,0,0:0:0:0:
256,168,56789,2,0,L|160:148,1,90,2|0,0:0|0:0,0:0:0:0:
256,68,57320,2,0,L|352:48,1,90,10|0,0:0|0:0,0:0:0:0:
452,28,57851,5,4,0:0:0:0:
452,136,58116,1,0,0:0:0:0:
352,178,58382,2,0,B|296:178|296:178|264:166|264:166|216:166,1,135,0|0,0:0|2:0,0:0:0:0:
156,96,58913,2,0,L|228:276,1,180,0|10,0:0|0:0,0:0:0:0:
92,188,59709,1,0,0:0:0:0:
92,188,59842,1,0,0:0:0:0:
92,188,59975,6,0,L|128:278,1,90,4|0,0:0|0:0,0:0:0:0:
168,356,60506,1,0,0:0:0:0:
256,288,60771,1,0,0:0:0:0:
344,356,61037,1,2,0:0:0:0:
400,240,61302,1,0,0:0:0:0:
400,240,61435,1,0,0:0:0:0:
400,240,61568,2,0,P|432:264|456:320,1,90,10|0,0:0|0:0,0:0:0:0:
336,296,62099,6,0,P|316:240|360:168,2,135,4|0|0,0:0|0:0|0:0,0:0:0:0:
224,192,63160,1,0,0:0:0:0:
224,192,63293,2,0,P|172:192|112:144,1,90,8|0,0:0|0:0,0:0:0:0:
96,92,63691,2,0,P|148:92|208:140,1,90,10|0,0:0|0:0,0:0:0:0:
340,104,64222,6,0,P|380:108|444:96,1,90,4|0,0:0|0:0,0:0:0:0:
472,176,64621,1,0,0:0:0:0:
472,176,64753,2,0,L|428:256,1,90
456,332,65152,2,0,P|400:296|320:300,1,135
256,372,65815,1,10,0:0:0:0:
178,295,66081,1,0,0:0:0:0:
178,295,66214,1,0,0:0:0:0:
178,295,66346,6,0,P|112:295|56:332,1,135,4|0,0:0|2:0,0:0:0:0:
36,236,66877,2,0,L|24:136,1,90
112,64,67408,2,0,L|122:153,1,90
204,152,67806,1,0,0:0:0:0:
204,152,67939,2,0,B|248:152|248:152|296:120,1,90,10|0,0:0|0:0,0:0:0:0:
472,192,68470,6,0,L|328:192,1,135,4|0,0:0|2:0,0:0:0:0:
304,276,69001,2,0,L|408:276,1,90
232,328,69532,2,0,P|184:316|96:344,1,135,2|0,0:0|2:0,0:0:0:0:
56,268,70063,1,10,0:0:0:0:
152,192,70329,1,0,0:0:0:0:
152,192,70461,1,0,0:0:0:0:
152,192,70594,6,0,L|136:96,1,90,4|0,0:0|0:0,0:0:0:0:
256,24,71125,2,0,L|256:120,1,90
360,192,71656,1,4,0:0:0:0:
360,192,71789,2,0,P|404:192|448:228,1,90
372,272,72187,1,10,0:0:0:0:
256,192,72453,1,0,0:0:0:0:
256,192,72585,1,0,0:0:0:0:
256,192,72718,5,4,0:0:0:0:
140,272,72983,2,0,L|96:188,1,90
200,68,73514,1,0,0:0:0:0:
200,68,73647,2,0,L|256:192,1,135
288,260,74178,1,0,0:0:0:0:
288,260,74311,2,0,P|336:260|368:236,1,90,10|0,0:0|0:0,0:0:0:0:
224,124,74842,6,0,P|176:124|144:148,1,90,4|0,0:0|0:0,0:0:0:0:
288,260,75373,1,0,0:0:0:0:
380,316,75638,1,0,0:0:0:0:
380,316,75771,2,0,P|428:260|428:200,1,135
384,104,76435,1,10,0:0:0:0:
256,32,76700,1,0,0:0:0:0:
256,32,76833,1,0,0:0:0:0:
256,32,76966,6,0,L|160:32,1,90,4|0,0:0|0:0,0:0:0:0:
24,192,77497,2,0,L|120:192,1,90
188,192,77895,2,0,P|264:192|312:224,1,135
364,280,78426,1,0,0:0:0:0:
364,280,78559,2,0,L|432:208,1,90,10|0,0:0|0:0,0:0:0:0:
500,136,79090,5,4,0:0:0:0:
344,28,79355,1,0,0:0:0:0:
344,28,79488,1,0,0:0:0:0:
344,28,79621,2,0,L|276:100,1,90,2|0,0:0|0:0,0:0:0:0:
184,44,80152,1,0,0:0:0:0:
156,29,80284,1,8,0:0:0:0:
125,24,80417,1,0,0:0:0:0:
94,30,80550,1,0,0:0:0:0:
67,45,80682,1,10,0:0:0:0:
24,264,80948,1,0,0:0:0:0:
24,264,81081,1,0,0:0:0:0:
24,264,81214,6,0,L|96:324,1,90,4|0,0:0|0:0,0:0:0:0:
328,332,81745,2,0,L|256:272,1,90
180,280,82143,2,0,P|212:216|272:196,1,135
340,216,82674,1,0,0:0:0:0:
340,216,82806,2,0,L|388:136,1,90,10|0,0:0|0:0,0:0:0:0:
256,40,83337,6,0,L|256:132,1,90,4|0,0:0|0:0,0:0:0:0:
172,216,83868,2,0,L|124:136,1,90
88,76,84267,2,0,P|26:100|0:160,1,135
32,228,84798,1,0,0:0:0:0:
32,228,84930,1,10,0:0:0:0:
156,320,85196,1,0,0:0:0:0:
248,196,85461,5,4,0:0:0:0:
128,100,85727,1,0,0:0:0:0:
128,100,85860,2,0,B|164:68|164:68|252:68,1,135
296,128,86391,2,0,B|382:128|382:128|418:96,1,135
472,44,86922,1,0,0:0:0:0:
472,44,87054,1,10,0:0:0:0:
472,192,87320,1,0,0:0:0:0:
472,340,87585,5,4,0:0:0:0:
336,252,87983,1,0,0:0:0:0:
176,252,88382,1,0,0:0:0:0:
40,340,88780,1,8,0:0:0:0:
256,340,89178,5,10,0:0:0:0:
256,232,89444,1,0,0:0:0:0:
256,232,89576,1,0,0:0:0:0:
256,232,89709,6,0,L|256:92,1,135,4|0,0:0|2:0,0:0:0:0:
256,97,90240,1,0,0:0:0:0:
348,40,90506,1,0,0:0:0:0:
379,37,90638,1,0,0:0:0:0:
410,42,90771,1,0,0:0:0:0:
439,54,90904,1,0,0:0:0:0:
464,72,91036,1,0,0:0:0:0:
412,192,91302,1,4,0:0:0:0:
464,312,91568,1,0,0:0:0:0:
464,312,91700,1,0,0:0:0:0:
464,312,91833,6,0,P|416:304|336:352,1,135,4|0,1:0|0:0,0:0:0:0:
256,352,92364,2,0,L|236:264,1,90,8|2,0:0|0:0,0:0:0:0:
208,148,92895,1,8,0:0:0:0:
140,232,93160,1,2,0:0:0:0:
140,232,93293,1,0,0:0:0:0:
140,232,93426,1,8,0:0:0:0:
112,128,93691,1,2,0:0:0:0:
264,200,93957,6,0,P|284:140|252:80,1,135,8|0,0:0|0:0,0:0:0:0:
344,56,94488,2,0,L|440:48,1,90,8|0,0:0|0:0,0:0:0:0:
496,192,95019,2,0,L|396:192,1,90,8|0,0:0|0:0,0:0:0:0:
344,328,95550,2,0,L|440:336,1,90,8|2,0:0|0:0,0:0:0:0:
433,335,95948,1,0,0:0:0:0:
433,335,96081,5,8,0:0:0:0:
256,252,96346,1,2,0:0:0:0:
256,252,96479,1,0,0:0:0:0:
256,252,96612,2,0,B|204:244|204:244|116:264,1,135,8|0,0:0|0:0,0:0:0:0:
60,324,97143,2,0,P|36:276|40:228,1,90,8|0,0:0|0:0,0:0:0:0:
128,88,97674,2,0,P|126:132|104:171,1,90,8|0,0:0|0:0,0:0:0:0:
256,84,98205,6,0,B|300:72|300:72|352:88,1,90,8|2,0:0|0:0,0:0:0:0:
384,160,98603,1,0,0:0:0:0:
384,160,98736,2,0,L|476:112,1,90,8|2,0:0|0:0,0:0:0:0:
476,216,99134,1,0,0:0:0:0:
476,216,99267,2,0,B|488:260|488:260|474:302,1,90,8|0,0:0|0:0,0:0:0:0:
404,344,99665,1,8,0:0:0:0:
380,324,99798,1,2,0:0:0:0:
356,304,99930,1,0,0:0:0:0:
332,284,100063,1,10,0:0:0:0:
308,264,100196,1,0,0:0:0:0:
284,244,100329,6,0,P|232:244|164:304,1,135,12|0,0:0|0:0,0:0:0:0:
104,348,100860,2,0,L|44:280,1,90,8|2,0:0|0:0,0:0:0:0:
44,172,101391,1,8,0:0:0:0:
124,100,101656,1,2,0:0:0:0:
124,100,101789,2,0,P|192:101|240:61,1,135,0|2,0:0|0:0,0:0:0:0:
344,94,102453,6,0,B|392:148|392:148|456:148,1,135,8|0,0:0|0:0,0:0:0:0:
484,232,102983,2,0,L|388:232,1,90,8|0,0:0|0:0,0:0:0:0:
332,320,103514,2,0,L|472:320,2,135,8|2|8,0:0|0:0|0:0,0:0:0:0:
256,236,104576,6,0,P|204:232|128:296,1,135,8|0,0:0|0:0,0:0:0:0:
224,320,105107,1,8,0:0:0:0:
144,160,105373,1,2,0:0:0:0:
144,160,105506,1,0,0:0:0:0:
144,160,105638,2,0,L|172:68,1,90,8|2,0:0|0:0,0:0:0:0:
244,64,106037,2,0,P|284:64|372:20,1,135,0|2,0:0|0:0,0:0:0:0:
436,72,106568,1,0,0:0:0:0:
436,72,106700,6,0,P|452:116|448:148,1,45,8|0,0:0|0:0,0:0:0:0:
376,216,106966,2,0,P|378:186|388:160,1,45,2|0,0:0|0:0,0:0:0:0:
452,216,107231,1,8,0:0:0:0:
490,317,107497,1,0,0:0:0:0:
384,300,107762,2,0,P|336:292|256:336,1,135,8|0,0:0|0:0,0:0:0:0:
172,316,108293,2,0,L|104:224,1,90,8|8,0:0|0:0,0:0:0:0:
118,243,108691,1,0,0:0:0:0:
118,243,108824,5,4,0:0:0:0:
52,156,109090,1,0,0:0:0:0:
52,156,109222,2,0,P|80:112|156:112,1,135
256,156,109886,2,0,L|296:72,1,90,2|0,0:0|0:0,0:0:0:0:
380,220,110417,2,0,L|340:304,1,90
256,372,110948,2,0,B|192:372|192:340|124:340,2,135,2|0|0,0:0|0:0|0:0,0:0:0:0:
341,301,112010,2,0,P|432:300|480:232,1,180,2|0,0:0|0:0,0:0:0:0:
360,88,112806,1,0,0:0:0:0:
360,88,112939,1,0,0:0:0:0:
360,88,113072,6,0,L|296:24,1,90,2|0,0:0|0:0,0:0:0:0:
216,24,113470,2,0,L|152:88,1,90
152,87,113868,1,0,0:0:0:0:
32,192,114134,1,2,0:0:0:0:
152,296,114399,1,0,0:0:0:0:
272,192,114665,1,0,0:0:0:0:
152,87,114930,1,0,0:0:0:0:
152,296,115196,2,0,P|220:296|268:340,2,135,2|0|0,0:0|0:0|0:0,0:0:0:0:
60,356,116258,2,0,L|148:196,1,180,2|0,0:0|0:0,0:0:0:0:
248,32,117054,1,0,0:0:0:0:
248,32,117187,1,0,0:0:0:0:
248,32,117320,6,0,P|292:32|332:52,1,90,4|0,0:0|0:0,0:0:0:0:
328,136,117718,2,0,P|260:136|200:100,1,135
144,56,118249,1,0,0:0:0:0:
144,56,118382,2,0,L|68:112,1,90,2|0,0:0|0:0,0:0:0:0:
36,336,118913,2,0,L|112:280,1,90
196,220,119444,2,0,P|240:220|276:248,1,90,2|0,0:0|0:0,0:0:0:0:
332,304,119842,2,0,B|368:332|368:332|460:332,1,135
508,236,120506,2,0,P|460:160|508:92,1,180,2|0,0:0|0:0,0:0:0:0:
356,16,121302,1,0,0:0:0:0:
356,16,121435,1,0,0:0:0:0:
356,16,121568,6,0,L|296:88,1,90,8|0,0:0|0:0,0:0:0:0:
232,44,121966,2,0,L|140:144,1,135
76,100,122497,1,0,0:0:0:0:
76,100,122630,2,0,P|32:100|-4:128,1,90,8|0,0:0|0:0,0:0:0:0:
76,328,123160,2,0,P|120:328|156:300,1,90
256,256,123691,5,8,0:0:0:0:
356,301,123957,1,0,0:0:0:0:
356,301,124090,1,0,0:0:0:0:
356,301,124222,2,0,P|416:360|496:324,1,180,8|8,0:0|0:0,0:0:0:0:
456,196,125019,1,0,0:0:0:0:
456,196,125152,1,8,0:0:0:0:
456,196,125284,2,0,L|432:288,1,90,8|8,0:0|0:0,0:0:0:0:
480,104,125815,6,0,B|420:104|420:104|360:48,1,135,12|0,0:0|0:0,0:0:0:0:
256,68,126346,2,0,L|332:140,1,90,8|0,0:0|0:0,0:0:0:0:
256,252,126877,2,0,P|200:244|120:296,1,135,8|0,0:0|0:0,0:0:0:0:
208,324,127408,1,8,0:0:0:0:
160,172,127674,1,0,0:0:0:0:
320,192,127939,6,0,B|352:216|352:260|352:260|376:248|416:260,2,135,8|0|0,0:0|0:0|0:0,0:0:0:0:
392,336,129001,2,0,L|440:132,1,180,8|10,0:0|0:0,0:0:0:0:
456,56,129798,1,0,0:0:0:0:
256,92,130063,6,0,P|204:88|160:112,1,90,8|2,0:0|0:0,0:0:0:0:
136,184,130461,2,0,P|188:188|232:164,1,90
256,92,130860,1,2,0:0:0:0:
256,304,131125,2,0,L|356:328,1,90,8|2,0:0|0:0,0:0:0:0:
432,260,131523,2,0,L|344:238,1,90
328,144,131922,1,2,0:0:0:0:
328,144,132187,6,0,L|464:168,1,135,8|0,0:0|0:0,0:0:0:0:
356,64,132718,2,0,P|296:68|264:104,1,90,10|0,0:0|0:0,0:0:0:0:
184,164,133249,1,8,0:0:0:0:
156,148,133382,1,0,0:0:0:0:
128,132,133514,1,0,0:0:0:0:
100,116,133647,1,8,0:0:0:0:
72,100,133780,2,0,L|32:76,1,45,10|0,0:0|0:0,0:0:0:0:
4,192,134045,2,0,L|48:192,1,45,8|0,0:0|0:0,0:0:0:0:
120,268,134311,6,0,P|108:328|48:368,1,135,12|0,0:0|0:0,0:0:0:0:
212,328,134842,2,0,P|226:263|282:228,1,135,8|0,0:0|0:0,0:0:0:0:
304,320,135373,2,0,L|436:368,2,135,8|0|0,0:0|0:0|0:0,0:0:0:0:
409,182,136435,6,0,B|428:144|384:96|413:41,1,135,8|0,0:0|0:0,0:0:0:0:
484,92,136966,1,8,0:0:0:0:
336,152,137231,1,0,0:0:0:0:
336,152,137364,1,0,0:0:0:0:
336,152,137497,2,0,L|236:144,1,90,8|0,0:0|0:0,0:0:0:0:
200,72,137895,1,0,0:0:0:0:
200,72,138028,2,0,B|152:64|152:64|100:80,1,90,10|8,0:0|0:0,0:0:0:0:
48,192,138559,6,0,B|72:244|72:244|72:328,1,135,12|0,0:0|0:0,0:0:0:0:
156,344,139090,2,0,L|156:248,1,90,8|0,0:0|0:0,0:0:0:0:
256,192,139621,2,0,B|304:192|304:192|340:212|340:212|396:212,1,135,8|0,0:0|0:0,0:0:0:0:
472,212,140152,1,8,0:0:0:0:
360,112,140417,1,8,0:0:0:0:
360,112,140550,1,0,0:0:0:0:
360,112,140683,6,0,P|360:60|440:36,2,135,12|0|0,0:0|0:0|0:0,0:0:0:0:
152,112,141745,2,0,P|152:60|72:36,1,135,8|0,0:0|0:0,0:0:0:0:
24,96,142276,1,10,0:0:0:0:
120,192,142541,1,8,0:0:0:0:
120,192,142674,1,0,0:0:0:0:
120,192,142806,6,0,L|84:328,1,135,2|0,0:0|0:0,0:0:0:0:
184,320,143337,2,0,L|208:216,1,90,2|0,0:0|0:0,0:0:0:0:
328,320,143868,2,0,L|304:216,1,90,8|0,0:0|0:0,0:0:0:0:
292,152,144267,1,0,0:0:0:0:
292,152,144399,1,8,1:1:0:0:
436,192,144665,1,8,0:0:0:0:
436,192,144798,1,0,0:0:0:0:
436,192,144930,6,0,L|412:80,1,90,4|0,0:0|0:0,0:0:0:0:
273,63,145461,2,0,L|297:175,1,90
308,228,145860,2,0,P|252:268|192:252,1,135
124,224,146391,1,0,0:0:0:0:
124,224,146523,2,0,P|92:256|92:300,1,90,10|0,0:0|0:0,0:0:0:0:
308,228,147054,6,0,P|340:196|340:152,1,90,4|0,0:0|0:0,0:0:0:0:
312,84,147453,1,0,0:0:0:0:
312,84,147585,1,0,0:0:0:0:
220,28,147851,1,0,0:0:0:0:
220,28,147983,2,0,P|148:28|104:68,1,135
32,148,148647,1,10,0:0:0:0:
124,328,148913,1,0,0:0:0:0:
124,328,149045,1,0,0:0:0:0:
124,328,149178,6,0,B|168:328|168:328|208:352,1,90,4|0,0:0|0:0,0:0:0:0:
388,328,149709,2,0,B|344:328|344:328|304:352,1,90
256,292,150107,2,0,L|256:152,1,135
256,157,150638,1,0,0:0:0:0:
256,157,150771,1,10,0:0:0:0:
256,28,151037,1,0,0:0:0:0:
168,92,151302,5,4,0:0:0:0:
344,92,151568,1,0,0:0:0:0:
344,92,151700,1,0,0:0:0:0:
344,92,151833,2,0,P|388:92|424:120,1,90,2|0,0:0|0:0,0:0:0:0:
488,208,152364,1,0,0:0:0:0:
473,235,152496,1,8,0:0:0:0:
451,258,152629,1,0,0:0:0:0:
424,273,152762,1,0,0:0:0:0:
393,280,152894,1,10,0:0:0:0:
256,192,153160,1,0,0:0:0:0:
256,192,153293,1,0,0:0:0:0:
256,192,153426,6,0,L|204:276,1,90,4|0,0:0|0:0,0:0:0:0:
56,140,153957,2,0,L|108:56,1,90
172,36,154355,2,0,B|216:36|216:36|248:56|248:56|304:56,1,135
376,60,154886,1,0,0:0:0:0:
376,60,155019,2,0,P|420:60|456:88,1,90,10|0,0:0|0:0,0:0:0:0:
400,244,155550,6,0,P|356:244|320:216,1,90,4|0,0:0|0:0,0:0:0:0:
256,176,155948,1,0,0:0:0:0:
256,176,156081,2,0,L|208:260,1,90
128,236,156479,2,0,L|196:120,1,135
248,24,157143,1,10,0:0:0:0:
416,112,157408,1,0,0:0:0:0:
416,112,157541,1,0,0:0:0:0:
416,112,157674,6,0,L|504:156,1,90,4|0,0:0|0:0,0:0:0:0:
496,231,158072,2,0,L|376:292,1,135
308,320,158603,1,0,0:0:0:0:
308,320,158736,2,0,P|264:320|224:344,1,90,2|0,0:0|0:0,0:0:0:0:
28,312,159267,2,0,P|72:312|112:288,1,90,10|0,0:0|0:0,0:0:0:0:
52,236,159665,1,0,0:0:0:0:
52,236,159798,6,0,L|24:144,1,90,4|0,0:0|0:0,0:0:0:0:
25,149,160196,1,0,0:0:0:0:
25,149,160329,1,0,0:0:0:0:
100,72,160594,1,0,0:0:0:0:
188,136,160860,1,4,0:0:0:0:
216,148,160992,1,8,0:0:0:0:
247,151,161125,1,0,0:0:0:0:
278,144,161258,1,0,0:0:0:0:
304,127,161390,1,10,0:0:0:0:
452,88,161656,1,0,0:0:0:0:
452,88,161789,1,0,0:0:0:0:
452,88,161922,6,0,P|468:136|468:176,1,90,4|0,0:0|0:0,0:0:0:0:
404,284,162453,2,0,P|356:284|324:312,1,90
256,352,162851,1,0,0:0:0:0:
256,352,162983,2,0,L|204:272,1,90,2|0,0:0|0:0,0:0:0:0:
132,308,163382,1,0,0:0:0:0:
132,308,163514,2,0,L|80:228,1,90,10|0,0:0|0:0,0:0:0:0:
24,140,164045,5,4,0:0:0:0:
124,96,164311,2,0,P|172:96|208:72,1,90
300,24,164842,1,0,0:0:0:0:
300,24,164975,2,0,B|355:70|355:70|419:70,1,135
460,168,165638,1,10,0:0:0:0:
312,320,165904,5,0,0:0:0:0:
312,320,166037,1,0,0:0:0:0:
312,320,166169,2,0,P|256:292|192:320,1,135,4|0,0:0|2:0,0:0:0:0:
208,224,166700,2,0,P|256:216|296:224,1,90
376,240,167099,1,0,0:0:0:0:
376,240,167231,2,0,L|404:152,1,90,2|0,0:0|0:0,0:0:0:0:
256,44,167762,2,0,L|256:136,1,90,10|0,0:0|0:0,0:0:0:0:
176,136,168160,1,0,0:0:0:0:
176,136,168293,6,0,B|120:152|92:112|36:128,1,135,4|0,0:0|2:0,0:0:0:0:
56,212,168824,2,0,B|40:256|40:256|48:304,1,90,2|0,0:0|0:0,0:0:0:0:
136,356,169355,1,0,0:0:0:0:
160,336,169488,1,8,0:0:0:0:
184,316,169621,1,0,0:0:0:0:
208,296,169753,1,0,0:0:0:0:
232,276,169886,1,10,0:0:0:0:
340,192,170152,1,0,0:0:0:0:
340,192,170284,1,0,0:0:0:0:
340,192,170417,6,0,B|388:192|388:192|428:212,1,90,4|0,0:0|0:0,0:0:0:0:
340,80,170948,2,0,B|292:80|292:80|254:61,1,90
176,28,171346,1,0,0:0:0:0:
176,28,171479,2,0,L|120:104,1,90,2|0,0:0|0:0,0:0:0:0:
184,172,171877,1,0,0:0:0:0:
184,172,172010,2,0,L|130:244,1,90,10|0,0:0|0:0,0:0:0:0:
256,336,172541,6,0,P|308:324|392:352,1,135,4|0,0:0|2:0,0:0:0:0:
440,280,173072,2,0,P|456:236|448:184,1,90
484,72,173603,2,0,B|452:112|452:112|408:124|408:124|368:168,1,135,0|0,0:0|2:0,0:0:0:0:
336,84,174134,2,0,L|264:160,1,90,10|0,0:0|0:0,0:0:0:0:
208,192,174532,1,0,0:0:0:0:
208,192,174665,6,0,P|180:152|92:128,1,135,4|0,0:0|2:0,0:0:0:0:
120,216,175196,2,0,L|92:312,1,90
256,352,175727,1,2,0:0:0:0:
256,352,175860,2,0,P|300:352|344:316,1,90
360,248,176258,2,0,P|316:248|272:284,1,90,10|0,0:0|0:0,0:0:0:0:
444,276,176789,6,0,L|344:108,1,180,4|0,0:0|0:0,0:0:0:0:
256,32,177585,1,0,0:0:0:0:
184,128,177851,1,0,0:0:0:0:
184,128,177983,1,8,0:0:0:0:
184,128,178116,2,0,L|132:116,1,45
48,192,178382,2,0,L|100:192,1,45,10|0,0:0|0:0,0:0:0:0:
184,256,178647,2,0,L|132:268,1,45
216,336,178913,6,0,B|256:336|256:336|312:360,1,90,4|0,0:0|0:0,0:0:0:0:
376,320,179311,1,0,0:0:0:0:
376,320,179444,2,0,P|396:280|388:224,1,90
392,148,179842,1,0,0:0:0:0:
392,148,179975,2,0,L|404:96,1,45,0|8,0:0|0:0,0:0:0:0:
312,40,180240,2,0,L|312:88,1,45
232,136,180506,2,0,L|221:92,1,45,8|0,0:0|0:0,0:0:0:0:
144,64,180771,1,0,0:0:0:0:
112,60,180904,1,0,0:0:0:0:
80,56,181037,6,0,B|64:116|64:116|88:156|88:156|72:228,1,180,4|0,0:0|0:0,0:0:0:0:
48,332,181833,1,0,0:0:0:0:
72,343,181965,1,0,0:0:0:0:
98,351,182098,1,0,0:0:0:0:
125,353,182231,1,0,0:0:0:0:
151,350,182363,1,0,0:0:0:0:
177,342,182496,1,0,0:0:0:0:
201,330,182629,1,10,0:0:0:0:
310,330,182895,1,0,0:0:0:0:
400,276,183160,6,0,B|400:220|428:192|428:192|400:156|400:109,1,180,4|0,0:0|0:0,0:0:0:0:
310,54,183957,1,0,0:0:0:0:
310,54,184090,1,0,0:0:0:0:
310,54,184222,2,0,P|264:52|228:76,1,90
16,168,184753,2,0,P|62:170|98:146,1,90,10|0,0:0|0:0,0:0:0:0:
11,42,185284,6,0,L|103:154,1,135,4|0,0:0|0:0,0:0:0:0:
148,204,185815,1,0,0:0:0:0:
164,218,185947,1,0,0:0:0:0:
185,228,186080,1,0,0:0:0:0:
207,232,186213,1,0,0:0:0:0:
229,229,186345,1,0,0:0:0:0:
336,204,186612,1,0,0:0:0:0:
336,204,186745,1,0,0:0:0:0:
336,204,186877,2,0,L|368:288,1,90,10|0,0:0|0:0,0:0:0:0:
436,172,187408,6,0,L|388:40,2,135,4|0|0,0:0|0:0|0:0,0:0:0:0:
368,288,188470,1,0,0:0:0:0:
368,288,188603,1,8,0:0:0:0:
256,192,188868,1,0,0:0:0:0:
256,192,189001,1,10,0:0:0:0:
144,288,189267,1,0,0:0:0:0:
144,288,189399,1,0,0:0:0:0:
144,288,189532,6,0,P|100:244|108:176,2,135,4|0|0,0:0|0:0|0:0,0:0:0:0:
256,192,190594,1,0,0:0:0:0:
368,288,190860,1,0,0:0:0:0:
391,274,190992,1,0,0:0:0:0:
410,255,191125,1,10,0:0:0:0:
424,232,191258,1,0,0:0:0:0:
433,207,191390,1,0,0:0:0:0:
435,180,191523,1,0,0:0:0:0:
432,152,191656,6,0,B|396:124|396:124|304:124,2,135,4|0|0,0:0|0:0|0:0,0:0:0:0:
248,193,192718,2,0,L|308:121,1,90
305,123,193116,1,0,0:0:0:0:
305,123,193249,1,10,0:0:0:0:
220,56,193514,1,0,0:0:0:0:
76,120,193780,6,0,B|36:144|24:192|24:192|36:232|76:264,1,180,4|0,0:0|0:0,0:0:0:0:
148,344,194576,1,0,0:0:0:0:
164,328,194709,1,0,0:0:0:0:
180,312,194842,1,0,0:0:0:0:
256,192,195107,1,0,0:0:0:0:
256,216,195240,1,0,0:0:0:0:
256,240,195373,1,10,0:0:0:0:
364,344,195638,1,0,0:0:0:0:
472,240,195904,6,0,P|436:184|472:136,1,135,4|0,0:0|0:0,0:0:0:0:
472,135,196435,2,0,L|416:60,1,90
316,32,196966,2,0,B|260:32|260:32|256:28|256:28|256:36|256:36|252:32|252:32|188:32,1,135,4|0,0:0|0:0,0:0:0:0:
192,32,197497,1,10,0:0:0:0:
108,96,197762,1,0,0:0:0:0:
192,164,198028,5,2,0:0:0:0:
108,232,198293,1,8,0:0:0:0:
124,252,198426,2,0,B|160:284|160:284|200:284|200:284|236:252,1,135,0|8,0:0|0:0,0:0:0:0:
296,300,198957,1,0,0:0:0:0:
296,300,199090,2,8,L|324:324,8,22.5
424,192,199886,1,2,0:0:0:0:
424,192,200019,1,0,0:0:0:0:
424,192,200152,6,0,P|440:136|432:96,1,90,4|0,0:0|0:0,0:0:0:0:
328,68,200683,1,0,0:0:0:0:
196,68,200948,1,0,0:0:0:0:
196,68,201081,1,0,0:0:0:0:
196,68,201214,1,2,0:0:0:0:
84,136,201479,1,0,0:0:0:0:
84,136,201612,1,0,0:0:0:0:
84,136,201745,2,0,L|52:240,1,90,2|0,0:0|0:0,0:0:0:0:
32,304,202143,1,0,0:0:0:0:
32,304,202276,6,0,B|88:328|140:272|224:288,1,180,2|0,0:0|0:0,0:0:0:0:
256,184,203072,1,0,0:0:0:0:
303,285,203337,2,0,B|372:272|424:328|480:304,1,180,0|2,0:0|0:0,0:0:0:0:
448,192,204134,1,0,0:0:0:0:
448,192,204267,1,0,0:0:0:0:
448,192,204399,6,0,L|476:92,1,90,4|0,0:0|0:0,0:0:0:0:
424,44,204798,1,0,0:0:0:0:
424,44,204930,2,0,B|356:44|356:44|312:28|312:28|236:28,1,180,0|2,0:0|0:0,0:0:0:0:
120,80,205727,1,0,0:0:0:0:
120,80,205860,1,0,0:0:0:0:
120,80,205992,2,0,P|96:140|152:212,1,135,2|0,0:0|0:0,0:0:0:0:
168,136,206523,6,0,B|212:160|252:120|304:136,2,135,4|2|0,0:0|0:0|0:0,0:0:0:0:
152,276,207585,2,0,B|203:243|261:323|327:287,1,180,2|2,0:0|0:0,0:0:0:0:
420,192,208382,1,8,0:0:0:0:
420,192,208514,1,0,0:0:0:0:
420,192,208647,6,0,L|448:100,1,90,12|0,0:0|0:0,0:0:0:0:
384,48,209045,1,0,0:0:0:0:
384,48,209178,2,0,L|336:180,2,135,0|2|0,0:0|0:0|0:0,0:0:0:0:
256,28,210240,1,2,0:0:0:0:
152,108,210506,1,8,0:0:0:0:
152,108,210638,1,0,0:0:0:0:
152,108,210771,6,0,B|152:176|152:176|112:192|88:248,1,135,12|0,0:0|0:0,0:0:0:0:
176,256,211302,2,0,B|224:240|224:240|272:264,1,90
259,257,211700,1,0,0:0:0:0:
259,257,211833,1,0,0:0:0:0:
368,192,212099,1,0,0:0:0:0:
384,304,212364,1,2,0:0:0:0:
256,152,212630,1,8,0:0:0:0:
256,152,212762,1,0,0:0:0:0:
256,152,212895,6,0,L|256:56,1,90,12|0,0:0|0:0,0:0:0:0:
144,192,213426,2,0,L|120:100,1,90
368,192,213957,2,0,L|403:56,1,135,10|0,0:0|0:0,0:0:0:0:
468,132,214488,2,0,L|440:232,1,90,2|0,0:0|0:0,0:0:0:0:
348,288,215019,6,0,L|320:332,1,45,12|0,0:0|0:0,0:0:0:0:
256,240,215284,2,0,L|256:292,1,45
164,288,215550,2,0,L|192:332,1,45,8|0,0:0|0:0,0:0:0:0:
88,328,215815,1,0,0:0:0:0:
68,304,215948,1,0,0:0:0:0:
48,276,216081,6,0,L|24:236,1,45,12|0,0:0|0:0,0:0:0:0:
136,192,216346,2,0,L|88:192,1,45,0|8,0:0|0:0,0:0:0:0:
48,108,216612,2,0,L|24:148,1,45,12|0,0:0|0:0,0:0:0:0:
148,100,216877,1,8,0:0:0:0:
148,100,217010,1,0,0:0:0:0:
148,100,217143,5,4,0:0:0:0:
256,40,217408,1,0,0:0:0:0:
256,40,217541,1,0,0:0:0:0:
256,40,217674,2,0,P|304:40|336:64,1,90
280,108,218072,2,0,B|308:144|348:144|348:144|404:144,1,135
476,144,218603,1,0,0:0:0:0:
476,144,218736,2,0,L|448:232,1,90,10|0,0:0|0:0,0:0:0:0:
368,348,219267,6,0,L|340:260,1,90,4|0,0:0|0:0,0:0:0:0:
304,160,219798,1,0,0:0:0:0:
264,60,220063,1,0,0:0:0:0:
264,60,220196,2,0,P|200:60|152:108,1,135
84,192,220860,1,10,0:0:0:0:
224,340,221125,1,0,0:0:0:0:
224,340,221258,1,0,0:0:0:0:
224,340,221391,6,0,B|268:340|268:340|304:312,1,90,4|0,0:0|0:0,0:0:0:0:
388,244,221922,1,0,0:0:0:0:
472,176,222187,1,0,0:0:0:0:
472,176,222320,2,0,B|472:108|472:108|428:56,1,135
376,12,222851,1,0,0:0:0:0:
376,12,222983,2,0,L|312:80,1,90,10|0,0:0|0:0,0:0:0:0:
136,12,223514,6,0,L|200:80,1,90,4|0,0:0|0:0,0:0:0:0:
256,124,223913,2,0,L|256:264,1,135
176,332,224576,1,0,0:0:0:0:
144,335,224708,1,8,0:0:0:0:
114,329,224841,1,0,0:0:0:0:
86,314,224974,1,0,0:0:0:0:
65,292,225106,1,10,0:0:0:0:
16,156,225373,1,0,0:0:0:0:
16,156,225506,1,0,0:0:0:0:
16,156,225638,6,0,P|60:156|96:128,1,90,4|0,0:0|0:0,0:0:0:0:
256,40,226169,2,0,P|212:40|176:68,1,90
172,140,226568,2,0,B|212:180|212:180|232:176|232:176|280:212,1,135
340,256,227099,1,0,0:0:0:0:
340,256,227231,2,0,P|388:256|420:232,1,90,10|0,0:0|0:0,0:0:0:0:
344,48,227762,6,0,P|296:48|264:72,1,90,4|0,0:0|0:0,0:0:0:0:
340,148,228293,1,0,0:0:0:0:
263,72,228559,1,0,0:0:0:0:
263,72,228691,2,0,B|196:72|196:36|132:36,1,135
80,84,229222,1,0,0:0:0:0:
80,84,229355,1,10,0:0:0:0:
16,192,229621,1,0,0:0:0:0:
80,300,229886,6,0,B|128:300|128:300|160:328,1,90,4|0,0:0|0:0,0:0:0:0:
224,360,230284,2,0,P|284:360|340:312,1,135
384,256,230815,1,0,0:0:0:0:
384,256,230948,1,2,0:0:0:0:
384,128,231214,1,0,0:0:0:0:
384,128,231346,1,0,0:0:0:0:
384,128,231479,1,10,0:0:0:0:
344,28,231745,1,0,0:0:0:0:
256,88,232010,5,4,0:0:0:0:
112,164,232408,1,0,0:0:0:0:
176,312,232806,1,0,0:0:0:0:
336,312,233205,1,8,0:0:0:0:
400,164,233603,1,10,0:0:0:0:
256,192,233868,1,0,0:0:0:0:
256,192,234001,1,0,0:0:0:0:
256,192,234134,5,4,0:0:0:0:
184,88,234399,2,0,B|232:88|256:42|256:42|284:88|328:88,1,180
400,88,235063,1,0,0:0:0:0:
426,86,235195,1,0,0:0:0:0:
453,90,235328,1,8,0:0:0:0:
478,99,235461,1,0,0:0:0:0:
512,202,235727,1,10,0:0:0:0:
408,232,235992,1,0,0:0:0:0:
408,232,236125,1,0,0:0:0:0:
408,232,236258,6,0,P|412:276|392:324,1,90,4|0,0:0|0:0,0:0:0:0:
336,260,236656,1,0,0:0:0:0:
336,260,236789,2,0,B|288:260|288:260|248:292,1,90
256,104,237320,2,0,B|304:104|304:104|344:72,1,90,2|0,0:0|0:0,0:0:0:0:
336,77,237718,1,0,0:0:0:0:
336,77,237851,1,10,0:0:0:0:
148,56,238116,1,0,0:0:0:0:
148,56,238249,1,0,0:0:0:0:
148,56,238382,6,0,P|124:104|144:188,1,135,4|0,0:0|2:0,0:0:0:0:
184,252,238913,2,0,B|184:304|184:304|144:344,1,90,0|0,0:0|2:0,0:0:0:0:
328,252,239444,2,0,B|328:304|328:304|368:344,1,90,0|0,0:0|2:0,0:0:0:0:
256,288,239975,2,0,L|256:192,1,90,10|0,0:0|0:0,0:0:0:0:
256,120,240373,1,0,0:0:0:0:
256,120,240506,6,0,B|308:144|364:80|452:100,1,180,4|0,0:0|0:0,0:0:0:0:
452,192,241302,1,0,0:0:0:0:
400,288,241568,2,0,P|352:284|308:328,1,90,2|0,0:0|0:0,0:0:0:0:
252,352,241966,1,0,0:0:0:0:
252,352,242099,2,0,P|209:364|168:347,1,90,10|0,0:0|0:0,0:0:0:0:
256,252,242630,6,0,B|236:208|268:172|256:112,2,135,4|0|0,0:0|0:0|0:0,0:0:0:0:
284,52,243691,1,0,0:0:0:0:
252,44,243824,1,8,0:0:0:0:
220,52,243957,1,0,0:0:0:0:
196,72,244090,1,0,0:0:0:0:
184,100,244222,1,10,0:0:0:0:
76,192,244488,1,0,0:0:0:0:
76,192,244621,1,0,0:0:0:0:
76,192,244753,6,0,P|76:240|32:272,1,90,4|0,0:0|0:0,0:0:0:0:
88,344,245152,1,0,0:0:0:0:
88,344,245284,2,0,L|176:296,1,90
256,236,245815,1,2,0:0:0:0:
344,300,246081,1,0,0:0:0:0:
344,300,246214,1,0,0:0:0:0:
344,300,246346,2,0,B|388:300|388:300|440:332,1,90,10|0,0:0|0:0,0:0:0:0:
456,192,246877,6,0,B|468:152|456:112|456:112|480:88|480:56,1,135,4|0,0:0|2:0,0:0:0:0:
404,60,247408,2,0,B|360:44|360:44|308:60,1,90
268,116,247806,1,0,0:0:0:0:
268,116,247939,2,0,B|312:132|312:132|364:116,1,90
184,44,248470,1,10,0:0:0:0:
76,104,248736,1,0,0:0:0:0:
76,104,248868,1,0,0:0:0:0:
76,104,249001,6,0,L|32:240,1,135,4|0,0:0|2:0,0:0:0:0:
112,256,249532,2,0,L|140:160,1,90
256,248,250063,2,0,B|328:248|328:248|344:276|392:296,1,135,2|0,0:0|2:0,0:0:0:0:
400,212,250594,2,0,B|416:168|416:168|396:112,1,90,10|0,0:0|0:0,0:0:0:0:
304,48,251125,6,0,B|255:64|220:25|150:41,1,135,4|0,0:0|2:0,0:0:0:0:
180,120,251656,2,0,P|128:116|84:140,1,90
144,208,252054,1,0,0:0:0:0:
144,208,252187,2,0,L|132:260,1,45,4|0,0:0|0:0,0:0:0:0:
208,332,252453,2,0,L|208:276,1,45
280,212,252718,2,0,L|292:264,1,45,8|0,0:0|0:0,0:0:0:0:
372,192,252983,1,0,0:0:0:0:
388,164,253116,1,0,0:0:0:0:
404,136,253249,5,4,0:0:0:0:
308,92,253514,1,0,0:0:0:0:
308,92,253647,1,0,0:0:0:0:
308,92,253780,2,0,L|220:60,1,90
192,124,254178,2,0,L|64:76,1,135
36,144,254709,1,0,0:0:0:0:
36,144,254842,1,10,0:0:0:0:
4,248,255107,1,0,0:0:0:0:
108,276,255373,6,0,P|152:276|188:304,1,90,4|0,0:0|0:0,0:0:0:0:
404,276,255904,2,0,P|360:276|324:304,1,90
256,272,256302,2,0,L|256:132,1,135
256,28,256966,1,10,0:0:0:0:
348,84,257231,1,0,0:0:0:0:
348,84,257364,1,0,0:0:0:0:
348,84,257497,6,0,P|392:84|428:112,1,90,4|0,0:0|0:0,0:0:0:0:
163,83,258028,2,0,P|119:84|84:110,1,90
144,152,258426,2,0,L|196:280,1,135
224,348,258957,1,0,0:0:0:0:
224,348,259090,2,0,P|268:348|304:320,1,90,10|0,0:0|0:0,0:0:0:0:
392,164,259621,6,0,P|448:164|512:208,2,135,4|0|0,0:0|0:0|0:0,0:0:0:0:
288,136,260683,1,0,0:0:0:0:
258,126,260815,1,8,0:0:0:0:
232,108,260948,1,0,0:0:0:0:
213,83,261081,1,0,0:0:0:0:
201,54,261213,1,10,0:0:0:0:
44,80,261479,1,0,0:0:0:0:
44,80,261612,1,0,0:0:0:0:
44,80,261745,6,0,L|56:176,1,90,4|0,0:0|0:0,0:0:0:0:
132,344,262276,2,0,L|144:248,1,90
152,184,262674,2,0,P|216:184|264:232,1,135
288,300,263205,1,0,0:0:0:0:
288,300,263337,1,10,0:0:0:0:
388,340,263603,1,0,0:0:0:0:
488,300,263868,5,4,0:0:0:0:
488,192,264134,1,0,0:0:0:0:
388,152,264399,1,0,0:0:0:0:
288,188,264665,1,0,0:0:0:0:
288,188,264798,2,0,B|220:188|220:188|164:152,1,135
100,108,265329,1,0,0:0:0:0:
100,108,265461,2,0,L|40:180,1,90,10|0,0:0|0:0,0:0:0:0:
284,188,265992,6,0,L|344:116,1,90,4|0,0:0|0:0,0:0:0:0:
312,52,266391,2,0,P|380:56|416:108,1,135
500,192,267054,1,2,0:0:0:0:
415,277,267320,1,0,0:0:0:0:
415,277,267453,1,0,0:0:0:0:
415,277,267585,2,0,P|368:276|336:304,1,90,10|0,0:0|0:0,0:0:0:0:
256,376,268116,6,0,B|208:376|208:376|176:356|176:356|124:356,2,135,4|0|0,0:0|0:0|0:0,0:0:0:0:
336,302,269178,1,0,0:0:0:0:
336,302,269311,1,8,0:0:0:0:
176,160,269576,1,0,0:0:0:0:
176,160,269709,1,10,0:0:0:0:
96,232,269975,1,0,0:0:0:0:
256,90,270240,5,4,0:0:0:0:
44,36,270506,2,0,L|180:164,1,180
132,216,271169,1,0,0:0:0:0:
122,241,271301,1,0,0:0:0:0:
120,268,271434,1,8,0:0:0:0:
124,294,271567,1,0,0:0:0:0:
180,384,271833,1,10,0:0:0:0:
256,308,272099,1,0,0:0:0:0:
256,308,272231,1,0,0:0:0:0:
256,308,272364,6,0,P|304:308|348:344,1,90,4|0,0:0|0:0,0:0:0:0:
408,352,272762,1,0,0:0:0:0:
408,352,272895,2,0,L|448:252,1,90
480,180,273426,1,2,0:0:0:0:
436,80,273691,1,0,0:0:0:0:
436,80,273824,1,0,0:0:0:0:
436,80,273957,2,0,P|380:80|340:36,1,90,10|0,0:0|0:0,0:0:0:0:
280,28,274355,1,0,0:0:0:0:
280,28,274488,6,0,P|268:76|236:112,1,90,4|0,0:0|0:0,0:0:0:0:
84,152,275019,2,0,P|89:107|113:69,1,90
172,144,275417,1,0,0:0:0:0:
172,144,275550,2,0,B|172:192|172:192|144:244,1,90
136,312,275948,1,0,0:0:0:0:
136,312,276081,2,0,L|232:296,1,90,10|0,0:0|0:0,0:0:0:0:
296,192,276612,6,0,B|332:192|350:222|350:222|376:192|410:192,1,135,4|0,0:0|2:0,0:0:0:0:
392,280,277143,2,0,P|351:293|308:280,1,90
184,192,277674,2,0,L|160:296,1,90
92,240,278072,1,0,0:0:0:0:
92,240,278205,2,0,L|112:152,1,90,10|0,0:0|0:0,0:0:0:0:
256,40,278736,6,0,B|300:64|348:24|400:40,1,135,4|0,0:0|2:0,0:0:0:0:
360,112,279267,2,0,B|360:160|360:160|384:200,1,90
336,296,279798,1,0,0:0:0:0:
336,296,279930,1,8,0:0:0:0:
336,296,280063,2,0,L|320:352,1,45
256,248,280329,2,0,L|256:300,1,45,10|0,0:0|0:0,0:0:0:0:
176,296,280594,2,0,L|192:352,1,45
92,296,280860,6,0,P|72:248|92:184,1,90,4|0,0:0|0:0,0:0:0:0:
124,140,281258,1,0,0:0:0:0:
124,140,281391,2,0,L|96:48,1,90
188,56,281789,1,0,0:0:0:0:
188,56,281922,2,0,P|256:40|300:56,1,90,2|0,0:0|0:0,0:0:0:0:
352,148,282453,1,10,0:0:0:0:
256,240,282718,1,0,0:0:0:0:
256,240,282851,1,0,0:0:0:0:
256,240,282983,6,0,L|340:276,1,90,4|0,0:0|0:0,0:0:0:0:
280,332,283382,1,0,0:0:0:0:
280,332,283514,2,0,L|192:296,1,90
96,192,284045,1,0,0:0:0:0:
96,192,284178,1,0,0:0:0:0:
96,192,284311,2,0,L|80:244,1,45
148,128,284576,2,0,L|92:92,1,45,10|0,0:0|0:0,0:0:0:0:
176,220,284842,2,0,L|224:192,1,45
228,116,285107,6,0,B|284:116|284:116|320:104|320:104|376:104,1,135,4|0,0:0|2:0,0:0:0:0:
436,108,285638,1,0,0:0:0:0:
412,244,285904,1,0,0:0:0:0:
412,244,286037,1,0,0:0:0:0:
412,244,286169,2,0,P|368:240|312:304,1,135,0|0,0:0|2:0,0:0:0:0:
384,312,286700,2,0,P|432:316|472:280,1,90,10|0,0:0|0:0,0:0:0:0:
356,172,287231,6,0,P|384:108|336:44,1,135,4|0,0:0|2:0,0:0:0:0:
308,112,287762,2,0,P|279:170|307:229,1,135,0|0,0:0|2:0,0:0:0:0:
372,276,288293,1,4,0:0:0:0:
216,332,288559,1,0,0:0:0:0:
216,332,288691,1,0,0:0:0:0:
216,332,288824,2,0,L|164:348,1,45,10|0,0:0|0:0,0:0:0:0:
84,276,289090,2,0,L|127:262,1,45
172,180,289355,5,4,0:0:0:0:
88,112,289621,1,0,0:0:0:0:
172,44,289886,1,0,0:0:0:0:
256,112,290152,1,0,0:0:0:0:
340,44,290417,1,0,0:0:0:0:
340,44,290550,1,0,0:0:0:0:
424,112,290815,1,0,0:0:0:0:
424,112,290948,1,10,0:0:0:0:
340,180,291214,1,0,0:0:0:0:
424,248,291479,6,0,L|372:324,1,90,4|0,0:0|0:0,0:0:0:0:
256,144,292010,2,0,L|256:44,1,90
88,248,292541,1,0,0:0:0:0:
88,248,292674,2,0,L|138:322,1,90
138,322,293072,1,10,0:0:0:0:
200,236,293337,1,0,0:0:0:0:
312,236,293603,6,0,P|340:204|340:156,1,90,4|0,0:0|0:0,0:0:0:0:
200,236,294134,2,0,P|172:204|172:156,1,90
196,52,294665,1,0,0:0:0:0:
212,72,294798,1,0,0:0:0:0:
316,52,295063,1,0,0:0:0:0:
300,72,295196,1,10,0:0:0:0:
212,192,295461,6,0,B|188:216|188:216|180:216|180:216|188:224|188:224|180:224|180:224|156:248,1,90,0|4,0:0|0:0,0:0:0:0:
256,276,295992,2,0,B|256:309|256:309|261:315|261:315|250:315|250:315|256:321|256:321|255:355,1,90
300,192,296523,2,0,B|324:216|324:216|332:216|332:216|324:224|324:224|332:224|332:224|356:248,1,90
352,244,296922,1,8,0:0:0:0:
468,192,297187,1,0,0:0:0:0:
468,192,297320,1,10,0:0:0:0:
352,140,297585,1,0,0:0:0:0:
352,140,297718,1,0,0:0:0:0:
352,140,297851,6,0,L|296:60,1,90,4|0,0:0|0:0,0:0:0:0:
256,128,298249,2,0,L|256:220,1,90
160,140,298647,2,0,L|211:66,1,90
256,128,299045,1,0,0:0:0:0:
256,263,299311,2,0,L|256:215,1,45,0|10,0:0|0:0,0:0:0:0:
256,352,299709,1,0,0:0:0:0:
256,352,299842,1,0,0:0:0:0:
256,352,299975,6,0,P|212:352|172:328,1,90,4|0,0:0|0:0,0:0:0:0:
116,288,300373,2,0,P|77:265|33:265,1,90
33,265,300771,2,0,L|33:175,1,90
32,104,301169,1,0,0:0:0:0:
116,36,301435,1,0,0:0:0:0:
116,36,301568,1,10,0:0:0:0:
200,104,301833,1,0,0:0:0:0:
200,104,301966,1,0,0:0:0:0:
200,104,302099,6,0,B|216:56|256:36|256:36|296:56|311:102,1,180,4|0,0:0|0:0,0:0:0:0:
420,280,303160,1,0,0:0:0:0:
311,281,303426,1,0,0:0:0:0:
311,281,303559,1,0,0:0:0:0:
311,281,303691,6,0,B|296:328|256:348|256:348|216:328|200:280,1,180,10|4,0:0|0:0,0:0:0:0:
64,192,304621,1,0,0:0:0:0:
156,60,305019,1,0,0:0:0:0:
256,100,305284,1,0,0:0:0:0:
256,100,305417,1,8,0:0:0:0:
356,60,305683,1,0,0:0:0:0:
356,60,305815,1,10,0:0:0:0:
408,156,306081,1,0,0:0:0:0:
408,156,306214,1,0,0:0:0:0:
408,156,306346,5,4,0:0:0:0:
308,200,306612,2,0,B|232:200|232:200|224:196|224:196|224:204|224:204|217:200|217:200|135:200,1,180
68,200,307276,1,0,0:0:0:0:
42,207,307408,1,0,0:0:0:0:
20,223,307541,1,8,0:0:0:0:
6,246,307674,1,0,0:0:0:0:
68,356,307939,1,4,0:0:0:0:
184,304,308205,1,0,0:0:0:0:
