osu file format v14

[General]
AudioFilename: audio.mp3
AudioLeadIn: 0
PreviewTime: 65953
Countdown: 0
SampleSet: Soft
StackLeniency: 0.3
Mode: 0
LetterboxInBreaks: 0
WidescreenStoryboard: 0

[Editor]
DistanceSpacing: 1.8
BeatDivisor: 4
GridSize: 16
TimelineZoom: 2.1

[Metadata]
Title:bumpy-Jumpy!
TitleUnicode:bumpy-Jumpy!
Artist:KOTOKO
ArtistUnicode:KOTOKO
Creator:Dored
Version:Summer Dream
Source:ナツユメナギサ
Tags:Natsuyume Nagisa Galgame Eroge Visual Novel Opening Short Version Saga Planets I've
BeatmapID:1724776
BeatmapSetID:822997

[Difficulty]
HPDrainRate:7
CircleSize:4
OverallDifficulty:9
ApproachRate:9.3
SliderMultiplier:1.8
SliderTickRate:2

[Events]
//Background and Video events
0,0,"Expert.jpg",0,0
//Break Periods
//Storyboard Layer 0 (Background)
//Storyboard Layer 1 (Fail)
//Storyboard Layer 2 (Pass)
//Storyboard Layer 3 (Foreground)
//Storyboard Sound Samples

[TimingPoints]
1369,315.789473684211,4,2,2,40,1,0
1369,-125,4,2,2,40,0,0
5158,317.460317460317,4,2,2,40,1,0
5158,-125,4,2,2,40,0,0
6427,315.789473684211,4,2,2,40,1,0
6427,-125,4,2,2,40,0,0
8953,-166.666666666667,4,2,2,30,0,0
11400,-166.666666666667,4,2,2,5,0,0
11479,-111.111111111111,4,2,1,50,0,0
21584,-100,4,2,1,60,0,0
32953,-100,4,2,1,50,0,0
43058,-100,4,2,1,55,0,0
53163,-100,4,2,1,50,0,0
58216,-100,4,2,1,55,0,0
60742,-100,4,2,1,60,0,0
63269,-100,4,2,1,65,0,0
65795,-90.9090909090909,4,2,1,70,0,1
66032,-90.9090909090909,4,2,1,5,0,1
66111,-90.9090909090909,4,2,1,70,0,1
75584,-90.9090909090909,4,2,1,70,0,0
75900,-90.9090909090909,4,2,1,70,0,1
76137,-90.9090909090909,4,2,1,5,0,1
76216,-90.9090909090909,4,2,1,70,0,1
86005,-100,4,2,1,60,0,0
104953,-100,4,2,1,70,0,0

[Colours]
Combo1 : 0,60,216
Combo2 : 0,160,160
Combo3 : 128,128,255
Combo4 : 160,0,96

[HitObjects]
96,112,1369,6,0,B|136:98|136:98|185:134|232:114,1,144,6|0,0:0|0:0,0:0:0:0:
272,24,1842,2,0,L|200:24,2,72,2|0|0,0:0|0:0|0:0,0:0:0:0:
303,114,2316,2,0,L|231:114,1,72,2|0,0:0|0:0,0:0:0:0:
367,43,2632,6,0,P|397:106|379:174,1,144,2|0,0:0|0:0,0:0:0:0:
289,210,3105,2,0,L|145:210,1,144,2|0,0:0|0:0,0:0:0:0:
55,174,3579,1,2,0:0:0:0:
131,114,3737,1,2,0:0:0:0:
68,270,3895,6,0,B|95:300|95:300|198:300,1,144,6|0,0:0|0:0,0:0:0:0:
295,281,4369,2,0,L|288:209,2,72,2|0|0,0:0|0:0|0:0,0:0:0:0:
359,355,4842,2,0,L|430:361,1,72,2|0,0:0|0:0,0:0:0:0:
506,228,5158,6,0,P|452:182|381:182,1,144,2|0,0:0|0:0,0:0:0:0:
288,209,5634,2,0,P|217:209|163:163,1,144,2|0,0:0|0:0,0:0:0:0:
169,68,6110,1,2,0:0:0:0:
250,119,6269,1,2,0:0:0:0:
82,112,6427,6,0,L|10:109,1,72,6|0,0:0|0:0,0:0:0:0:
169,68,6742,1,0,0:0:0:0:
79,159,6900,2,0,L|7:156,1,72,2|0,0:0|0:0,0:0:0:0:
166,115,7216,1,0,0:0:0:0:
76,206,7374,2,0,L|4:203,1,72,2|0,0:0|0:0,0:0:0:0:
163,250,7690,6,0,L|234:247,1,72,2|0,0:0|0:0,0:0:0:0:
76,206,8005,1,0,0:0:0:0:
166,297,8163,2,0,L|237:294,1,72,2|0,0:0|0:0,0:0:0:0:
79,253,8479,1,0,0:0:0:0:
169,344,8637,2,0,L|240:341,1,72,2|0,0:0|0:0,0:0:0:0:
324,245,8953,6,0,P|327:191|333:137,2,107.999996704102,6|0|0,0:0|0:0|0:0,0:0:0:0:
171,19,10216,1,6,0:0:0:0:
142,125,10532,2,0,P|260:101|171:20,1,296.99999093628,4|0,0:0|0:0,0:0:0:0:
195,83,11479,6,0,L|274:89,1,80.9999975280763,2|0,0:0|0:0,0:0:0:0:
379,98,11795,2,0,L|373:177,1,80.9999975280763,2|0,0:0|0:0,0:0:0:0:
301,256,12111,1,2,0:0:0:0:
394,304,12269,1,0,0:0:0:0:
288,249,12427,1,2,0:0:0:0:
381,297,12584,1,2,2:3:0:0:
240,342,12742,6,0,P|162:347|117:283,1,161.999995056153,2|0,0:0|0:0,0:0:0:0:
211,111,13216,2,0,P|201:191|196:272,1,161.999995056153,2|0,0:0|0:0,0:0:0:0:
67,222,13690,1,2,0:0:0:0:
64,194,13769,1,0,0:0:0:0:
62,166,13848,1,0,0:0:0:0:
59,138,13927,1,0,0:0:0:0:
57,110,14005,6,0,L|136:104,1,80.9999975280763,2|0,0:0|0:0,0:0:0:0:
220,37,14321,2,0,L|299:31,1,80.9999975280763,2|0,0:0|0:0,0:0:0:0:
396,74,14637,1,2,0:0:0:0:
310,134,14795,1,0,0:0:0:0:
406,178,14953,1,2,0:0:0:0:
320,238,15111,1,2,2:3:0:0:
416,282,15269,6,0,P|456:284|496:289,1,80.9999975280763,2|2,0:0|2:3,0:0:0:0:
330,342,15584,2,0,P|289:346|249:349,1,80.9999975280763,2|0,0:0|0:0,0:0:0:0:
161,289,15900,1,2,0:0:0:0:
101,377,16058,1,0,0:0:0:0:
13,317,16216,1,2,0:0:0:0:
16,289,16295,1,0,0:0:0:0:
18,261,16374,1,0,0:0:0:0:
21,233,16453,1,0,0:0:0:0:
23,205,16532,6,0,L|101:212,1,80.9999975280763,2|0,0:0|0:0,0:0:0:0:
206,222,16848,2,0,L|213:143,1,80.9999975280763,2|0,0:0|0:0,0:0:0:0:
304,87,17163,1,2,0:0:0:0:
381,162,17321,1,0,0:0:0:0:
315,98,17479,1,2,0:0:0:0:
392,173,17637,1,2,2:3:0:0:
487,50,17795,6,0,L|406:42,1,80.9999975280763,2|2,0:0|2:3,0:0:0:0:
315,98,18111,1,2,0:0:0:0:
234,27,18269,2,0,L|154:21,1,80.9999975280763,2|0,2:3|0:0,0:0:0:0:
63,77,18584,1,2,0:0:0:0:
127,162,18742,1,0,0:0:0:0:
155,165,18821,1,0,0:0:0:0:
183,167,18900,1,2,0:0:0:0:
211,170,18979,1,0,0:0:0:0:
239,171,19058,6,0,P|243:211|246:251,1,80.9999975280763,2|0,0:0|0:0,0:0:0:0:
384,253,19374,2,0,P|386:212|391:172,1,80.9999975280763,2|0,0:0|0:0,0:0:0:0:
304,17,19690,2,0,P|308:57|311:97,1,80.9999975280763,2|0,2:3|0:0,0:0:0:0:
452,99,20005,2,0,P|454:58|459:18,1,80.9999975280763,2|0,0:0|0:0,0:0:0:0:
315,172,20321,5,8,0:0:0:0:
459,253,20479,1,8,0:0:0:0:
317,338,20637,1,8,0:0:0:0:
173,257,20795,2,0,L|92:250,1,80.9999975280763,2|8,0:0|0:0,0:0:0:0:
23,329,21111,1,8,0:0:0:0:
23,171,21269,1,2,0:0:0:0:
28,129,21348,1,2,0:0:0:0:
54,97,21427,1,2,0:0:0:0:
92,84,21505,1,2,0:0:0:0:
132,91,21584,6,0,L|124:180,1,90,4|0,0:0|0:0,0:0:0:0:
23,329,21900,1,8,0:0:0:0:
173,257,22058,2,0,L|262:264,1,90,0|2,0:0|0:0,0:0:0:0:
398,361,22374,1,2,0:0:0:0:
255,353,22532,2,0,L|262:263,1,90,8|0,0:0|0:0,0:0:0:0:
385,102,22848,6,0,B|414:136|414:136|402:270,1,180,2|8,0:0|0:0,0:0:0:0:
267,173,23321,1,0,0:0:0:0:
327,35,23479,2,0,L|238:42,1,90,2|2,0:0|0:0,0:0:0:0:
139,134,23795,1,8,0:0:0:0:
111,166,23874,1,0,0:0:0:0:
72,177,23953,1,0,0:0:0:0:
33,166,24032,1,0,0:0:0:0:
4,138,24111,6,0,L|11:49,1,90,4|0,0:0|0:0,0:0:0:0:
156,95,24427,1,8,0:0:0:0:
64,266,24584,2,0,L|71:177,1,90,0|2,0:0|0:0,0:0:0:0:
216,223,24900,1,2,0:0:0:0:
138,360,25058,2,0,L|227:367,1,90,8|0,0:0|0:0,0:0:0:0:
369,208,25374,6,0,P|289:176|216:221,1,180,2|8,0:0|0:0,0:0:0:0:
227,367,25848,1,0,0:0:0:0:
361,297,26005,2,0,L|368:208,1,90,2|2,0:0|0:0,0:0:0:0:
291,99,26321,1,8,0:0:0:0:
263,66,26400,1,0,0:0:0:0:
224,56,26479,1,0,0:0:0:0:
184,66,26558,1,0,0:0:0:0:
156,95,26637,6,0,L|67:88,1,90,4|0,0:0|0:0,0:0:0:0:
215,222,26953,1,8,0:0:0:0:
75,209,27111,2,0,L|68:298,1,90,0|2,0:0|0:0,0:0:0:0:
156,95,27427,1,2,0:0:0:0:
207,311,27584,2,0,L|214:222,1,90,8|0,0:0|0:0,0:0:0:0:
356,95,27900,6,0,L|445:88,1,90,2|0,0:0|0:0,0:0:0:0:
297,222,28216,1,8,0:0:0:0:
437,209,28374,2,0,L|444:298,1,90,0|2,0:0|0:0,0:0:0:0:
356,95,28690,1,2,0:0:0:0:
305,312,28848,1,8,0:0:0:0:
303,289,28927,1,0,0:0:0:0:
301,267,29005,1,0,0:0:0:0:
299,244,29084,1,0,0:0:0:0:
297,222,29163,5,2,0:0:0:0:
156,95,29321,1,2,0:0:0:0:
356,95,29479,1,8,0:0:0:0:
157,192,29637,2,0,P|78:153|62:68,1,180,2|2,0:0|0:0,0:0:0:0:
211,24,30111,2,0,L|301:24,1,90,8|0,0:0|0:0,0:0:0:0:
411,166,30427,5,2,0:0:0:0:
256,95,30584,1,2,0:0:0:0:
448,5,30742,2,0,L|455:94,1,90,8|0,0:0|0:0,0:0:0:0:
311,166,31058,1,2,0:0:0:0:
466,237,31216,1,2,0:0:0:0:
327,318,31374,1,8,0:0:0:0:
295,287,31453,1,0,0:0:0:0:
256,278,31532,1,0,0:0:0:0:
217,290,31611,1,2,0:0:0:0:
189,318,31690,5,2,0:0:0:0:
314,244,31848,1,0,3:0:0:0:
323,205,31927,1,0,3:0:0:0:
311,166,32005,1,2,0:0:0:0:
198,75,32163,1,0,3:0:0:0:
189,114,32242,1,0,3:0:0:0:
201,153,32321,1,2,0:0:0:0:
314,62,32479,1,2,0:0:0:0:
198,244,32637,1,2,0:0:0:0:
166,275,32716,1,2,0:0:0:0:
127,284,32795,1,2,0:0:0:0:
88,272,32874,1,2,0:0:0:0:
60,244,32953,6,0,L|52:154,1,90,4|0,2:1|0:0,0:0:0:0:
86,41,33269,1,8,0:0:0:0:
198,75,33427,2,0,L|288:67,1,90,0|2,0:0|0:0,0:0:0:0:
164,188,33742,1,2,0:0:0:0:
268,311,33900,2,0,P|271:266|275:221,1,90,8|0,0:0|0:0,0:0:0:0:
441,79,34216,6,0,P|450:168|456:258,1,180,2|8,0:0|0:0,0:0:0:0:
268,311,34690,1,0,0:0:0:0:
388,373,34848,2,0,P|432:369|477:366,1,90,2|2,0:0|0:0,0:0:0:0:
268,311,35163,1,8,0:0:0:0:
241,308,35242,1,0,0:0:0:0:
214,306,35321,1,0,0:0:0:0:
187,303,35400,1,0,0:0:0:0:
160,301,35479,6,0,P|115:297|70:294,1,90,4|0,2:1|0:0,0:0:0:0:
9,193,35795,1,8,0:0:0:0:
86,105,35953,2,0,P|130:108|175:111,1,90,0|2,0:0|0:0,0:0:0:0:
236,212,36269,1,2,0:0:0:0:
313,124,36427,2,0,L|307:35,1,90,8|0,0:0|0:0,0:0:0:0:
101,28,36742,6,0,P|54:101|86:181,1,180,2|8,0:0|0:0,0:0:0:0:
236,212,37216,1,0,0:0:0:0:
134,326,37374,2,0,P|89:328|44:332,1,90,2|2,0:0|0:0,0:0:0:0:
244,364,37690,1,8,0:0:0:0:
271,367,37769,1,0,0:0:0:0:
298,369,37848,1,0,0:0:0:0:
325,372,37927,1,0,0:0:0:0:
352,374,38005,5,4,2:1:0:0:
447,306,38163,1,0,0:0:0:0:
472,192,38321,1,8,0:0:0:0:
406,94,38479,1,0,0:0:0:0:
292,71,38637,5,2,0:0:0:0:
224,166,38795,1,2,0:0:0:0:
110,191,38953,1,8,0:0:0:0:
12,125,39111,1,0,0:0:0:0:
216,76,39269,6,0,L|223:165,1,90,2|0,0:0|0:0,0:0:0:0:
19,214,39584,2,0,L|11:124,1,90,8|0,0:0|0:0,0:0:0:0:
179,236,39900,1,2,0:0:0:0:
56,54,40058,1,2,0:0:0:0:
75,275,40216,1,8,0:0:0:0:
78,302,40295,1,0,0:0:0:0:
80,329,40374,1,2,0:0:0:0:
83,356,40453,1,0,0:0:0:0:
85,383,40532,6,0,P|129:379|174:377,1,90,6|2,0:0|0:0,0:0:0:0:
298,309,40848,1,8,0:0:0:0:
179,236,41005,1,0,0:0:0:0:
178,227,41084,1,0,0:0:0:0:
177,218,41163,2,0,L|169:128,1,90,2|2,0:0|0:0,0:0:0:0:
294,80,41479,2,0,L|302:170,1,90,8|0,0:0|0:0,0:0:0:0:
420,242,41795,5,2,0:0:0:0:
298,309,41953,1,2,0:0:0:0:
417,382,42111,1,0,3:0:0:0:
443,381,42190,1,0,3:0:0:0:
467,368,42269,1,0,3:0:0:0:
470,228,42427,1,2,0:0:0:0:
444,229,42505,1,0,3:0:0:0:
420,242,42584,1,0,3:0:0:0:
301,169,42742,1,2,0:0:0:0:
299,142,42821,1,0,3:0:0:0:
296,115,42900,1,0,3:0:0:0:
294,88,42979,1,0,3:0:0:0:
291,61,43058,6,0,L|381:69,1,90,4|0,2:1|0:0,0:0:0:0:
487,136,43374,1,8,0:0:0:0:
420,242,43532,2,0,L|412:332,1,90,0|2,0:0|0:0,0:0:0:0:
301,169,43848,1,2,0:0:0:0:
182,242,44005,2,0,L|190:332,1,90,8|0,0:0|0:0,0:0:0:0:
45,180,44321,6,0,P|91:106|177:101,1,180,2|8,0:0|0:0,0:0:0:0:
301,169,44795,1,0,0:0:0:0:
296,28,44953,1,2,0:0:0:0:
177,101,45111,1,2,0:0:0:0:
345,166,45269,2,0,L|300:169,1,45,8|0,0:0|0:0,0:0:0:0:
137,246,45427,2,0,L|181:242,1,45,2|0,0:0|0:0,0:0:0:0:
352,255,45584,6,0,L|345:166,1,90,4|0,2:1|0:0,0:0:0:0:
296,28,45900,1,8,0:0:0:0:
463,92,46058,2,0,L|470:181,1,90,0|2,0:0|0:0,0:0:0:0:
352,255,46374,1,2,0:0:0:0:
484,360,46532,2,0,L|477:271,1,90,8|0,0:0|0:0,0:0:0:0:
261,336,46848,6,0,P|175:323|136:245,1,180,2|8,0:0|0:0,0:0:0:0:
177,101,47321,1,0,0:0:0:0:
31,137,47479,1,2,0:0:0:0:
136,245,47637,1,2,0:0:0:0:
177,101,47795,2,0,L|173:56,1,45,8|0,0:0|0:0,0:0:0:0:
282,209,47953,2,0,L|285:253,1,45,2|0,0:0|0:0,0:0:0:0:
323,65,48111,5,4,2:1:0:0:
198,184,48269,1,2,0:0:0:0:
364,233,48427,1,8,0:0:0:0:
175,323,48584,2,0,P|264:328|354:338,1,180,2|2,0:0|0:0,0:0:0:0:
484,297,49058,1,8,0:0:0:0:
364,233,49216,1,2,0:0:0:0:
504,87,49374,5,2,0:0:0:0:
442,230,49532,1,0,0:0:0:0:
287,191,49690,2,0,P|242:188|197:183,1,90,8|0,0:0|0:0,0:0:0:0:
442,230,50005,1,2,0:0:0:0:
380,373,50163,1,2,0:0:0:0:
225,334,50321,1,8,0:0:0:0:
193,324,50400,1,0,0:0:0:0:
162,324,50479,1,0,0:0:0:0:
132,335,50558,1,0,0:0:0:0:
107,354,50637,6,0,P|104:309|99:264,1,90,6|2,0:0|0:0,0:0:0:0:
42,144,50953,1,8,0:0:0:0:
162,87,51111,1,2,0:0:0:0:
171,86,51190,1,2,0:0:0:0:
180,85,51269,2,0,L|270:77,1,90,2|2,0:0|0:0,0:0:0:0:
376,183,51584,2,0,L|286:191,1,90,8|2,0:0|0:0,0:0:0:0:
429,70,51900,5,2,0:0:0:0:
449,286,52058,1,2,0:0:0:0:
251,194,52216,1,8,0:0:0:0:
376,183,52374,1,2,0:0:0:0:
198,308,52532,1,2,0:0:0:0:
178,91,52690,1,2,0:0:0:0:
376,183,52848,2,0,L|420:180,1,45,8|0,0:0|0:0,0:0:0:0:
251,194,53005,2,0,L|207:197,1,45,2|0,0:0|0:0,0:0:0:0:
360,300,53163,5,6,0:0:0:0:
383,272,53479,2,0,L|375:182,1,90,8|0,0:0|0:0,0:0:0:0:
211,52,53795,1,0,3:0:0:0:
190,66,53874,1,0,3:0:0:0:
178,91,53953,1,0,3:0:0:0:
251,194,54111,1,8,0:0:0:0:
71,210,54269,6,0,P|160:200|250:194,1,180,4|2,0:0|0:0,0:0:0:0:
314,356,54742,2,0,P|269:353|224:348,1,90,8|0,0:0|0:0,0:0:0:0:
250,193,55058,1,0,3:0:0:0:
276,186,55137,1,0,3:0:0:0:
300,192,55216,1,0,3:0:0:0:
436,266,55374,1,8,0:0:0:0:
497,129,55532,1,0,3:0:0:0:
496,120,55611,1,0,3:0:0:0:
495,111,55690,6,0,L|487:21,1,90,2|0,0:0|0:0,0:0:0:0:
356,102,56005,1,8,0:0:0:0:
211,52,56163,2,0,P|121:62|31:68,1,180,2|2,0:0|0:0,0:0:0:0:
160,184,56637,2,0,P|204:186|249:191,1,90,8|0,0:0|0:0,0:0:0:0:
338,298,56953,5,2,0:0:0:0:
249,191,57111,1,2,0:0:0:0:
356,102,57269,2,0,L|445:109,1,90,8|2,0:0|0:0,0:0:0:0:
249,191,57584,1,2,0:0:0:0:
160,84,57742,1,2,0:0:0:0:
53,173,57900,2,0,L|45:262,1,90,8|2,0:0|0:0,0:0:0:0:
225,333,58216,5,2,0:0:0:0:
248,305,58532,2,0,L|338:297,1,90,8|0,0:0|0:0,0:0:0:0:
491,335,58848,1,0,3:0:0:0:
469,347,58927,1,0,3:0:0:0:
442,347,59005,1,0,3:0:0:0:
387,192,59163,1,8,0:0:0:0:
248,305,59321,6,0,P|242:215|231:125,1,180,4|2,0:0|0:0,0:0:0:0:
395,102,59795,2,0,P|392:146|386:191,1,90,8|0,0:0|0:0,0:0:0:0:
248,305,60111,2,0,P|292:302|337:297,1,90,2|2,0:0|0:0,0:0:0:0:
491,240,60427,1,8,0:0:0:0:
395,102,60584,1,2,0:0:0:0:
386,101,60663,1,2,0:0:0:0:
377,100,60742,6,0,L|287:92,1,90,2|0,0:0|0:0,0:0:0:0:
172,180,61058,1,8,0:0:0:0:
39,125,61216,2,0,L|31:215,1,90,0|2,0:0|0:0,0:0:0:0:
131,320,61532,1,2,0:0:0:0:
172,180,61690,1,8,0:0:0:0:
272,286,61848,1,2,0:0:0:0:
281,287,61927,1,2,0:0:0:0:
290,288,62005,6,0,L|380:296,1,90,2|0,0:0|0:0,0:0:0:0:
131,320,62321,1,8,0:0:0:0:
172,180,62479,2,0,L|262:188,1,90,0|2,0:0|0:0,0:0:0:0:
379,295,62795,1,2,0:0:0:0:
487,177,62953,1,8,0:0:0:0:
369,69,63111,1,2,0:0:0:0:
360,70,63190,1,2,0:0:0:0:
351,71,63269,6,0,L|261:79,1,90,2|0,0:0|0:0,0:0:0:0:
172,180,63584,1,8,0:0:0:0:
80,33,63742,1,0,0:0:0:0:
172,180,63900,2,0,L|180:270,1,90,2|2,0:0|0:0,0:0:0:0:
90,370,64216,1,8,0:0:0:0:
261,374,64374,1,0,0:0:0:0:
85,275,64532,5,2,0:0:0:0:
268,174,64690,1,2,0:0:0:0:
39,125,64848,1,8,0:0:0:0:
175,225,65005,1,2,0:0:0:0:
173,202,65084,1,2,0:0:0:0:
172,180,65163,1,2,0:0:0:0:
236,20,65321,1,2,0:0:0:0:
365,168,65479,1,2,0:0:0:0:
394,140,65558,1,2,0:0:0:0:
408,102,65637,1,2,0:0:0:0:
403,62,65716,1,2,0:0:0:0:
378,31,65795,6,0,B|344:9|344:9|235:19,1,148.50000453186,4|0,0:0|0:0,0:0:0:0:
187,25,66111,1,8,0:0:0:0:
268,174,66269,1,0,0:0:0:0:
106,126,66427,1,2,0:0:0:0:
306,92,66584,1,2,0:0:0:0:
175,225,66742,1,8,0:0:0:0:
90,33,66900,6,0,P|18:95|34:188,1,198.000006042481,2|2,0:0|0:0,0:0:0:0:
166,323,67374,2,0,L|174:224,1,99.0000030212403,8|0,0:0|0:0,0:0:0:0:
306,92,67690,1,2,0:0:0:0:
272,274,67848,1,2,0:0:0:0:
94,247,68005,1,8,0:0:0:0:
62,272,68084,1,0,0:0:0:0:
49,309,68163,1,0,0:0:0:0:
56,348,68242,1,0,0:0:0:0:
82,378,68321,6,0,B|147:388|147:388|208:350|208:350|267:360,1,198.000006042481,4|8,0:0|0:0,0:0:0:0:
281,175,68795,2,0,L|272:273,1,99.0000030212403,0|2,0:0|0:0,0:0:0:0:
94,247,69111,1,2,0:0:0:0:
206,109,69269,1,8,0:0:0:0:
18,182,69427,6,0,B|6:172|-12:163|-12:163|149:177,1,198.000006042481,2|2,0:0|0:0,0:0:0:0:
271,273,69900,2,0,L|369:264,1,99.0000030212403,8|0,0:0|0:0,0:0:0:0:
471,141,70216,1,2,0:0:0:0:
328,75,70374,1,2,0:0:0:0:
476,21,70532,1,8,0:0:0:0:
348,169,70690,1,2,0:0:0:0:
339,170,70769,1,2,0:0:0:0:
329,171,70848,6,0,L|230:180,1,99.0000030212403,4|0,0:0|0:0,0:0:0:0:
291,367,71163,2,0,L|389:358,1,99.0000030212403,8|0,0:0|0:0,0:0:0:0:
491,235,71479,1,2,0:0:0:0:
389,357,71637,1,2,0:0:0:0:
329,171,71795,1,8,0:0:0:0:
163,247,71953,6,0,P|139:155|205:87,1,198.000006042481,2|2,0:0|0:0,0:0:0:0:
329,171,72427,2,0,L|338:269,1,99.0000030212403,8|0,0:0|0:0,0:0:0:0:
163,247,72742,1,2,0:0:0:0:
291,367,72900,1,2,0:0:0:0:
230,179,73058,1,8,0:0:0:0:
194,157,73137,1,0,0:0:0:0:
155,154,73216,1,0,0:0:0:0:
116,164,73295,1,0,0:0:0:0:
85,191,73374,5,6,0:0:0:0:
299,86,73532,1,2,0:0:0:0:
227,307,73690,1,8,0:0:0:0:
441,202,73848,1,2,0:0:0:0:
163,247,74005,5,2,0:0:0:0:
404,104,74163,1,2,0:0:0:0:
291,367,74321,1,8,0:0:0:0:
155,154,74479,6,0,L|253:162,1,99.0000030212403,4|0,0:0|0:0,0:0:0:0:
443,303,74795,2,0,L|344:294,1,99.0000030212403,4|0,0:0|0:0,0:0:0:0:
144,333,75111,1,4,0:0:0:0:
299,228,75269,1,2,0:0:0:0:
98,209,75427,1,2,0:0:0:0:
168,39,75584,1,2,0:0:0:0:
202,18,75663,1,2,0:0:0:0:
242,15,75742,1,2,0:0:0:0:
280,25,75821,1,2,0:0:0:0:
311,51,75900,6,0,B|355:64|388:44|418:26|456:42,1,148.50000453186,4|0,0:0|0:0,0:0:0:0:
503,59,76216,2,0,L|495:157,1,99.0000030212403,8|0,0:0|0:0,0:0:0:0:
299,228,76532,1,2,0:0:0:0:
443,303,76690,1,2,0:0:0:0:
375,136,76848,1,8,0:0:0:0:
223,318,77005,6,0,P|130:298|97:208,1,198.000006042481,2|2,0:0|0:0,0:0:0:0:
168,39,77479,2,0,L|70:47,1,99.0000030212403,8|0,0:0|0:0,0:0:0:0:
192,226,77795,1,2,0:0:0:0:
283,60,77953,1,2,0:0:0:0:
69,47,78111,1,8,0:0:0:0:
34,67,78190,1,0,0:0:0:0:
11,99,78269,1,0,0:0:0:0:
2,137,78348,1,0,0:0:0:0:
7,177,78427,6,0,B|10:275|41:303|41:303|68:298|83:287|83:287|99:274,1,198.000006042481,4|8,0:0|0:0,0:0:0:0:
237,143,78900,2,0,L|335:151,1,99.0000030212403,0|2,0:0|0:0,0:0:0:0:
483,205,79216,1,2,0:0:0:0:
362,306,79374,1,8,0:0:0:0:
454,79,79532,6,0,B|468:239|468:239|473:220|481:207,1,198.000006042481,2|2,0:0|0:0,0:0:0:0:
335,151,80005,2,0,L|237:143,1,99.0000030212403,8|0,0:0|0:0,0:0:0:0:
69,47,80321,1,2,0:0:0:0:
165,209,80479,1,2,0:0:0:0:
313,66,80637,1,8,0:0:0:0:
347,45,80716,1,0,0:0:0:0:
387,42,80795,1,0,0:0:0:0:
424,53,80874,1,0,0:0:0:0:
454,79,80953,6,0,B|490:115|490:115|478:260,1,198.000006042481,4|8,0:0|0:0,0:0:0:0:
258,236,81427,2,0,L|356:244,1,99.0000030212403,0|2,0:0|0:0,0:0:0:0:
467,347,81742,1,2,0:0:0:0:
366,158,81900,1,8,0:0:0:0:
220,313,82058,6,0,B|380:327|380:327|361:332|348:340,1,198.000006042481,2|2,0:0|0:0,0:0:0:0:
267,149,82532,2,0,L|365:157,1,99.0000030212403,8|0,0:0|0:0,0:0:0:0:
477,261,82848,1,2,0:0:0:0:
376,72,83005,1,2,0:0:0:0:
258,236,83163,1,8,0:0:0:0:
217,231,83242,1,0,0:0:0:0:
182,211,83321,1,0,0:0:0:0:
160,181,83400,1,0,0:0:0:0:
149,142,83479,5,2,0:0:0:0:
181,384,83637,1,2,0:0:0:0:
267,149,83795,1,8,0:0:0:0:
87,311,83953,1,2,0:0:0:0:
180,58,84111,5,2,0:0:0:0:
212,300,84269,1,2,0:0:0:0:
298,65,84427,1,8,0:0:0:0:
118,227,84584,1,2,0:0:0:0:
349,302,84742,5,2,0:0:0:0:
298,65,84900,1,2,0:0:0:0:
61,116,85058,1,2,0:0:0:0:
112,353,85216,1,2,0:0:0:0:
120,319,85532,5,2,0:0:0:0:
95,124,85690,1,2,0:0:0:0:
290,99,85848,1,2,0:0:0:0:
118,227,86005,6,0,L|207:234,1,90,4|0,2:1|0:0,0:0:0:0:
379,106,86321,2,0,L|290:99,1,90,8|0,0:0|0:0,0:0:0:0:
95,124,86637,1,2,0:0:0:0:
236,22,86795,1,2,0:0:0:0:
81,111,86953,1,8,0:0:0:0:
222,9,87111,1,2,0:0:0:0:
207,234,87269,6,0,P|216:148|289:100,1,180,2|8,0:0|0:0,0:0:0:0:
484,185,87742,2,0,P|394:194|304:200,1,180,2|2,0:0|0:0,0:0:0:0:
377,13,88216,1,8,0:0:0:0:
399,11,88295,1,0,0:0:0:0:
422,9,88374,1,0,0:0:0:0:
445,7,88453,1,0,0:0:0:0:
468,5,88532,6,0,L|475:94,1,90,2|0,0:0|0:0,0:0:0:0:
398,225,88848,2,0,L|390:314,1,90,8|0,0:0|0:0,0:0:0:0:
247,331,89163,1,2,0:0:0:0:
162,216,89321,1,2,0:0:0:0:
304,199,89479,1,8,0:0:0:0:
247,331,89637,1,2,0:0:0:0:
121,124,89795,6,0,P|65:190|81:276,1,180,2|8,0:0|0:0,0:0:0:0:
304,199,90269,2,0,P|297:109|289:19,1,180,2|2,0:0|0:0,0:0:0:0:
113,33,90742,1,8,0:0:0:0:
115,55,90821,1,0,0:0:0:0:
117,78,90900,1,0,0:0:0:0:
119,101,90979,1,0,0:0:0:0:
121,124,91058,6,0,L|210:131,1,90,4|0,2:1|0:0,0:0:0:0:
393,206,91374,2,0,L|304:199,1,90,8|0,0:0|0:0,0:0:0:0:
164,304,91690,1,2,0:0:0:0:
335,320,91848,1,2,0:0:0:0:
202,210,92005,1,8,0:0:0:0:
311,119,92163,1,2,0:0:0:0:
164,304,92321,6,0,P|105:239|118:153,1,180,2|8,0:0|0:0,0:0:0:0:
226,9,92795,2,0,P|315:16|405:23,1,180,2|2,0:0|0:0,0:0:0:0:
471,179,93269,1,8,0:0:0:0:
456,196,93348,1,0,0:0:0:0:
437,208,93427,1,0,0:0:0:0:
415,210,93505,1,0,0:0:0:0:
393,206,93584,6,0,L|386:117,1,90,2|0,0:0|0:0,0:0:0:0:
226,9,93900,2,0,L|219:98,1,90,8|0,0:0|0:0,0:0:0:0:
385,116,94216,1,2,0:0:0:0:
202,210,94374,1,2,0:0:0:0:
306,63,94532,1,8,0:0:0:0:
287,267,94690,1,2,0:0:0:0:
117,153,94848,6,0,P|73:149|28:146,1,90,2|2,0:0|0:0,0:0:0:0:
287,267,95163,2,0,P|331:263|376:260,1,90,8|2,0:0|0:0,0:0:0:0:
156,353,95479,1,2,0:0:0:0:
115,342,95558,1,0,3:0:0:0:
85,315,95637,1,0,3:0:0:0:
202,210,95795,1,2,0:0:0:0:
217,172,95874,1,0,3:0:0:0:
216,131,95953,1,0,3:0:0:0:
200,93,96032,1,0,3:0:0:0:
171,64,96111,6,0,L|81:56,1,90,4|0,2:1|0:0,0:0:0:0:
23,220,96427,2,0,L|113:228,1,90,8|0,0:0|0:0,0:0:0:0:
287,267,96742,1,2,0:0:0:0:
156,353,96900,1,2,0:0:0:0:
305,271,97058,1,8,0:0:0:0:
174,357,97216,1,2,0:0:0:0:
217,172,97374,6,0,P|306:165|396:157,1,180,2|8,0:0|0:0,0:0:0:0:
156,70,97848,2,0,P|103:140|112:227,1,180,2|2,0:0|0:0,0:0:0:0:
260,275,98321,1,8,0:0:0:0:
282,273,98400,1,0,0:0:0:0:
305,271,98479,1,0,0:0:0:0:
328,269,98558,1,0,0:0:0:0:
351,267,98637,6,0,L|440:260,1,90,2|0,0:0|0:0,0:0:0:0:
441,60,98953,2,0,L|352:53,1,90,8|0,0:0|0:0,0:0:0:0:
217,172,99269,1,2,0:0:0:0:
396,156,99427,1,2,0:0:0:0:
260,275,99584,1,8,0:0:0:0:
249,73,99742,1,2,0:0:0:0:
112,227,99900,6,0,P|105:138|97:48,1,180,2|8,0:0|0:0,0:0:0:0:
324,3,100374,2,0,P|352:84|306:159,1,180,2|2,0:0|0:0,0:0:0:0:
112,227,100848,1,8,0:0:0:0:
100,246,100927,1,0,0:0:0:0:
94,267,101005,1,0,0:0:0:0:
96,290,101084,1,0,0:0:0:0:
104,311,101163,6,0,L|193:318,1,90,4|0,2:1|0:0,0:0:0:0:
313,248,101479,2,0,L|305:158,1,90,8|0,0:0|0:0,0:0:0:0:
180,64,101795,1,2,0:0:0:0:
324,3,101953,1,2,0:0:0:0:
305,158,102111,1,8,0:0:0:0:
449,97,102269,1,2,0:0:0:0:
392,306,102427,6,0,P|385:217|377:127,1,180,2|8,0:0|0:0,0:0:0:0:
180,64,102900,2,0,P|187:153|195:243,1,180,2|2,0:0|0:0,0:0:0:0:
89,366,103374,1,8,0:0:0:0:
67,370,103453,1,0,0:0:0:0:
45,368,103532,1,0,0:0:0:0:
26,356,103611,1,0,0:0:0:0:
11,339,103690,5,2,0:0:0:0:
195,243,103848,1,2,0:0:0:0:
55,199,104005,1,8,0:0:0:0:
151,383,104163,1,2,0:0:0:0:
317,243,104321,5,2,0:0:0:0:
501,339,104479,1,2,0:0:0:0:
457,199,104637,1,8,0:0:0:0:
361,383,104795,1,2,0:0:0:0:
256,137,104953,5,2,0:0:0:0:
256,349,105111,1,2,0:0:0:0:
145,157,105269,1,2,0:0:0:0:
367,157,105427,1,2,0:0:0:0:
358,173,105742,5,2,0:0:0:0:
154,173,105900,1,2,0:0:0:0:
256,332,106058,1,2,0:0:0:0:
256,67,106216,5,4,2:1:0:0:
