osu file format v14

[General]
AudioFilename: audio.mp3
AudioLeadIn: 0
PreviewTime: 65953
Countdown: 0
SampleSet: Soft
StackLeniency: 0.7
Mode: 0
LetterboxInBreaks: 0
WidescreenStoryboard: 1

[Editor]
DistanceSpacing: 1
BeatDivisor: 2
GridSize: 16
TimelineZoom: 2.1

[Metadata]
Title:bumpy-Jumpy!
TitleUnicode:bumpy-Jumpy!
Artist:KOTOKO
ArtistUnicode:KOTOKO
Creator:Dored
Version:Normal
Source:ナツユメナギサ
Tags:Natsuyume Nagisa Galgame Eroge Visual Novel Opening Short Version Saga Planets I've
BeatmapID:1724780
BeatmapSetID:822997

[Difficulty]
HPDrainRate:5
CircleSize:3.4
OverallDifficulty:5
ApproachRate:5.5
SliderMultiplier:1
SliderTickRate:2

[Events]
//Background and Video events
0,0,"Normal.jpg",0,0
//Break Periods
//Storyboard Layer 0 (Background)
//Storyboard Layer 1 (Fail)
//Storyboard Layer 2 (Pass)
//Storyboard Layer 3 (Foreground)
//Storyboard Sound Samples

[TimingPoints]
1369,315.789473684211,4,2,2,40,1,0
1369,-100,4,2,2,40,0,0
5158,317.460317460317,4,2,2,40,1,0
5158,-100,4,2,2,40,0,0
6427,315.789473684211,4,2,2,40,1,0
6427,-100,4,2,2,40,0,0
8953,-100,4,2,2,30,0,0
11400,-100,4,2,2,5,0,0
11479,-100,4,2,1,50,0,0
21584,-100,4,2,1,60,0,0
32953,-100,4,2,1,50,0,0
43058,-100,4,2,1,55,0,0
53163,-100,4,2,1,50,0,0
58216,-100,4,2,1,55,0,0
60742,-100,4,2,1,60,0,0
63269,-100,4,2,1,65,0,0
65795,-100,4,2,1,70,0,1
66032,-100,4,2,1,5,0,1
66111,-100,4,2,1,70,0,1
75584,-100,4,2,1,70,0,0
75900,-100,4,2,1,70,0,1
76137,-100,4,2,1,5,0,1
76216,-100,4,2,1,70,0,1
86005,-100,4,2,1,60,0,0
103690,-100,4,2,1,45,0,0
106216,-100,4,2,1,30,0,0

[Colours]
Combo1 : 0,60,216
Combo2 : 0,160,160
Combo3 : 128,128,255
Combo4 : 160,0,96

[HitObjects]
448,256,1369,6,0,P|398:252|348:247,1,100,6|0,0:0|0:0,0:0:0:0:
307,218,1842,2,0,P|257:221|207:226,1,100,2|0,0:0|0:0,0:0:0:0:
171,261,2316,1,2,0:0:0:0:
80,218,2632,1,2,0:0:0:0:
315,32,3579,2,0,L|364:27,1,50,2|2,0:0|0:0,0:0:0:0:
412,10,3895,6,0,P|408:59|403:109,1,100,6|0,0:0|0:0,0:0:0:0:
374,151,4369,2,0,P|377:200|382:250,1,100,2|0,0:0|0:0,0:0:0:0:
417,287,4842,1,2,0:0:0:0:
374,378,5158,1,2,0:0:0:0:
80,318,6110,2,0,L|75:269,1,50,2|2,0:0|0:0,0:0:0:0:
80,218,6427,6,0,P|122:192|171:188,1,100,6|0,0:0|0:0,0:0:0:0:
207,225,6900,2,0,P|256:220|298:195,1,100,2|0,0:0|0:0,0:0:0:0:
329,154,7374,1,2,0:0:0:0:
298,59,7690,2,0,P|256:85|207:89,1,100,2|0,0:0|0:0,0:0:0:0:
171,52,8163,2,0,P|122:57|80:82,1,100,2|0,0:0|0:0,0:0:0:0:
49,123,8637,1,2,0:0:0:0:
80,218,8953,5,6,0:0:0:0:
80,218,10216,1,6,0:0:0:0:
80,218,11479,6,0,P|84:267|89:317,1,100,2|2,0:0|0:0,0:0:0:0:
183,350,12111,2,0,P|187:300|192:250,1,100,2|2,0:0|0:0,0:0:0:0:
230,218,12584,1,2,2:3:0:0:
230,218,12742,2,0,P|278:209|326:223,1,100,2|2,0:0|0:0,0:0:0:0:
399,292,13374,2,0,P|447:300|495:286,1,100,2|2,0:0|0:0,0:0:0:0:
512,187,14005,6,0,P|508:138|503:88,1,100,2|2,0:0|0:0,0:0:0:0:
416,36,14637,2,0,P|368:21|320:30,1,100,2|2,0:0|0:0,0:0:0:0:
295,76,15111,1,2,2:3:0:0:
295,76,15269,2,0,P|246:83|199:70,1,100,2|2,0:0|0:0,0:0:0:0:
112,18,15900,2,0,P|62:22|12:27,1,100,2|2,0:0|0:0,0:0:0:0:
30,125,16532,6,0,P|80:129|130:134,1,100,2|2,0:0|0:0,0:0:0:0:
215,184,17163,2,0,P|264:179|314:175,1,100,2|2,0:0|0:0,0:0:0:0:
364,168,17637,1,2,2:3:0:0:
364,168,17795,2,0,P|411:182|436:224,1,100,2|2,0:0|0:0,0:0:0:0:
409,266,18269,2,0,L|309:274,2,100,2|2|2,2:3|0:0|0:0,0:0:0:0:
443,303,19058,6,0,P|425:349|382:371,1,100,2|2,0:0|0:0,0:0:0:0:
282,374,19690,2,0,P|232:379|183:383,1,100,2|2,2:3|0:0,0:0:0:0:
109,313,20321,2,0,P|105:263|100:213,1,100,8|8,0:0|0:0,0:0:0:0:
65,176,20795,2,0,P|68:126|73:76,1,100,2|8,0:0|0:0,0:0:0:0:
118,54,21269,1,2,0:0:0:0:
192,124,21584,6,0,P|239:137|288:130,1,100,4|8,0:0|0:0,0:0:0:0:
362,62,22216,2,0,P|411:55|458:68,1,100,2|8,0:0|0:0,0:0:0:0:
512,153,22848,1,2,0:0:0:0:
436,218,23163,2,0,P|440:267|443:317,1,100,8|2,0:0|0:0,0:0:0:0:
366,381,23795,1,8,0:0:0:0:
302,304,24111,6,0,P|254:290|205:297,1,100,4|8,0:0|0:0,0:0:0:0:
132,366,24742,2,0,P|82:372|35:359,1,100,2|8,0:0|0:0,0:0:0:0:
0,265,25374,1,2,0:0:0:0:
57,183,25690,2,0,P|106:178|156:175,1,100,8|2,0:0|0:0,0:0:0:0:
251,207,26321,1,8,0:0:0:0:
328,143,26637,6,0,P|334:93|321:46,1,100,4|8,0:0|0:0,0:0:0:0:
272,56,27111,2,0,P|222:60|172:63,1,100,2|2,0:0|0:0,0:0:0:0:
133,32,27584,1,8,0:0:0:0:
50,86,27900,2,0,P|43:135|56:182,1,100,2|8,0:0|0:0,0:0:0:0:
95,214,28374,2,0,P|92:263|87:313,1,100,2|2,0:0|0:0,0:0:0:0:
71,361,28848,1,8,0:0:0:0:
168,336,29163,6,0,P|217:329|264:342,1,100,2|8,0:0|0:0,0:0:0:0:
360,372,29795,2,0,P|409:378|456:365,1,100,2|8,0:0|0:0,0:0:0:0:
503,275,30427,2,0,P|509:226|496:179,1,100,2|8,0:0|0:0,0:0:0:0:
432,99,31058,2,0,P|383:96|333:91,1,100,2|8,0:0|0:0,0:0:0:0:
246,142,31690,6,0,P|251:191|254:241,1,100,2|2,0:0|0:0,0:0:0:0:
264,342,32321,1,2,0:0:0:0:
172,301,32637,1,2,0:0:0:0:
90,360,32953,6,0,P|87:310|81:260,1,100,4|8,2:1|0:0,0:0:0:0:
163,201,33584,1,2,0:0:0:0:
104,119,33900,1,8,0:0:0:0:
186,60,34216,2,0,P|235:65|285:68,1,100,2|8,0:0|0:0,0:0:0:0:
376,25,34848,2,0,L|425:20,2,50,2|2|8,0:0|0:0|0:0,0:0:0:0:
367,125,35479,6,0,P|353:172|359:222,1,100,4|8,2:1|0:0,0:0:0:0:
436,286,36111,1,2,0:0:0:0:
372,363,36427,1,8,0:0:0:0:
295,298,36742,2,0,P|245:300|195:306,1,100,2|8,0:0|0:0,0:0:0:0:
112,363,37374,2,0,L|62:358,2,50,2|2|8,0:0|0:0|0:0,0:0:0:0:
105,263,38005,6,0,P|55:260|5:254,1,100,4|8,2:1|0:0,0:0:0:0:
14,156,38637,2,0,P|63:161|113:164,1,100,2|8,0:0|0:0,0:0:0:0:
203,207,39269,2,0,P|253:201|303:199,1,100,2|8,0:0|0:0,0:0:0:0:
377,131,39900,1,2,0:0:0:0:
423,220,40216,1,8,0:0:0:0:
497,152,40532,6,0,P|494:102|487:52,1,100,6|8,0:0|0:0,0:0:0:0:
387,31,41163,2,0,P|384:80|377:130,1,100,2|8,0:0|0:0,0:0:0:0:
276,115,41795,2,0,L|226:110,1,50,2|2,0:0|0:0,0:0:0:0:
185,81,42111,2,0,P|135:74|88:89,2,100,2|2|2,0:0|0:0|0:0,0:0:0:0:
195,180,43058,6,0,P|147:194|98:187,1,100,4|8,2:1|0:0,0:0:0:0:
16,245,43690,2,0,P|22:295|24:345,1,100,2|8,0:0|0:0,0:0:0:0:
64,374,44163,1,0,0:0:0:0:
64,374,44321,2,0,P|114:368|164:366,1,100,2|8,0:0|0:0,0:0:0:0:
256,328,44953,2,0,L|256:278,2,50,2|2|8,0:0|0:0|0:0,0:0:0:0:
348,366,45584,6,0,P|398:368|448:374,1,100,4|8,2:1|0:0,0:0:0:0:
420,277,46216,2,0,P|413:227|427:180,1,100,2|8,0:0|0:0,0:0:0:0:
452,137,46690,1,0,0:0:0:0:
452,137,46848,2,0,P|402:143|352:145,1,100,2|8,0:0|0:0,0:0:0:0:
256,172,47479,2,0,L|256:222,2,50,2|2|8,0:0|0:0|0:0,0:0:0:0:
159,144,48111,6,0,P|109:142|60:137,1,100,4|8,2:1|0:0,0:0:0:0:
60,36,48742,2,0,P|109:30|159:28,1,100,2|8,0:0|0:0,0:0:0:0:
200,57,49216,1,2,0:0:0:0:
200,57,49374,2,0,P|250:64|297:50,1,100,2|8,0:0|0:0,0:0:0:0:
391,17,50005,2,0,P|441:10|488:24,1,100,2|8,0:0|0:0,0:0:0:0:
504,122,50637,6,0,P|498:171|496:221,1,100,6|8,0:0|0:0,0:0:0:0:
494,271,51111,1,2,0:0:0:0:
424,342,51427,1,2,0:0:0:0:
353,271,51742,2,0,P|303:264|255:280,1,100,2|2,0:0|0:0,0:0:0:0:
230,323,52216,2,0,P|182:338|133:332,1,100,8|2,0:0|0:0,0:0:0:0:
35,314,52848,1,8,0:0:0:0:
0,219,53163,5,6,0:0:0:0:
56,136,53479,2,0,P|105:142|155:144,1,100,8|2,0:0|0:0,0:0:0:0:
251,172,54111,1,8,0:0:0:0:
251,172,54269,2,0,P|300:170|350:164,1,100,4|2,0:0|0:0,0:0:0:0:
399,176,54742,1,8,0:0:0:0:
399,75,55058,2,0,P|353:55|303:57,1,100,2|8,0:0|0:0,0:0:0:0:
208,27,55690,6,0,P|158:26|108:20,1,100,2|8,0:0|0:0,0:0:0:0:
60,32,56163,2,0,P|40:78|42:128,1,100,2|2,0:0|0:0,0:0:0:0:
70,168,56637,1,8,0:0:0:0:
12,249,56953,2,0,P|18:298|19:348,1,100,2|8,0:0|0:0,0:0:0:0:
120,349,57584,2,0,P|121:299|127:249,1,100,2|8,0:0|0:0,0:0:0:0:
185,168,58216,5,2,0:0:0:0:
242,249,58532,2,0,P|248:299|250:349,1,100,8|2,0:0|0:0,0:0:0:0:
350,349,59163,1,8,0:0:0:0:
350,349,59321,2,0,P|351:299|357:249,1,100,4|2,0:0|0:0,0:0:0:0:
334,204,59795,1,8,0:0:0:0:
272,125,60111,2,0,P|270:75|290:29,1,100,2|8,0:0|0:0,0:0:0:0:
386,59,60742,6,0,P|435:57|485:51,1,100,2|8,0:0|0:0,0:0:0:0:
482,101,61216,2,0,P|475:150|474:200,1,100,2|2,0:0|0:0,0:0:0:0:
495,245,61690,1,8,0:0:0:0:
445,330,62005,2,0,P|399:349|349:348,1,100,2|8,0:0|0:0,0:0:0:0:
311,315,62479,2,0,P|261:313|215:333,1,100,2|2,0:0|0:0,0:0:0:0:
192,377,62953,1,8,0:0:0:0:
101,333,63269,6,0,P|51:326|1:324,1,100,2|8,0:0|0:0,0:0:0:0:
10,225,63900,2,0,P|59:218|109:216,1,100,2|8,0:0|0:0,0:0:0:0:
118,117,64532,2,0,P|117:67|136:21,1,100,2|8,0:0|0:0,0:0:0:0:
184,36,65005,2,0,P|233:38|283:44,1,100,2|2,0:0|0:0,0:0:0:0:
333,35,65479,1,2,0:0:0:0:
310,132,65795,5,4,0:0:0:0:
214,160,66111,2,0,P|216:209|222:259,1,100,8|2,0:0|0:0,0:0:0:0:
283,338,66742,1,8,0:0:0:0:
283,338,66900,2,0,P|330:352|380:347,1,100,2|2,0:0|0:0,0:0:0:0:
425,324,67374,1,8,0:0:0:0:
475,237,67690,1,2,0:0:0:0:
375,238,68005,1,8,0:0:0:0:
425,151,68321,6,0,P|430:101|416:53,1,100,4|8,0:0|0:0,0:0:0:0:
367,68,68795,2,0,P|317:74|267:76,1,100,2|2,0:0|0:0,0:0:0:0:
176,35,69427,2,0,P|126:28|76:26,1,100,2|2,0:0|0:0,0:0:0:0:
30,48,69900,1,8,0:0:0:0:
76,136,70216,2,0,L|125:131,2,50,2|2|8,0:0|0:0|0:0,0:0:0:0:
29,157,70690,6,0,P|35:206|37:256,1,100,2|2,0:0|0:0,0:0:0:0:
37,307,71163,2,0,P|83:325|132:324,1,100,8|2,0:0|0:0,0:0:0:0:
212,262,71795,1,8,0:0:0:0:
212,262,71953,2,0,P|214:212|220:162,1,100,2|2,0:0|0:0,0:0:0:0:
241,116,72427,1,8,0:0:0:0:
191,30,72742,2,0,L|142:25,2,50,2|2|8,0:0|0:0|0:0,0:0:0:0:
291,30,73374,6,0,P|340:28|390:22,1,100,6|8,0:0|0:0,0:0:0:0:
480,66,74005,2,0,P|498:112|497:161,1,100,2|8,0:0|0:0,0:0:0:0:
464,200,74479,1,4,0:0:0:0:
506,290,74795,1,4,0:0:0:0:
464,380,75111,2,0,P|414:381|368:363,1,100,4|2,0:0|0:0,0:0:0:0:
336,324,75584,1,2,0:0:0:0:
242,359,75900,5,4,0:0:0:0:
212,262,76216,2,0,P|217:212|219:162,1,100,8|2,0:0|0:0,0:0:0:0:
176,72,76848,1,8,0:0:0:0:
176,72,77005,2,0,P|126:66|76:64,1,100,2|2,0:0|0:0,0:0:0:0:
36,94,77479,1,8,0:0:0:0:
11,192,77795,1,2,0:0:0:0:
106,166,78111,1,8,0:0:0:0:
81,264,78427,6,0,P|79:313|97:359,1,100,4|8,0:0|0:0,0:0:0:0:
143,382,78900,1,2,0:0:0:0:
213,311,79216,1,2,0:0:0:0:
284,382,79532,2,0,P|334:376|384:374,1,100,2|2,0:0|0:0,0:0:0:0:
422,342,80005,1,8,0:0:0:0:
383,247,80321,2,0,P|333:245|284:240,1,100,2|8,0:0|0:0,0:0:0:0:
201,182,80953,6,0,P|154:163|105:165,1,100,4|8,0:0|0:0,0:0:0:0:
56,178,81427,2,0,P|54:128|48:78,1,100,2|2,0:0|0:0,0:0:0:0:
138,32,82058,2,0,P|187:37|237:39,1,100,2|2,0:0|0:0,0:0:0:0:
276,70,82532,1,8,0:0:0:0:
371,39,82848,2,0,P|420:32|467:47,1,100,2|8,0:0|0:0,0:0:0:0:
468,147,83479,6,0,P|420:161|371:155,1,100,2|8,0:0|0:0,0:0:0:0:
321,148,83953,2,0,P|315:197|313:247,1,100,2|2,0:0|0:0,0:0:0:0:
321,297,84427,1,8,0:0:0:0:
239,355,84742,2,0,P|189:349|139:347,1,100,2|2,0:0|0:0,0:0:0:0:
112,305,85216,1,2,0:0:0:0:
50,226,85532,2,0,L|0:230,2,50,2|2|2,0:0|0:0|0:0,0:0:0:0:
88,193,86005,5,4,2:1:0:0:
138,106,86321,2,0,P|185:91|234:97,1,100,8|2,0:0|0:0,0:0:0:0:
321,148,86953,1,8,0:0:0:0:
407,198,87269,2,0,P|456:204|504:190,1,100,2|8,0:0|0:0,0:0:0:0:
512,140,87742,2,0,P|510:90|504:40,1,100,2|2,0:0|0:0,0:0:0:0:
458,20,88216,1,8,0:0:0:0:
366,60,88532,5,2,0:0:0:0:
274,20,88848,2,0,P|224:21|174:27,1,100,8|2,0:0|0:0,0:0:0:0:
74,39,89479,1,8,0:0:0:0:
137,115,89795,2,0,P|151:162|145:211,1,100,2|8,0:0|0:0,0:0:0:0:
105,242,90269,2,0,P|98:291|112:338,1,100,2|2,0:0|0:0,0:0:0:0:
146,376,90742,1,8,0:0:0:0:
232,325,91058,5,4,2:1:0:0:
318,376,91374,2,0,P|367:370|417:369,1,100,8|2,0:0|0:0,0:0:0:0:
493,304,92005,1,8,0:0:0:0:
407,253,92321,2,0,P|357:258|307:259,1,100,2|8,0:0|0:0,0:0:0:0:
263,236,92795,2,0,P|249:189|255:140,1,100,2|2,0:0|0:0,0:0:0:0:
282,96,93269,1,8,0:0:0:0:
353,25,93584,5,2,0:0:0:0:
444,65,93900,2,0,P|444:114|450:164,1,100,8|2,0:0|0:0,0:0:0:0:
407,253,94532,1,8,0:0:0:0:
418,352,94848,2,0,P|368:358|321:344,1,100,2|8,0:0|0:0,0:0:0:0:
241,283,95479,2,0,P|191:276|144:290,1,100,2|8,0:0|0:0,0:0:0:0:
73,361,96111,5,4,2:1:0:0:
48,265,96427,2,0,P|53:215|54:165,1,100,8|2,0:0|0:0,0:0:0:0:
29,69,97058,1,8,0:0:0:0:
125,44,97374,2,0,P|174:49|224:50,1,100,2|8,0:0|0:0,0:0:0:0:
265,80,97848,2,0,P|271:129|257:176,1,100,2|2,0:0|0:0,0:0:0:0:
220,210,98321,1,8,0:0:0:0:
257,302,98637,5,2,0:0:0:0:
349,265,98953,2,0,P|398:264|448:258,1,100,8|2,0:0|0:0,0:0:0:0:
512,180,99584,1,8,0:0:0:0:
509,79,99900,2,0,P|459:84|409:85,1,100,2|8,0:0|0:0,0:0:0:0:
361,72,100374,2,0,P|311:65|264:79,1,100,2|2,0:0|0:0,0:0:0:0:
229,114,100848,1,8,0:0:0:0:
171,31,101163,5,4,2:1:0:0:
89,89,101479,2,0,P|88:138|82:188,1,100,8|2,0:0|0:0,0:0:0:0:
24,270,102111,1,8,0:0:0:0:
106,328,102427,2,0,P|154:338|203:329,1,100,2|8,0:0|0:0,0:0:0:0:
236,290,102900,2,0,P|284:279|333:291,1,100,2|2,0:0|0:0,0:0:0:0:
364,330,103374,1,8,0:0:0:0:
256,192,103690,12,4,106216,2:1:0:0:
