osu file format v14

[General]
AudioFilename: audio.mp3
AudioLeadIn: 0
PreviewTime: 65953
Countdown: 0
SampleSet: Soft
StackLeniency: 0.4
Mode: 0
LetterboxInBreaks: 0
WidescreenStoryboard: 1

[Editor]
DistanceSpacing: 0.56
BeatDivisor: 4
GridSize: 16
TimelineZoom: 2.1

[Metadata]
Title:bumpy-Jumpy!
TitleUnicode:bumpy-Jumpy!
Artist:KOTOKO
ArtistUnicode:KOTOKO
Creator:Dored
Version:Insane
Source:ナツユメナギサ
Tags:Natsuyume Nagisa Galgame Eroge Visual Novel Opening Short Version Saga Planets I've
BeatmapID:1724779
BeatmapSetID:822997

[Difficulty]
HPDrainRate:6.5
CircleSize:4
OverallDifficulty:8
ApproachRate:9
SliderMultiplier:1.7
SliderTickRate:2

[Events]
//Background and Video events
0,0,"Insane.jpg",0,0
//Break Periods
//Storyboard Layer 0 (Background)
//Storyboard Layer 1 (Fail)
//Storyboard Layer 2 (Pass)
//Storyboard Layer 3 (Foreground)
//Storyboard Sound Samples

[TimingPoints]
1369,315.789473684211,4,2,2,40,1,0
1369,-125,4,2,2,40,0,0
5158,317.460317460317,4,2,2,40,1,0
5158,-125,4,2,2,40,0,0
6427,315.789473684211,4,2,2,40,1,0
6427,-125,4,2,2,40,0,0
8953,-125,4,2,2,30,0,0
11400,-125,4,2,2,5,0,0
11479,-111.111111111111,4,2,1,50,0,0
21584,-100,4,2,1,60,0,0
32953,-100,4,2,1,50,0,0
43058,-100,4,2,1,55,0,0
53163,-100,4,2,1,50,0,0
58216,-100,4,2,1,55,0,0
60742,-100,4,2,1,60,0,0
63269,-100,4,2,1,65,0,0
65795,-90.9090909090909,4,2,1,70,0,1
66032,-90.9090909090909,4,2,1,5,0,1
66111,-90.9090909090909,4,2,1,70,0,1
75584,-90.9090909090909,4,2,1,70,0,0
75900,-90.9090909090909,4,2,1,70,0,1
76137,-90.9090909090909,4,2,1,5,0,1
76216,-90.9090909090909,4,2,1,70,0,1
86005,-100,4,2,1,60,0,0
104953,-100,4,2,1,70,0,0

[Colours]
Combo1 : 0,60,216
Combo2 : 0,160,160
Combo3 : 128,128,255
Combo4 : 160,0,96

[HitObjects]
112,320,1369,6,0,P|179:312|247:308,1,136,6|0,0:0|0:0,0:0:0:0:
304,231,1842,2,0,P|260:182|195:189,1,136,2|0,0:0|0:0,0:0:0:0:
101,209,2316,2,0,L|33:203,1,68,2|0,0:0|0:0,0:0:0:0:
21,75,2632,6,0,P|86:67|129:116,1,136,2|0,0:0|0:0,0:0:0:0:
195,189,3105,2,0,P|262:184|330:177,1,136,2|0,0:0|0:0,0:0:0:0:
398,245,3579,2,0,L|392:312,1,68,2|2,0:0|0:0,0:0:0:0:
466,177,3895,6,0,P|461:109|454:41,1,136,6|0,0:0|0:0,0:0:0:0:
367,83,4369,2,0,P|304:103|251:64,1,136,2|0,0:0|0:0,0:0:0:0:
161,34,4842,2,0,L|93:39,1,68,2|0,0:0|0:0,0:0:0:0:
58,176,5158,6,0,P|135:119|224:162,2,204,2|2|2,0:0|0:0|0:0,0:0:0:0:
145,213,6269,1,2,0:0:0:0:
251,64,6427,6,0,L|318:69,1,68,6|0,0:0|0:0,0:0:0:0:
391,7,6742,1,0,0:0:0:0:
318,69,6900,2,0,P|310:136|306:204,1,136,2|0,0:0|0:0,0:0:0:0:
368,278,7374,2,0,L|435:272,1,68,2|0,0:0|0:0,0:0:0:0:
294,340,7690,6,0,P|229:349|183:302,1,136,2|0,0:0|0:0,0:0:0:0:
145,213,8163,2,0,P|152:145|156:77,1,136,2|0,0:0|0:0,0:0:0:0:
72,32,8637,2,0,L|4:37,1,68,2|0,0:0|0:0,0:0:0:0:
145,213,8953,5,6,0:0:0:0:
171,215,10216,1,6,0:0:0:0:
198,217,11479,6,0,L|274:223,1,76.4999976654053,2|0,0:0|0:0,0:0:0:0:
344,304,11795,2,0,L|338:381,1,76.4999976654053,2|0,0:0|0:0,0:0:0:0:
425,234,12111,1,2,0:0:0:0:
355,153,12269,1,0,0:0:0:0:
436,83,12427,2,0,L|512:89,1,76.4999976654053,2|2,0:0|2:3,0:0:0:0:
366,2,12742,6,0,P|289:9|213:15,1,152.999995330811,2|0,0:0|0:0,0:0:0:0:
101,105,13216,2,0,P|178:112|254:118,1,152.999995330811,2|0,0:0|0:0,0:0:0:0:
274,223,13690,1,2,0:0:0:0:
193,293,13848,1,0,0:0:0:0:
350,229,14005,6,0,L|274:223,1,76.4999976654053,2|0,0:0|0:0,0:0:0:0:
193,293,14321,2,0,L|187:369,1,76.4999976654053,2|0,0:0|0:0,0:0:0:0:
80,383,14637,2,0,L|74:307,1,76.4999976654053,2|0,0:0|0:0,0:0:0:0:
123,212,14953,1,2,0:0:0:0:
193,293,15111,1,2,2:3:0:0:
46,218,15269,6,0,L|122:212,1,76.4999976654053,2|2,0:0|2:3,0:0:0:0:
204,143,15584,2,0,L|198:67,1,76.4999976654053,2|0,0:0|0:0,0:0:0:0:
104,12,15900,2,0,L|29:20,1,76.4999976654053,2|0,0:0|0:0,0:0:0:0:
104,119,16216,1,2,0:0:0:0:
197,66,16374,1,0,0:0:0:0:
274,223,16532,6,0,L|280:299,1,76.4999976654053,2|0,0:0|0:0,0:0:0:0:
363,368,16848,2,0,L|439:361,1,76.4999976654053,2|0,0:0|0:0,0:0:0:0:
508,278,17163,2,0,L|501:201,1,76.4999976654053,2|0,0:0|0:0,0:0:0:0:
419,133,17479,1,2,0:0:0:0:
487,51,17637,1,2,2:3:0:0:
350,50,17795,6,0,L|273:43,1,76.4999976654053,2|2,0:0|2:3,0:0:0:0:
419,133,18111,1,2,0:0:0:0:
350,216,18269,2,0,L|273:222,1,76.4999976654053,2|0,2:3|0:0,0:0:0:0:
204,304,18584,2,0,L|210:381,1,76.4999976654053,2|0,0:0|0:0,0:0:0:0:
121,235,18900,1,2,0:0:0:0:
25,346,19058,6,0,L|102:340,1,76.4999976654053,2|0,0:0|0:0,0:0:0:0:
204,304,19374,2,0,L|198:227,1,76.4999976654053,2|0,0:0|0:0,0:0:0:0:
137,139,19690,2,0,L|60:133,1,76.4999976654053,2|0,2:3|0:0,0:0:0:0:
244,130,20005,2,0,L|321:124,1,76.4999976654053,2|0,0:0|0:0,0:0:0:0:
183,42,20321,6,0,L|106:36,2,76.4999976654053,8|8|8,0:0|0:0|0:0,0:0:0:0:
243,130,20795,2,0,P|273:62|346:52,1,152.999995330811,2|8,0:0|0:0,0:0:0:0:
416,130,21269,1,2,0:0:0:0:
416,153,21348,1,2,0:0:0:0:
416,176,21427,1,2,0:0:0:0:
416,199,21505,1,2,0:0:0:0:
416,222,21584,6,0,P|331:212|246:207,1,170,4|8,0:0|0:0,0:0:0:0:
145,139,22058,2,0,P|65:137|25:208,1,170,0|2,0:0|0:0,0:0:0:0:
189,265,22532,1,8,0:0:0:0:
42,361,22690,1,0,0:0:0:0:
105,208,22848,6,0,P|114:292|119:377,2,170,2|8|2,0:0|0:0|0:0,0:0:0:0:
25,68,23637,1,2,0:0:0:0:
180,110,23795,1,8,0:0:0:0:
203,112,23874,1,0,0:0:0:0:
226,114,23953,1,0,0:0:0:0:
249,116,24032,1,0,0:0:0:0:
271,119,24111,6,0,P|342:80|340:0,1,170,4|8,0:0|0:0,0:0:0:0:
453,41,24584,2,0,P|443:125|438:210,1,170,0|2,0:0|0:0,0:0:0:0:
271,119,25058,1,8,0:0:0:0:
351,270,25216,1,0,0:0:0:0:
141,210,25374,6,0,P|225:199|310:194,2,170,2|8|2,0:0|0:0|0:0,0:0:0:0:
12,301,26163,1,2,0:0:0:0:
154,366,26321,1,8,0:0:0:0:
176,363,26400,1,0,0:0:0:0:
199,361,26479,1,0,0:0:0:0:
222,359,26558,1,0,0:0:0:0:
245,357,26637,6,0,P|247:314|252:272,1,85,4|0,0:0|0:0,0:0:0:0:
141,210,26953,1,8,0:0:0:0:
324,316,27111,2,0,P|326:273|331:231,1,85,0|2,0:0|0:0,0:0:0:0:
220,169,27427,1,2,0:0:0:0:
403,275,27584,2,0,P|405:232|410:190,1,85,8|0,0:0|0:0,0:0:0:0:
292,43,27900,6,0,P|296:85|298:127,1,85,2|0,0:0|0:0,0:0:0:0:
409,190,28216,1,8,0:0:0:0:
213,84,28374,2,0,P|217:126|219:168,1,85,0|2,0:0|0:0,0:0:0:0:
330,231,28690,1,2,0:0:0:0:
134,125,28848,2,0,P|138:167|140:209,1,85,8|0,0:0|0:0,0:0:0:0:
69,372,29163,6,0,P|111:368|153:366,1,85,2|2,0:0|0:0,0:0:0:0:
251,272,29479,1,8,0:0:0:0:
52,154,29637,2,0,P|64:73|138:37,1,170,2|2,0:0|0:0,0:0:0:0:
260,15,30111,2,0,P|302:10|344:8,1,85,8|0,0:0|0:0,0:0:0:0:
218,131,30427,6,0,P|175:129|133:124,1,85,2|2,0:0|0:0,0:0:0:0:
18,216,30742,2,0,P|14:258|12:300,1,85,8|0,0:0|0:0,0:0:0:0:
153,365,31058,2,0,P|157:323|159:281,1,85,2|2,0:0|0:0,0:0:0:0:
218,131,31374,1,8,0:0:0:0:
323,234,31532,1,0,0:0:0:0:
325,223,31611,1,2,0:0:0:0:
330,213,31690,6,0,P|287:214|245:219,1,85,2|0,0:0|3:0,0:0:0:0:
234,211,31927,1,0,3:0:0:0:
223,204,32005,2,0,P|159:198|96:191,1,127.5,2|2,0:0|0:0,0:0:0:0:
75,170,32321,1,2,0:0:0:0:
159,280,32479,1,2,0:0:0:0:
218,131,32637,1,2,0:0:0:0:
226,108,32716,1,2,0:0:0:0:
241,89,32795,1,2,0:0:0:0:
262,77,32874,1,2,0:0:0:0:
285,71,32953,6,0,L|370:65,1,85,4|0,2:1|0:0,0:0:0:0:
330,213,33269,1,8,0:0:0:0:
461,135,33427,2,0,P|471:219|476:304,1,170,2|2,0:0|0:0,0:0:0:0:
336,297,33900,2,0,P|332:255|330:213,1,85,8|0,0:0|0:0,0:0:0:0:
209,352,34216,6,0,P|127:359|74:296,1,170,2|8,0:0|0:0,0:0:0:0:
223,204,34690,1,0,0:0:0:0:
75,170,34848,1,2,0:0:0:0:
159,280,35005,1,2,0:0:0:0:
202,121,35163,2,0,L|286:127,1,85,8|0,0:0|0:0,0:0:0:0:
75,170,35479,6,0,L|68:85,1,85,4|0,2:1|0:0,0:0:0:0:
202,121,35795,1,8,0:0:0:0:
158,279,35953,2,0,P|241:303|308:256,1,170,2|2,0:0|0:0,0:0:0:0:
286,127,36427,2,0,L|201:120,1,85,8|0,0:0|0:0,0:0:0:0:
358,28,36742,6,0,P|435:56|459:134,1,170,2|8,0:0|0:0,0:0:0:0:
402,258,37216,1,0,0:0:0:0:
370,120,37374,1,2,0:0:0:0:
492,224,37532,1,2,0:0:0:0:
286,127,37690,2,0,L|371:120,1,85,8|0,0:0|0:0,0:0:0:0:
312,344,38005,6,0,L|305:259,1,85,4|0,2:1|0:0,0:0:0:0:
370,120,38321,1,8,0:0:0:0:
305,259,38479,1,0,0:0:0:0:
201,120,38637,2,0,L|208:205,1,85,2|2,0:0|0:0,0:0:0:0:
143,344,38953,1,8,0:0:0:0:
208,205,39111,1,0,0:0:0:0:
51,265,39269,6,0,L|136:258,1,85,2|0,0:0|0:0,0:0:0:0:
201,120,39584,2,0,L|116:127,1,85,8|0,0:0|0:0,0:0:0:0:
215,290,39900,1,2,0:0:0:0:
289,163,40058,1,2,0:0:0:0:
416,237,40216,2,0,L|423:322,1,85,8|2,0:0|0:0,0:0:0:0:
490,110,40532,6,0,L|497:25,1,85,6|2,0:0|0:0,0:0:0:0:
363,36,40848,1,8,0:0:0:0:
289,162,41005,2,0,P|289:80|227:26,1,170,2|2,0:0|0:0,0:0:0:0:
116,127,41479,2,0,L|201:120,1,85,8|0,0:0|0:0,0:0:0:0:
299,283,41795,6,0,L|214:290,1,85,2|2,0:0|0:0,0:0:0:0:
120,173,42111,1,0,3:0:0:0:
118,150,42190,1,0,3:0:0:0:
116,127,42269,1,0,3:0:0:0:
7,220,42427,1,2,0:0:0:0:
9,243,42505,1,0,3:0:0:0:
11,266,42584,1,0,3:0:0:0:
154,356,42742,1,2,0:0:0:0:
177,348,42821,1,0,3:0:0:0:
195,333,42900,1,0,3:0:0:0:
208,312,42979,1,0,3:0:0:0:
214,289,43058,6,0,L|220:204,1,85,4|0,2:1|0:0,0:0:0:0:
296,101,43374,1,8,0:0:0:0:
193,24,43532,2,0,P|109:34|24:39,1,170,2|2,0:0|0:0,0:0:0:0:
116,127,44005,2,0,P|158:128|200:133,1,85,8|0,0:0|0:0,0:0:0:0:
382,120,44321,6,0,P|357:41|279:16,1,170,2|8,0:0|0:0,0:0:0:0:
116,127,44795,1,0,0:0:0:0:
296,101,44953,2,0,L|302:185,1,85,2|2,0:0|0:0,0:0:0:0:
214,289,45269,1,8,0:0:0:0:
388,204,45427,1,2,0:0:0:0:
294,347,45584,6,0,L|378:340,1,85,4|0,2:1|0:0,0:0:0:0:
302,185,45900,1,8,0:0:0:0:
444,273,46058,2,0,P|475:197|432:127,1,170,2|2,0:0|0:0,0:0:0:0:
296,101,46532,2,0,L|302:185,1,85,8|0,0:0|0:0,0:0:0:0:
158,358,46848,6,0,P|126:282|169:212,1,170,2|8,0:0|0:0,0:0:0:0:
302,185,47321,1,0,0:0:0:0:
162,128,47479,2,0,L|78:134,1,85,2|2,0:0|0:0,0:0:0:0:
296,101,47795,1,8,0:0:0:0:
168,212,47953,1,2,0:0:0:0:
156,44,48111,5,4,2:1:0:0:
296,101,48269,1,2,0:0:0:0:
168,212,48427,1,8,0:0:0:0:
245,320,48584,2,0,P|326:331|383:273,1,170,2|2,0:0|0:0,0:0:0:0:
452,171,49058,2,0,L|458:87,1,85,8|2,0:0|0:0,0:0:0:0:
289,16,49374,6,0,L|295:100,1,85,2|0,0:0|0:0,0:0:0:0:
383,273,49690,2,0,L|377:189,1,85,8|0,0:0|0:0,0:0:0:0:
232,156,50005,1,2,0:0:0:0:
373,92,50163,1,2,0:0:0:0:
238,240,50321,2,0,L|232:156,1,85,8|0,0:0|0:0,0:0:0:0:
379,7,50637,6,0,L|373:91,1,85,6|2,0:0|0:0,0:0:0:0:
231,155,50953,1,8,0:0:0:0:
167,14,51111,2,0,P|92:48|78:129,1,170,2|2,0:0|0:0,0:0:0:0:
231,155,51584,2,0,L|315:161,1,85,8|2,0:0|0:0,0:0:0:0:
141,219,51900,5,2,0:0:0:0:
245,325,52058,1,2,0:0:0:0:
57,367,52216,2,0,L|51:283,1,85,8|2,0:0|0:0,0:0:0:0:
245,325,52532,2,0,L|161:331,1,85,2|2,0:0|0:0,0:0:0:0:
141,219,52848,1,8,0:0:0:0:
295,245,53005,2,0,L|337:241,1,42.5,2|0,0:0|0:0,0:0:0:0:
437,121,53163,5,6,0:0:0:0:
437,121,53479,2,0,L|444:205,1,85,8|0,0:0|0:0,0:0:0:0:
345,325,53795,2,0,L|337:240,1,85,0|0,3:0|3:0,0:0:0:0:
451,289,54111,1,8,0:0:0:0:
328,155,54269,6,0,P|247:172|215:248,1,170,4|2,0:0|0:0,0:0:0:0:
121,361,54742,2,0,L|113:276,1,85,8|0,0:0|0:0,0:0:0:0:
45,179,55058,1,0,3:0:0:0:
164,169,55216,1,0,3:0:0:0:
96,71,55374,2,0,L|11:78,1,85,8|0,0:0|3:0,0:0:0:0:
194,3,55690,6,0,L|278:10,1,85,2|0,0:0|0:0,0:0:0:0:
390,53,56005,1,8,0:0:0:0:
328,155,56163,2,0,P|412:144|497:138,1,170,2|2,0:0|0:0,0:0:0:0:
466,24,56637,2,0,P|424:29|389:53,1,85,8|0,0:0|0:0,0:0:0:0:
334,239,56953,6,0,P|332:196|327:154,1,85,2|2,0:0|0:0,0:0:0:0:
278,10,57269,1,8,0:0:0:0:
389,52,57427,1,2,0:0:0:0:
216,113,57584,2,0,P|173:111|131:106,1,85,2|2,0:0|0:0,0:0:0:0:
20,65,57900,1,8,0:0:0:0:
39,181,58058,2,0,L|39:223,1,42.5,2|0,0:0|0:0,0:0:0:0:
20,339,58216,5,2,0:0:0:0:
20,339,58532,2,0,L|104:346,1,85,8|0,0:0|0:0,0:0:0:0:
221,376,58848,2,0,L|305:369,1,85,0|0,3:0|3:0,0:0:0:0:
394,278,59163,1,8,0:0:0:0:
193,256,59321,6,0,P|167:177|217:111,1,170,4|2,0:0|0:0,0:0:0:0:
337,199,59795,2,0,L|253:192,1,85,8|0,0:0|0:0,0:0:0:0:
130,119,60111,2,0,L|214:112,1,85,2|2,0:0|0:0,0:0:0:0:
60,202,60427,1,8,0:0:0:0:
99,46,60584,1,2,0:0:0:0:
111,44,60663,1,2,0:0:0:0:
124,43,60742,6,0,L|208:36,1,85,2|0,0:0|0:0,0:0:0:0:
315,90,61058,1,8,0:0:0:0:
252,191,61216,2,0,P|263:275|269:360,1,170,2|2,0:0|0:0,0:0:0:0:
376,308,61690,1,8,0:0:0:0:
483,360,61848,1,2,0:0:0:0:
485,348,61927,1,2,0:0:0:0:
486,335,62005,6,0,P|488:292|493:250,1,85,2|0,0:0|0:0,0:0:0:0:
346,199,62321,1,8,0:0:0:0:
459,103,62479,2,0,P|389:59|314:89,1,170,2|2,0:0|0:0,0:0:0:0:
252,191,62953,1,8,0:0:0:0:
130,119,63111,1,2,0:0:0:0:
118,121,63190,1,2,0:0:0:0:
105,122,63269,6,0,L|21:129,1,85,2|0,0:0|0:0,0:0:0:0:
34,276,63584,2,0,L|118:283,1,85,8|0,0:0|0:0,0:0:0:0:
252,191,63900,1,2,0:0:0:0:
105,122,64058,1,2,0:0:0:0:
119,284,64216,2,0,L|126:368,1,85,8|0,0:0|0:0,0:0:0:0:
252,191,64532,6,0,L|336:198,1,85,2|2,0:0|0:0,0:0:0:0:
448,287,64848,1,8,0:0:0:0:
469,145,65005,1,2,0:0:0:0:
461,121,65084,1,2,0:0:0:0:
446,103,65163,1,2,0:0:0:0:
336,198,65321,1,2,0:0:0:0:
220,109,65479,1,2,0:0:0:0:
210,86,65558,1,2,0:0:0:0:
210,61,65637,1,2,0:0:0:0:
216,39,65716,1,2,0:0:0:0:
230,19,65795,6,0,P|276:13|323:10,1,93.5000028533936,4|0,0:0|0:0,0:0:0:0:
469,145,66111,2,0,P|475:191|478:238,1,93.5000028533936,8|0,0:0|0:0,0:0:0:0:
372,339,66427,1,2,0:0:0:0:
336,198,66584,2,0,P|290:204|243:207,1,93.5000028533936,2|8,0:0|0:0,0:0:0:0:
57,249,66900,6,0,P|67:338|147:378,1,187.000005706787,2|2,0:0|0:0,0:0:0:0:
252,299,67374,2,0,P|249:252|243:206,1,93.5000028533936,8|0,0:0|0:0,0:0:0:0:
128,134,67690,1,2,0:0:0:0:
57,249,67848,1,2,0:0:0:0:
120,41,68005,2,0,P|126:87|128:134,1,93.5000028533936,8|0,0:0|0:0,0:0:0:0:
336,198,68321,6,0,P|326:109|246:69,1,187.000005706787,4|8,0:0|0:0,0:0:0:0:
128,134,68795,2,0,P|130:180|136:226,1,93.5000028533936,0|2,0:0|0:0,0:0:0:0:
252,299,69111,1,2,0:0:0:0:
336,198,69269,1,8,0:0:0:0:
444,340,69427,6,0,P|454:247|460:153,1,187.000005706787,2|2,0:0|0:0,0:0:0:0:
336,198,69900,2,0,P|290:204|243:207,1,93.5000028533936,8|0,0:0|0:0,0:0:0:0:
128,134,70216,1,2,0:0:0:0:
245,68,70374,1,2,0:0:0:0:
136,227,70532,1,8,0:0:0:0:
106,55,70690,1,2,0:0:0:0:
128,57,70769,1,2,0:0:0:0:
151,59,70848,6,0,L|244:67,1,93.5000028533936,4|0,0:0|0:0,0:0:0:0:
443,82,71163,2,0,P|357:110|335:197,1,187.000005706787,8|2,0:0|0:0,0:0:0:0:
244,67,71637,1,2,0:0:0:0:
426,175,71795,1,8,0:0:0:0:
351,383,71953,6,0,P|341:290|335:196,1,187.000005706787,2|2,0:0|0:0,0:0:0:0:
244,67,72427,2,0,P|241:113|235:159,1,93.5000028533936,8|0,0:0|0:0,0:0:0:0:
426,175,72742,1,2,0:0:0:0:
252,264,72900,1,2,0:0:0:0:
351,383,73058,2,0,P|397:376|443:374,1,93.5000028533936,8|0,0:0|0:0,0:0:0:0:
252,264,73374,6,0,P|206:257|160:255,1,93.5000028533936,6|2,0:0|0:0,0:0:0:0:
417,267,73690,2,0,P|424:220|425:174,1,93.5000028533936,8|2,0:0|0:0,0:0:0:0:
244,67,74005,1,2,0:0:0:0:
335,196,74163,1,2,0:0:0:0:
401,52,74321,1,8,0:0:0:0:
141,150,74479,6,0,P|187:151|233:158,1,93.5000028533936,4|0,0:0|0:0,0:0:0:0:
493,61,74795,2,0,P|446:53|400:52,1,93.5000028533936,4|0,0:0|0:0,0:0:0:0:
335,196,75111,1,4,0:0:0:0:
151,57,75269,2,0,P|197:59|244:67,1,93.5000028533936,2|2,0:0|0:0,0:0:0:0:
39,171,75584,1,2,0:0:0:0:
36,196,75663,1,2,0:0:0:0:
40,221,75742,1,2,0:0:0:0:
49,245,75821,1,2,0:0:0:0:
66,264,75900,6,0,P|112:260|159:255,1,93.5000028533936,4|0,0:0|0:0,0:0:0:0:
335,196,76216,2,0,P|329:242|326:289,1,93.5000028533936,8|0,0:0|0:0,0:0:0:0:
233,158,76532,1,2,0:0:0:0:
167,347,76690,2,0,P|120:351|73:355,1,93.5000028533936,2|8,0:0|0:0,0:0:0:0:
313,381,77005,6,0,P|397:348|414:260,1,187.000005706787,2|2,0:0|0:0,0:0:0:0:
326,102,77479,2,0,P|331:148|334:195,1,93.5000028533936,8|0,0:0|0:0,0:0:0:0:
504,234,77795,1,2,0:0:0:0:
326,288,77953,1,2,0:0:0:0:
495,140,78111,2,0,P|500:186|503:233,1,93.5000028533936,8|0,0:0|0:0,0:0:0:0:
233,158,78427,6,0,P|142:152|90:224,1,187.000005706787,4|8,0:0|0:0,0:0:0:0:
232,296,78900,2,0,P|278:291|325:288,1,93.5000028533936,0|2,0:0|0:0,0:0:0:0:
503,233,79216,1,2,0:0:0:0:
334,195,79374,1,8,0:0:0:0:
456,41,79532,6,0,P|362:46|269:56,1,187.000005706787,2|2,0:0|0:0,0:0:0:0:
100,17,80005,1,8,0:0:0:0:
233,158,80163,1,0,0:0:0:0:
38,129,80321,2,0,P|84:124|131:121,1,93.5000028533936,2|2,0:0|0:0,0:0:0:0:
232,296,80637,2,0,P|185:293|138:287,1,93.5000028533936,8|0,0:0|0:0,0:0:0:0:
269,55,80953,6,0,P|357:68|393:150,1,187.000005706787,4|8,0:0|0:0,0:0:0:0:
325,288,81427,2,0,P|278:290|231:296,1,93.5000028533936,0|2,0:0|0:0,0:0:0:0:
36,249,81742,1,2,0:0:0:0:
233,158,81900,1,8,0:0:0:0:
21,62,82058,6,0,P|30:154|35:248,1,187.000005706787,2|2,0:0|0:0,0:0:0:0:
130,380,82532,2,0,P|132:333|138:286,1,93.5000028533936,8|0,0:0|0:0,0:0:0:0:
233,158,82848,2,0,P|186:155|139:149,1,93.5000028533936,2|2,0:0|0:0,0:0:0:0:
21,62,83163,2,0,P|67:59|114:53,1,93.5000028533936,8|0,0:0|0:0,0:0:0:0:
265,2,83479,5,2,0:0:0:0:
139,149,83637,1,2,0:0:0:0:
327,96,83795,2,0,P|373:99|420:105,1,93.5000028533936,8|2,0:0|0:0,0:0:0:0:
139,149,84111,1,2,0:0:0:0:
320,221,84269,1,2,0:0:0:0:
137,286,84427,2,0,P|91:283|44:277,1,93.5000028533936,8|2,0:0|0:0,0:0:0:0:
318,358,84742,5,2,0:0:0:0:
230,185,84900,1,2,0:0:0:0:
411,257,85058,1,2,0:0:0:0:
334,34,85216,2,0,P|324:127|319:220,1,187.000005706787,2|2,0:0|0:0,0:0:0:0:
415,353,85690,1,2,0:0:0:0:
221,363,85848,1,2,0:0:0:0:
411,257,86005,6,0,P|452:187|411:118,1,170,4|8,2:1|0:0,0:0:0:0:
230,185,86479,1,0,0:0:0:0:
334,34,86637,2,0,L|327:118,1,85,2|2,0:0|0:0,0:0:0:0:
236,269,86953,2,0,L|229:184,1,85,8|2,0:0|0:0,0:0:0:0:
164,19,87269,6,0,P|249:29|334:34,1,170,2|8,0:0|0:0,0:0:0:0:
229,184,87742,2,0,P|144:174|59:169,1,170,2|2,0:0|0:0,0:0:0:0:
37,41,88216,1,8,0:0:0:0:
164,19,88374,1,2,0:0:0:0:
59,169,88532,6,0,P|36:246|94:302,1,170,2|8,0:0|0:0,0:0:0:0:
236,269,89005,1,0,0:0:0:0:
336,376,89163,2,0,L|420:368,1,85,2|2,0:0|0:0,0:0:0:0:
462,228,89479,2,0,L|377:235,1,85,8|2,0:0|0:0,0:0:0:0:
225,132,89795,6,0,P|188:204|236:269,1,170,2|8,0:0|0:0,0:0:0:0:
377,234,90269,2,0,P|387:149|392:64,1,170,2|2,0:0|0:0,0:0:0:0:
273,14,90742,1,8,0:0:0:0:
225,132,90900,1,2,0:0:0:0:
73,0,91058,6,0,P|63:85|58:170,1,170,4|8,2:1|0:0,0:0:0:0:
94,302,91532,1,0,0:0:0:0:
235,268,91690,2,0,L|319:276,1,85,2|2,0:0|0:0,0:0:0:0:
142,177,92005,2,0,L|58:169,1,85,8|2,0:0|0:0,0:0:0:0:
225,55,92321,6,0,P|296:92|294:173,1,170,2|8,0:0|0:0,0:0:0:0:
142,177,92795,2,0,P|132:92|127:7,1,170,2|2,0:0|0:0,0:0:0:0:
22,100,93269,1,8,0:0:0:0:
225,55,93427,1,2,0:0:0:0:
101,248,93584,6,0,P|181:249|219:178,1,170,2|8,0:0|0:0,0:0:0:0:
127,7,94058,1,0,0:0:0:0:
218,176,94216,2,0,L|302:184,1,85,2|2,0:0|0:0,0:0:0:0:
309,46,94532,2,0,L|225:54,1,85,8|2,0:0|0:0,0:0:0:0:
427,121,94848,6,0,L|419:37,1,85,2|2,0:0|0:0,0:0:0:0:
302,184,95163,2,0,L|310:268,1,85,8|2,0:0|0:0,0:0:0:0:
399,375,95479,1,2,0:0:0:0:
420,361,95558,1,0,3:0:0:0:
433,341,95637,1,0,3:0:0:0:
310,268,95795,1,2,0:0:0:0:
285,262,95874,1,0,3:0:0:0:
260,266,95953,1,0,3:0:0:0:
240,276,96032,1,0,3:0:0:0:
220,289,96111,6,0,P|141:268|124:189,1,170,4|8,2:1|0:0,0:0:0:0:
224,54,96584,1,0,0:0:0:0:
318,183,96742,2,0,L|310:267,1,85,2|2,0:0|0:0,0:0:0:0:
123,189,97058,2,0,L|131:105,1,85,8|2,0:0|0:0,0:0:0:0:
334,46,97374,6,0,P|368:119|319:182,1,170,2|8,0:0|0:0,0:0:0:0:
123,189,97848,2,0,P|73:252|105:330,1,170,2|2,0:0|0:0,0:0:0:0:
286,359,98321,1,8,0:0:0:0:
156,265,98479,1,2,0:0:0:0:
317,182,98637,6,0,P|401:176|486:167,1,170,2|8,0:0|0:0,0:0:0:0:
389,288,99111,1,0,0:0:0:0:
240,273,99269,2,0,L|156:265,1,85,2|2,0:0|0:0,0:0:0:0:
203,101,99584,2,0,L|287:109,1,85,8|2,0:0|0:0,0:0:0:0:
389,288,99900,6,0,P|398:203|403:118,1,170,2|8,0:0|0:0,0:0:0:0:
311,15,100374,2,0,P|230:25|203:101,1,170,2|2,0:0|0:0,0:0:0:0:
317,182,100848,1,8,0:0:0:0:
408,19,101005,1,2,0:0:0:0:
202,100,101163,6,0,P|211:184|216:269,1,170,4|8,2:1|0:0,0:0:0:0:
304,354,101637,1,0,0:0:0:0:
134,340,101795,2,0,L|50:348,1,85,2|2,0:0|0:0,0:0:0:0:
41,192,102111,2,0,L|125:184,1,85,8|2,0:0|0:0,0:0:0:0:
317,182,102427,6,0,P|383:229|380:310,1,170,2|8,0:0|0:0,0:0:0:0:
216,269,102900,2,0,P|211:184|202:100,1,170,2|2,0:0|0:0,0:0:0:0:
327,3,103374,2,0,P|370:5|412:10,1,85,8|0,0:0|0:0,0:0:0:0:
317,182,103690,5,2,0:0:0:0:
201,99,103848,1,2,0:0:0:0:
216,269,104005,2,0,P|220:311|222:353,1,85,8|2,0:0|0:0,0:0:0:0:
317,182,104321,1,2,0:0:0:0:
433,265,104479,1,2,0:0:0:0:
418,95,104637,2,0,P|414:53|412:11,1,85,8|2,0:0|0:0,0:0:0:0:
317,182,104953,5,2,0:0:0:0:
433,265,105111,1,2,0:0:0:0:
216,269,105269,1,2,0:0:0:0:
285,73,105427,2,0,P|225:17|145:35,1,170,2|2,0:0|0:0,0:0:0:0:
100,186,105900,1,2,0:0:0:0:
201,99,106058,1,2,0:0:0:0:
325,267,106216,5,4,2:1:0:0:
