osu file format v14

[General]
AudioFilename: audio.mp3
AudioLeadIn: 0
PreviewTime: 65953
Countdown: 0
SampleSet: Soft
StackLeniency: 0.5
Mode: 0
LetterboxInBreaks: 0
WidescreenStoryboard: 1

[Editor]
DistanceSpacing: 1.3
BeatDivisor: 4
GridSize: 16
TimelineZoom: 2.1

[Metadata]
Title:bumpy-Jumpy!
TitleUnicode:bumpy-Jumpy!
Artist:KOTOKO
ArtistUnicode:KOTOKO
Creator:Dored
Version:Hard
Source:ナツユメナギサ
Tags:Natsuyume Nagisa Galgame Eroge Visual Novel Opening Short Version Saga Planets I've
BeatmapID:1724778
BeatmapSetID:822997

[Difficulty]
HPDrainRate:6
CircleSize:3.8
OverallDifficulty:7
ApproachRate:8
SliderMultiplier:1.4
SliderTickRate:2

[Events]
//Background and Video events
0,0,"Hard.jpg",0,0
//Break Periods
//Storyboard Layer 0 (Background)
//Storyboard Layer 1 (Fail)
//Storyboard Layer 2 (Pass)
//Storyboard Layer 3 (Foreground)
//Storyboard Sound Samples

[TimingPoints]
1369,315.789473684211,4,2,2,40,1,0
1369,-125,4,2,2,40,0,0
5158,317.460317460317,4,2,2,40,1,0
5158,-125,4,2,2,40,0,0
6427,315.789473684211,4,2,2,40,1,0
6427,-125,4,2,2,40,0,0
8953,-125,4,2,2,30,0,0
11400,-125,4,2,2,5,0,0
11479,-111.111111111111,4,2,1,50,0,0
21584,-111.111111111111,4,2,1,60,0,0
32953,-111.111111111111,4,2,1,50,0,0
43058,-111.111111111111,4,2,1,55,0,0
53163,-111.111111111111,4,2,1,50,0,0
58216,-111.111111111111,4,2,1,55,0,0
60742,-111.111111111111,4,2,1,60,0,0
63269,-111.111111111111,4,2,1,65,0,0
65795,-100,4,2,1,70,0,1
66032,-100,4,2,1,5,0,1
66111,-100,4,2,1,70,0,1
75584,-100,4,2,1,70,0,0
75900,-100,4,2,1,70,0,1
76137,-100,4,2,1,5,0,1
76216,-100,4,2,1,70,0,1
86005,-111.111111111111,4,2,1,60,0,0
104953,-111.111111111111,4,2,1,70,0,0

[Colours]
Combo1 : 0,60,216
Combo2 : 0,160,160
Combo3 : 128,128,255
Combo4 : 160,0,96

[HitObjects]
416,48,1369,6,0,P|410:103|406:159,1,112,6|0,0:0|0:0,0:0:0:0:
336,138,1842,2,0,P|281:133|243:171,1,112,2|0,0:0|0:0,0:0:0:0:
255,244,2316,2,0,L|259:299,1,56,2|0,0:0|0:0,0:0:0:0:
224,364,2632,5,2,0:0:0:0:
224,364,3579,1,2,0:0:0:0:
158,333,3737,1,2,0:0:0:0:
99,375,3895,6,0,P|52:347|43:293,1,112,6|0,0:0|0:0,0:0:0:0:
71,226,4369,2,0,P|126:232|182:236,1,112,2|0,0:0|0:0,0:0:0:0:
255,244,4842,2,0,L|310:240,1,56,2|0,0:0|0:0,0:0:0:0:
347,303,5158,5,2,0:0:0:0:
347,303,6110,1,2,0:0:0:0:
420,303,6269,1,2,0:0:0:0:
456,239,6427,6,0,P|452:183|445:127,1,112,6|0,0:0|0:0,0:0:0:0:
408,64,6900,2,0,P|356:83|309:56,1,112,2|0,0:0|0:0,0:0:0:0:
243,24,7374,2,0,L|188:28,1,56,2|0,0:0|0:0,0:0:0:0:
126,71,7690,6,0,P|78:44|27:63,1,112,2|0,0:0|0:0,0:0:0:0:
8,134,8163,2,0,P|14:189|18:245,1,112,2|0,0:0|0:0,0:0:0:0:
56,307,8637,2,0,L|111:311,1,56,2|0,0:0|0:0,0:0:0:0:
168,265,8953,5,6,0:0:0:0:
168,265,10216,1,6,0:0:0:0:
168,265,11479,6,0,P|226:246|281:274,1,125.999996154785,2|2,0:0|0:0,0:0:0:0:
295,354,11953,1,0,0:0:0:0:
357,302,12111,2,0,L|419:296,1,62.9999980773926,2|0,0:0|0:0,0:0:0:0:
405,216,12427,2,0,L|342:221,1,62.9999980773926,2|2,0:0|2:3,0:0:0:0:
267,194,12742,6,0,P|262:131|256:68,1,125.999996154785,2|0,0:0|0:0,0:0:0:0:
305,2,13216,2,0,P|366:0|411:40,1,125.999996154785,2|0,0:0|0:0,0:0:0:0:
406,122,13690,1,2,0:0:0:0:
338,78,13848,1,2,0:0:0:0:
256,68,14005,6,0,P|193:73|130:78,1,125.999996154785,2|2,0:0|0:0,0:0:0:0:
48,68,14479,1,0,0:0:0:0:
79,143,14637,2,0,L|74:206,1,62.9999980773926,2|0,0:0|0:0,0:0:0:0:
21,268,14953,2,0,L|27:330,1,62.9999980773926,2|2,0:0|2:3,0:0:0:0:
90,383,15269,5,2,0:0:0:0:
143,320,15427,2,0,L|136:257,2,62.9999980773926,2|2|0,2:3|0:0|0:0,0:0:0:0:
207,373,15900,2,0,L|269:366,1,62.9999980773926,2|0,0:0|0:0,0:0:0:0:
322,304,16216,2,0,L|384:310,1,62.9999980773926,2|0,0:0|0:0,0:0:0:0:
434,376,16532,6,0,P|466:324|454:265,1,125.999996154785,2|2,0:0|0:0,0:0:0:0:
379,227,17005,1,0,0:0:0:0:
305,191,17163,2,0,L|242:197,1,62.9999980773926,2|0,0:0|0:0,0:0:0:0:
171,153,17479,2,0,L|108:147,1,62.9999980773926,2|2,0:0|2:3,0:0:0:0:
90,66,17795,6,0,P|135:25|195:27,1,125.999996154785,2|0,0:0|0:0,0:0:0:0:
268,70,18269,2,0,P|323:97|381:79,1,125.999996154785,2|0,2:3|0:0,0:0:0:0:
432,16,18742,1,2,0:0:0:0:
495,68,18900,1,2,0:0:0:0:
444,131,19058,6,0,L|450:194,1,62.9999980773926,2|0,0:0|0:0,0:0:0:0:
512,247,19374,2,0,L|506:310,1,62.9999980773926,2|0,0:0|0:0,0:0:0:0:
424,316,19690,2,0,L|361:322,1,62.9999980773926,2|0,2:3|0:0,0:0:0:0:
308,384,20005,2,0,L|245:378,1,62.9999980773926,2|0,0:0|0:0,0:0:0:0:
190,316,20321,6,0,P|127:321|64:326,1,125.999996154785,8|8,0:0|0:0,0:0:0:0:
58,243,20795,2,0,P|121:238|184:233,1,125.999996154785,2|8,0:0|0:0,0:0:0:0:
257,269,21269,1,2,0:0:0:0:
324,222,21427,1,2,0:0:0:0:
324,222,21505,1,2,0:0:0:0:
324,222,21584,6,0,P|337:161|305:109,1,125.999996154785,4|8,0:0|0:0,0:0:0:0:
231,145,22058,2,0,P|168:150|105:155,1,125.999996154785,2|2,0:0|0:0,0:0:0:0:
26,132,22532,2,0,L|20:69,1,62.9999980773926,8|0,0:0|0:0,0:0:0:0:
94,32,22848,6,0,L|157:26,1,62.9999980773926,2|0,0:0|0:0,0:0:0:0:
230,63,23163,1,8,0:0:0:0:
303,27,23321,2,0,P|364:19|413:55,1,125.999996154785,2|2,0:0|0:0,0:0:0:0:
392,135,23795,1,8,0:0:0:0:
470,113,23953,1,2,0:0:0:0:
449,193,24111,6,0,P|392:216|334:194,1,125.999996154785,4|8,0:0|0:0,0:0:0:0:
313,114,24584,2,0,P|263:150|253:211,1,125.999996154785,2|2,0:0|0:0,0:0:0:0:
309,271,25058,2,0,L|303:334,1,62.9999980773926,8|0,0:0|0:0,0:0:0:0:
237,382,25374,6,0,L|174:376,1,62.9999980773926,2|0,0:0|0:0,0:0:0:0:
92,368,25690,1,8,0:0:0:0:
139,301,25848,2,0,P|153:241|121:188,1,125.999996154785,2|2,0:0|0:0,0:0:0:0:
71,254,26321,1,8,0:0:0:0:
3,207,26479,1,2,0:0:0:0:
53,141,26637,6,0,P|48:78|43:15,1,125.999996154785,4|8,0:0|0:0,0:0:0:0:
123,28,27111,2,0,P|186:33|249:38,1,125.999996154785,2|2,0:0|0:0,0:0:0:0:
256,118,27584,2,0,L|193:112,1,62.9999980773926,8|0,0:0|0:0,0:0:0:0:
201,193,27900,6,0,P|264:198|327:203,1,125.999996154785,2|8,0:0|0:0,0:0:0:0:
385,144,28374,2,0,P|380:81|375:18,1,125.999996154785,2|2,0:0|0:0,0:0:0:0:
456,26,28848,2,0,L|461:88,1,62.9999980773926,8|0,0:0|0:0,0:0:0:0:
477,169,29163,6,0,P|501:225|479:282,1,125.999996154785,2|8,0:0|0:0,0:0:0:0:
420,340,29637,2,0,P|396:284|418:227,1,125.999996154785,2|2,0:0|0:0,0:0:0:0:
479,282,30111,1,8,0:0:0:0:
500,361,30269,1,2,0:0:0:0:
420,340,30427,6,0,P|362:318|306:342,1,125.999996154785,2|8,0:0|0:0,0:0:0:0:
226,364,30900,2,0,P|163:359|100:354,1,125.999996154785,2|2,0:0|0:0,0:0:0:0:
142,281,31374,1,8,0:0:0:0:
217,244,31532,6,0,L|248:241,2,31.4999990386963,2|2|2,0:0|0:0|0:0,0:0:0:0:
142,200,31848,2,0,L|110:197,2,31.4999990386963,0|0|2,3:0|3:0|0:0,0:0:0:0:
213,159,32163,2,0,L|244:156,2,31.4999990386963,0|0|2,3:0|3:0|0:0,0:0:0:0:
142,119,32479,1,2,0:0:0:0:
213,78,32637,6,0,L|244:75,3,31.4999990386963,2|2|2|2,0:0|0:0|0:0|0:0,0:0:0:0:
284,84,32953,6,0,P|322:131|317:192,1,125.999996154785,4|8,2:1|0:0,0:0:0:0:
289,270,33427,2,0,P|283:331|322:378,1,125.999996154785,2|2,0:0|0:0,0:0:0:0:
363,307,33900,2,0,B|425:301,1,62.9999980773926,8|0,0:0|0:0,0:0:0:0:
499,338,34216,6,0,P|504:276|465:229,1,125.999996154785,2|8,0:0|0:0,0:0:0:0:
399,180,34690,1,0,0:0:0:0:
347,114,34848,2,0,B|342:52,1,62.9999980773926,2|2,0:0|0:0,0:0:0:0:
423,39,35163,2,0,B|429:102,1,62.9999980773926,8|0,0:0|0:0,0:0:0:0:
399,180,35479,6,0,P|340:197|285:169,1,125.999996154785,4|8,2:1|0:0,0:0:0:0:
232,107,35953,2,0,P|177:78|118:96,1,125.999996154785,2|2,0:0|0:0,0:0:0:0:
170,162,36427,2,0,B|165:224,1,62.9999980773926,8|0,0:0|0:0,0:0:0:0:
102,279,36742,6,0,P|156:307|215:289,1,125.999996154785,2|8,0:0|0:0,0:0:0:0:
288,250,37216,1,0,0:0:0:0:
359,294,37374,2,0,B|421:299,1,62.9999980773926,2|2,0:0|0:0,0:0:0:0:
416,382,37690,2,0,B|354:377,1,62.9999980773926,8|0,0:0|0:0,0:0:0:0:
282,333,38005,6,0,P|231:367|170:357,1,125.999996154785,4|8,2:1|0:0,0:0:0:0:
215,289,38479,1,0,0:0:0:0:
288,250,38637,2,0,P|298:189|263:138,1,125.999996154785,2|8,0:0|0:0,0:0:0:0:
218,207,39111,1,0,0:0:0:0:
148,160,39269,6,0,B|86:155,1,62.9999980773926,2|0,0:0|0:0,0:0:0:0:
85,72,39584,2,0,B|147:77,1,62.9999980773926,8|0,0:0|0:0,0:0:0:0:
229,65,39900,2,0,B|234:3,1,62.9999980773926,2|2,0:0|0:0,0:0:0:0:
317,2,40216,2,0,B|312:64,1,62.9999980773926,8|2,0:0|0:0,0:0:0:0:
389,90,40532,6,0,P|450:80|501:115,1,125.999996154785,6|8,0:0|0:0,0:0:0:0:
494,196,41005,2,0,P|489:259|484:322,1,125.999996154785,2|2,0:0|0:0,0:0:0:0:
427,379,41479,1,8,0:0:0:0:
369,321,41637,1,0,0:0:0:0:
312,379,41795,6,0,B|250:374,1,62.9999980773926,2|2,0:0|0:0,0:0:0:0:
191,315,42111,2,0,B|129:320,1,62.9999980773926,0|0,3:0|3:0,0:0:0:0:
75,383,42427,1,2,0:0:0:0:
47,306,42584,2,0,B|42:244,2,62.9999980773926,0|2|0,3:0|0:0|3:0,0:0:0:0:
128,320,43058,6,0,P|123:257|118:194,1,125.999996154785,4|8,2:1|0:0,0:0:0:0:
57,139,43532,2,0,P|47:78|82:27,1,125.999996154785,2|2,0:0|0:0,0:0:0:0:
163,23,44005,1,8,0:0:0:0:
127,96,44163,1,0,0:0:0:0:
187,151,44321,6,0,P|248:161|299:126,1,125.999996154785,2|8,0:0|0:0,0:0:0:0:
330,51,44795,1,0,0:0:0:0:
379,115,44953,2,0,B|441:120,1,62.9999980773926,2|2,0:0|0:0,0:0:0:0:
490,184,45269,2,0,B|485:246,1,62.9999980773926,8|2,0:0|0:0,0:0:0:0:
425,300,45584,6,0,P|364:310|313:275,1,125.999996154785,4|8,2:1|0:0,0:0:0:0:
256,216,46058,2,0,P|193:221|130:226,1,125.999996154785,2|2,0:0|0:0,0:0:0:0:
49,232,46532,1,8,0:0:0:0:
96,299,46690,1,0,0:0:0:0:
102,379,46848,6,0,P|43:360|15:306,1,125.999996154785,2|8,0:0|0:0,0:0:0:0:
49,232,47321,1,0,0:0:0:0:
2,165,47479,2,0,B|7:103,1,62.9999980773926,2|2,0:0|0:0,0:0:0:0:
68,47,47795,2,0,B|129:52,1,62.9999980773926,8|2,0:0|0:0,0:0:0:0:
180,117,48111,6,0,B|242:122,2,62.9999980773926,4|2|8,2:1|0:0|0:0,0:0:0:0:
121,175,48584,2,0,P|129:235|177:273,1,125.999996154785,2|2,0:0|0:0,0:0:0:0:
258,254,49058,1,8,0:0:0:0:
202,194,49216,1,2,0:0:0:0:
177,273,49374,6,0,B|182:334,1,62.9999980773926,2|0,0:0|0:0,0:0:0:0:
263,316,49690,2,0,B|257:253,1,62.9999980773926,8|0,0:0|0:0,0:0:0:0:
337,233,50005,2,0,B|343:296,1,62.9999980773926,2|2,0:0|0:0,0:0:0:0:
423,276,50321,2,0,B|417:213,1,62.9999980773926,8|0,0:0|0:0,0:0:0:0:
359,154,50637,6,0,P|320:105|327:44,1,125.999996154785,6|8,0:0|0:0,0:0:0:0:
406,23,51111,2,0,P|444:71|437:132,1,125.999996154785,2|2,0:0|0:0,0:0:0:0:
359,154,51584,1,8,0:0:0:0:
337,233,51742,1,2,0:0:0:0:
257,253,51900,6,0,B|194:247,2,62.9999980773926,2|2|8,0:0|0:0|0:0,0:0:0:0:
315,312,52374,1,2,0:0:0:0:
257,371,52532,2,0,B|194:377,1,62.9999980773926,2|2,0:0|0:0,0:0:0:0:
127,328,52848,2,0,B|63:322,1,62.9999980773926,8|2,0:0|0:0,0:0:0:0:
11,259,53163,5,6,0:0:0:0:
11,259,53479,2,0,P|16:196|21:133,1,125.999996154785,8|0,0:0|3:0,0:0:0:0:
84,80,53953,2,0,B|147:86,1,62.9999980773926,0|8,3:0|0:0,0:0:0:0:
219,124,54269,6,0,P|226:62|188:14,1,125.999996154785,4|2,0:0|0:0,0:0:0:0:
146,85,54742,2,0,B|140:148,1,62.9999980773926,8|0,0:0|0:0,0:0:0:0:
200,204,55058,1,0,3:0:0:0:
143,264,55216,1,0,3:0:0:0:
203,321,55374,2,0,B|266:327,1,62.9999980773926,8|0,0:0|3:0,0:0:0:0:
332,375,55690,6,0,P|390:358|421:304,1,125.999996154785,2|8,0:0|0:0,0:0:0:0:
340,292,56163,1,2,0:0:0:0:
272,243,56321,2,0,P|323:209|384:221,1,125.999996154785,2|8,0:0|0:0,0:0:0:0:
465,234,56795,1,0,0:0:0:0:
509,164,56953,6,0,L|503:101,1,62.9999980773926,2|2,0:0|0:0,0:0:0:0:
448,40,57269,2,0,L|385:45,1,62.9999980773926,8|2,0:0|0:0,0:0:0:0:
309,77,57584,2,0,L|246:71,1,62.9999980773926,2|2,0:0|0:0,0:0:0:0:
176,115,57900,2,0,L|170:177,1,62.9999980773926,8|2,0:0|0:0,0:0:0:0:
233,230,58216,5,2,0:0:0:0:
233,230,58532,2,0,P|279:270|283:332,1,125.999996154785,8|0,0:0|3:0,0:0:0:0:
204,308,59005,2,0,L|141:314,1,62.9999980773926,0|8,3:0|0:0,0:0:0:0:
66,348,59321,6,0,P|61:285|56:222,1,125.999996154785,4|2,0:0|0:0,0:0:0:0:
11,153,59795,2,0,L|17:91,1,62.9999980773926,8|0,0:0|0:0,0:0:0:0:
64,23,60111,1,2,0:0:0:0:
98,96,60269,1,2,0:0:0:0:
145,29,60427,2,0,L|207:35,1,62.9999980773926,8|2,0:0|0:0,0:0:0:0:
240,61,60663,1,2,0:0:0:0:
240,61,60742,6,0,P|293:31|353:48,1,125.999996154785,2|8,0:0|0:0,0:0:0:0:
303,113,61216,2,0,P|298:176|293:239,1,125.999996154785,2|2,0:0|0:0,0:0:0:0:
212,246,61690,2,0,L|218:184,1,62.9999980773926,8|2,0:0|0:0,0:0:0:0:
185,157,61927,1,2,0:0:0:0:
185,157,62005,6,0,P|125:140|72:170,1,125.999996154785,2|8,0:0|0:0,0:0:0:0:
135,222,62479,2,0,P|130:285|125:348,1,125.999996154785,2|2,0:0|0:0,0:0:0:0:
206,350,62953,2,0,L|212:288,1,62.9999980773926,8|2,0:0|0:0,0:0:0:0:
212,246,63190,1,2,0:0:0:0:
212,246,63269,6,0,P|275:251|338:256,1,125.999996154785,2|8,0:0|0:0,0:0:0:0:
389,320,63742,1,0,0:0:0:0:
337,255,63900,2,0,P|342:192|347:129,1,125.999996154785,2|8,0:0|0:0,0:0:0:0:
410,77,64374,1,0,0:0:0:0:
346,129,64532,6,0,P|283:124|220:119,1,125.999996154785,2|8,0:0|0:0,0:0:0:0:
167,57,65005,1,2,0:0:0:0:
167,57,65084,1,2,0:0:0:0:
167,57,65163,2,0,L|105:63,1,62.9999980773926,2|2,0:0|0:0,0:0:0:0:
56,130,65479,2,0,L|62:192,1,62.9999980773926,2|2,0:0|0:0,0:0:0:0:
74,283,65795,5,4,0:0:0:0:
74,283,66111,2,0,L|143:276,1,70,8|0,0:0|0:0,0:0:0:0:
210,214,66427,2,0,L|279:220,1,70,2|2,0:0|0:0,0:0:0:0:
332,295,66742,1,8,0:0:0:0:
407,242,66900,6,0,P|437:180|417:115,1,140,2|2,0:0|0:0,0:0:0:0:
351,51,67374,2,0,L|282:45,1,70,8|0,0:0|0:0,0:0:0:0:
190,56,67690,1,2,0:0:0:0:
245,129,67848,1,2,0:0:0:0:
210,214,68005,2,0,L|204:283,1,70,8|0,0:0|0:0,0:0:0:0:
158,363,68321,6,0,P|92:382|31:352,1,140,4|8,0:0|0:0,0:0:0:0:
100,292,68795,2,0,P|94:222|87:152,1,140,2|2,0:0|0:0,0:0:0:0:
4,115,69269,1,8,0:0:0:0:
63,45,69427,6,0,P|128:25|189:55,1,140,2|2,0:0|0:0,0:0:0:0:
245,129,69900,1,8,0:0:0:0:
245,129,70216,2,0,L|314:123,1,70,2|2,0:0|0:0,0:0:0:0:
357,40,70532,1,8,0:0:0:0:
439,83,70690,1,2,0:0:0:0:
439,83,70769,1,2,0:0:0:0:
439,83,70848,6,0,L|445:152,1,70,4|0,0:0|0:0,0:0:0:0:
496,228,71163,2,0,L|490:297,1,70,8|0,0:0|0:0,0:0:0:0:
423,360,71479,2,0,L|354:366,1,70,2|2,0:0|0:0,0:0:0:0:
264,374,71795,1,8,0:0:0:0:
301,292,71953,6,0,P|316:225|283:165,1,140,2|2,0:0|0:0,0:0:0:0:
227,238,72427,2,0,L|158:232,1,70,8|0,0:0|0:0,0:0:0:0:
75,194,72742,1,2,0:0:0:0:
148,141,72900,1,2,0:0:0:0:
65,104,73058,2,0,L|71:35,1,70,8|0,0:0|0:0,0:0:0:0:
154,71,73374,6,0,L|148:140,1,70,6|2,0:0|0:0,0:0:0:0:
75,194,73690,2,0,L|81:263,1,70,8|2,0:0|0:0,0:0:0:0:
91,354,74005,2,0,L|22:360,2,70,2|2|8,0:0|0:0|0:0,0:0:0:0:
165,300,74479,6,0,L|234:306,1,70,4|0,0:0|0:0,0:0:0:0:
308,360,74795,2,0,L|377:354,1,70,4|0,0:0|0:0,0:0:0:0:
451,299,75111,1,4,0:0:0:0:
397,225,75269,2,0,L|391:156,1,70,2|2,0:0|0:0,0:0:0:0:
336,81,75584,2,0,L|301:77,3,35,2|2|2|2,0:0|0:0|0:0|0:0,0:0:0:0:
255,74,75900,5,4,0:0:0:0:
255,74,76216,2,0,L|249:143,1,70,8|0,0:0|0:0,0:0:0:0:
195,217,76532,2,0,L|201:286,1,70,2|2,0:0|0:0,0:0:0:0:
231,373,76848,1,8,0:0:0:0:
141,355,77005,6,0,P|77:328|47:267,1,140,2|2,0:0|0:0,0:0:0:0:
48,175,77479,2,0,L|117:169,1,70,8|0,0:0|0:0,0:0:0:0:
199,125,77795,1,2,0:0:0:0:
120,75,77953,1,2,0:0:0:0:
202,32,78111,2,0,L|271:26,1,70,8|0,0:0|0:0,0:0:0:0:
360,54,78427,6,0,P|392:114|377:180,1,140,4|8,0:0|0:0,0:0:0:0:
294,222,78900,2,0,P|224:228|154:235,1,140,2|2,0:0|0:0,0:0:0:0:
96,302,79374,1,8,0:0:0:0:
164,360,79532,6,0,P|234:354|304:347,1,140,2|2,0:0|0:0,0:0:0:0:
362,280,80005,1,8,0:0:0:0:
362,280,80321,2,0,L|431:286,1,70,2|2,0:0|0:0,0:0:0:0:
505,231,80637,2,0,L|511:162,1,70,8|0,0:0|0:0,0:0:0:0:
448,94,80953,6,0,P|378:87|308:81,1,140,4|8,0:0|0:0,0:0:0:0:
235,26,81427,2,0,P|219:92|251:153,1,140,0|2,0:0|0:0,0:0:0:0:
341,166,81900,1,8,0:0:0:0:
284,238,82058,6,0,P|215:234|166:187,1,140,2|2,0:0|0:0,0:0:0:0:
137,101,82532,1,8,0:0:0:0:
137,101,82848,2,0,L|68:107,1,70,2|2,0:0|0:0,0:0:0:0:
4,174,83163,2,0,L|10:242,1,70,8|0,0:0|0:0,0:0:0:0:
85,298,83479,6,0,L|154:292,1,70,2|2,0:0|0:0,0:0:0:0:
228,345,83795,2,0,L|296:351,1,70,8|2,0:0|0:0,0:0:0:0:
378,311,84111,1,2,0:0:0:0:
302,260,84269,1,2,0:0:0:0:
383,220,84427,2,0,L|389:151,1,70,8|2,0:0|0:0,0:0:0:0:
325,83,84742,6,0,L|256:77,1,70,2|2,0:0|0:0,0:0:0:0:
180,130,85058,1,2,0:0:0:0:
226,209,85216,1,2,0:0:0:0:
226,209,85532,1,2,0:0:0:0:
151,263,85690,2,0,L|145:332,1,70,2|2,0:0|0:0,0:0:0:0:
62,332,86005,6,0,P|57:269|52:206,1,125.999996154785,4|8,2:1|0:0,0:0:0:0:
98,138,86479,1,0,0:0:0:0:
25,100,86637,2,0,P|71:60|133:64,1,125.999996154785,2|8,0:0|0:0,0:0:0:0:
180,130,87111,1,0,0:0:0:0:
214,55,87269,6,0,P|273:40|326:72,1,125.999996154785,2|8,0:0|0:0,0:0:0:0:
261,122,87742,2,0,P|256:185|251:248,1,125.999996154785,2|2,0:0|0:0,0:0:0:0:
261,329,88216,1,8,0:0:0:0:
186,297,88374,1,2,0:0:0:0:
251,247,88532,6,0,P|310:262|342:314,1,125.999996154785,2|8,0:0|0:0,0:0:0:0:
395,376,89005,1,0,0:0:0:0:
422,299,89163,2,0,L|427:236,1,62.9999980773926,2|2,0:0|0:0,0:0:0:0:
454,159,89479,2,0,L|448:96,1,62.9999980773926,8|0,0:0|0:0,0:0:0:0:
426,17,89795,6,0,P|364:24|326:72,1,125.999996154785,2|8,0:0|0:0,0:0:0:0:
261,122,90269,2,0,P|198:117|135:112,1,125.999996154785,2|2,0:0|0:0,0:0:0:0:
53,104,90742,1,8,0:0:0:0:
100,37,90900,1,2,0:0:0:0:
135,112,91058,6,0,P|130:175|125:238,1,125.999996154785,4|8,2:1|0:0,0:0:0:0:
78,305,91532,1,0,0:0:0:0:
136,361,91690,2,0,P|197:359|240:315,1,125.999996154785,2|8,0:0|0:0,0:0:0:0:
240,232,92163,1,0,0:0:0:0:
240,150,92321,6,0,P|297:172|322:228,1,125.999996154785,2|8,0:0|0:0,0:0:0:0:
321,311,92795,2,0,P|364:355|426:357,1,125.999996154785,2|2,0:0|0:0,0:0:0:0:
478,294,93269,1,8,0:0:0:0:
397,280,93427,1,2,0:0:0:0:
450,217,93584,6,0,P|445:154|440:91,1,125.999996154785,2|8,0:0|0:0,0:0:0:0:
377,38,94058,1,2,0:0:0:0:
324,101,94216,2,0,L|261:95,1,62.9999980773926,2|2,0:0|0:0,0:0:0:0:
198,42,94532,2,0,L|135:47,1,62.9999980773926,8|0,0:0|0:0,0:0:0:0:
82,110,94848,6,0,L|87:172,1,62.9999980773926,2|2,0:0|0:0,0:0:0:0:
141,236,95163,2,0,L|135:298,1,62.9999980773926,8|2,0:0|0:0,0:0:0:0:
68,347,95479,2,0,L|36:344,2,31.4999990386963,2|0|0,0:0|3:0|3:0,0:0:0:0:
143,379,95795,2,0,L|174:376,2,31.4999990386963,2|0|0,0:0|3:0|3:0,0:0:0:0:
134,298,96111,6,0,P|197:293|260:288,1,125.999996154785,4|8,2:1|0:0,0:0:0:0:
314,226,96584,1,0,0:0:0:0:
248,176,96742,2,0,P|220:121|237:62,1,125.999996154785,2|8,0:0|0:0,0:0:0:0:
293,2,97216,1,0,0:0:0:0:
359,52,97374,6,0,P|386:106|369:165,1,125.999996154785,2|8,0:0|0:0,0:0:0:0:
314,226,97848,2,0,P|296:284|324:339,1,125.999996154785,2|2,0:0|0:0,0:0:0:0:
405,355,98321,1,8,0:0:0:0:
379,278,98479,1,2,0:0:0:0:
432,216,98637,6,0,P|449:157|421:102,1,125.999996154785,2|8,0:0|0:0,0:0:0:0:
340,88,99111,1,0,0:0:0:0:
369,165,99269,2,0,L|306:159,1,62.9999980773926,2|2,0:0|0:0,0:0:0:0:
233,120,99584,2,0,L|170:126,1,62.9999980773926,8|0,0:0|0:0,0:0:0:0:
130,196,99900,6,0,P|125:259|120:322,1,125.999996154785,2|8,0:0|0:0,0:0:0:0:
38,321,100374,2,0,P|33:258|28:195,1,125.999996154785,2|2,0:0|0:0,0:0:0:0:
79,131,100848,1,8,0:0:0:0:
130,196,101005,1,2,0:0:0:0:
170,125,101163,6,0,P|203:73|263:58,1,125.999996154785,4|8,2:1|0:0,0:0:0:0:
340,88,101637,1,0,0:0:0:0:
369,165,101795,2,0,P|364:228|359:291,1,125.999996154785,2|8,0:0|0:0,0:0:0:0:
318,361,102269,1,0,0:0:0:0:
247,320,102427,6,0,P|184:315|121:310,1,125.999996154785,2|8,0:0|0:0,0:0:0:0:
112,228,102900,2,0,P|175:223|238:218,1,125.999996154785,2|2,0:0|0:0,0:0:0:0:
288,152,103374,1,8,0:0:0:0:
369,165,103532,1,2,0:0:0:0:
340,88,103690,6,0,L|334:25,1,62.9999980773926,2|2,0:0|0:0,0:0:0:0:
253,12,104005,2,0,L|259:75,1,62.9999980773926,8|2,0:0|0:0,0:0:0:0:
288,152,104321,1,2,0:0:0:0:
207,139,104479,1,2,0:0:0:0:
177,61,104637,2,0,L|114:67,1,62.9999980773926,8|2,0:0|0:0,0:0:0:0:
144,144,104953,6,0,L|207:138,1,62.9999980773926,2|2,0:0|0:0,0:0:0:0:
288,152,105269,1,2,0:0:0:0:
236,216,105427,1,2,0:0:0:0:
236,216,105742,1,2,0:0:0:0:
317,229,105900,2,0,L|323:292,1,62.9999980773926,2|2,0:0|0:0,0:0:0:0:
270,355,106216,5,4,2:1:0:0:
