osu file format v14

[General]
AudioFilename: audio.mp3
AudioLeadIn: 0
PreviewTime: 65953
Countdown: 0
SampleSet: Soft
StackLeniency: 0.7
Mode: 0
LetterboxInBreaks: 0
WidescreenStoryboard: 1

[Editor]
DistanceSpacing: 1
BeatDivisor: 2
GridSize: 16
TimelineZoom: 2.1

[Metadata]
Title:bumpy-Jumpy!
TitleUnicode:bumpy-Jumpy!
Artist:KOTOKO
ArtistUnicode:KOTOKO
Creator:Dored
Version:Easy
Source:ナツユメナギサ
Tags:Natsuyume Nagisa Galgame Eroge Visual Novel Opening Short Version Saga Planets I've
BeatmapID:1724777
BeatmapSetID:822997

[Difficulty]
HPDrainRate:3
CircleSize:3
OverallDifficulty:3
ApproachRate:3
SliderMultiplier:0.8
SliderTickRate:2

[Events]
//Background and Video events
0,0,"Easy.jpg",0,0
//Break Periods
//Storyboard Layer 0 (Background)
//Storyboard Layer 1 (Fail)
//Storyboard Layer 2 (Pass)
//Storyboard Layer 3 (Foreground)
//Storyboard Sound Samples

[TimingPoints]
1369,315.789473684211,4,2,2,40,1,0
1369,-100,4,2,2,40,0,0
5158,317.460317460317,4,2,2,40,1,0
5158,-100,4,2,2,40,0,0
6427,315.789473684211,4,2,2,40,1,0
6427,-100,4,2,2,40,0,0
8953,-100,4,2,2,30,0,0
11400,-100,4,2,2,5,0,0
11479,-100,4,2,1,50,0,0
21584,-100,4,2,1,60,0,0
32953,-100,4,2,1,50,0,0
43058,-100,4,2,1,55,0,0
53163,-100,4,2,1,50,0,0
58216,-100,4,2,1,55,0,0
60742,-100,4,2,1,60,0,0
63269,-100,4,2,1,65,0,0
65795,-100,4,2,1,70,0,1
66032,-100,4,2,1,5,0,1
66111,-100,4,2,1,70,0,1
75584,-100,4,2,1,70,0,0
75900,-100,4,2,1,70,0,1
76137,-100,4,2,1,5,0,1
76216,-100,4,2,1,70,0,1
86005,-100,4,2,1,60,0,0
103690,-100,4,2,1,45,0,0
106216,-100,4,2,1,30,0,0

[Colours]
Combo1 : 0,60,216
Combo2 : 0,160,160
Combo3 : 128,128,255
Combo4 : 160,0,96

[HitObjects]
64,144,1369,6,0,P|57:203|53:263,2,120,6|2|2,0:0|0:0|0:0,0:0:0:0:
112,80,2632,1,2,0:0:0:0:
328,184,3579,1,2,0:0:0:0:
392,136,3895,6,0,P|451:129|511:125,2,120,6|2|2,0:0|0:0|0:0,0:0:0:0:
344,72,5158,1,2,0:0:0:0:
215,274,6110,1,2,0:0:0:0:
142,240,6427,6,0,P|82:233|22:229,2,120,6|2|2,0:0|0:0|0:0,0:0:0:0:
208,194,7690,2,0,P|267:187|327:183,2,120,2|2|2,0:0|0:0|0:0,0:0:0:0:
135,160,8953,5,6,0:0:0:0:
377,368,10216,1,6,0:0:0:0:
436,54,11479,6,0,P|396:48|356:47,1,80,2|2,0:0|0:0,0:0:0:0:
277,31,12111,2,0,P|237:32|197:37,1,80,2|2,0:0|0:0,0:0:0:0:
117,31,12742,2,0,P|43:52|21:126,1,160,2|2,0:0|0:0,0:0:0:0:
100,110,13690,1,2,0:0:0:0:
154,171,14005,6,0,P|148:210|147:250,1,80,2|2,0:0|0:0,0:0:0:0:
201,311,14637,2,0,P|240:316|280:317,1,80,2|2,0:0|0:0,0:0:0:0:
344,267,15269,2,0,P|349:227|350:188,2,80,2|2|2,0:0|0:0|0:0,0:0:0:0:
393,331,16216,1,2,0:0:0:0:
453,278,16532,6,0,P|454:238|459:198,1,80,2|2,0:0|0:0,0:0:0:0:
502,130,17163,2,0,P|500:90|495:50,1,80,2|2,0:0|0:0,0:0:0:0:
424,12,17795,1,2,0:0:0:0:
385,83,18111,2,0,P|314:113|250:71,1,160,2|2,0:0|0:0,0:0:0:0:
185,24,19058,5,2,0:0:0:0:
121,72,19374,2,0,L|41:72,2,80,2|2|2,0:0|0:0|0:0,0:0:0:0:
145,148,20321,2,0,L|145:268,2,120,2|2|2,0:0|0:0|0:0,0:0:0:0:
225,148,21584,6,0,P|264:149|304:154,1,80,4|8,0:0|0:0,0:0:0:0:
364,208,22216,2,0,P|403:206|443:201,1,80,2|8,0:0|0:0,0:0:0:0:
494,262,22848,2,0,P|453:327|377:329,1,160,2|2,0:0|0:0,0:0:0:0:
318,274,23795,1,8,0:0:0:0:
272,340,24111,6,0,P|232:341|192:346,1,80,4|8,0:0|0:0,0:0:0:0:
117,376,24742,2,0,P|77:374|37:369,1,80,2|8,0:0|0:0,0:0:0:0:
19,290,25374,2,0,P|60:225|136:223,1,160,2|2,0:0|0:0,0:0:0:0:
204,266,26321,1,8,0:0:0:0:
216,186,26637,6,0,P|211:126|205:66,2,120,4|2|8,0:0|0:0|0:0,0:0:0:0:
296,186,27900,2,0,P|300:126|306:66,2,120,2|2|8,0:0|0:0|0:0,0:0:0:0:
308,266,29163,6,0,P|387:257|467:252,1,160,2|2,0:0|0:0,0:0:0:0:
438,93,30427,2,0,P|378:43|306:65,1,160,2|2,0:0|0:0,0:0:0:0:
206,191,31690,2,0,P|132:213|73:164,1,160,2|2,0:0|0:0,0:0:0:0:
158,28,32953,6,0,P|197:23|237:22,1,80,4|8,2:1|0:0,0:0:0:0:
305,65,33584,2,0,P|300:104|299:144,1,80,2|8,0:0|0:0,0:0:0:0:
297,224,34216,2,0,P|361:265|431:234,1,160,2|2,0:0|0:0,0:0:0:0:
368,184,35163,1,8,0:0:0:0:
299,144,35479,6,0,P|259:148|219:149,1,80,4|8,2:1|0:0,0:0:0:0:
150,108,36111,2,0,P|110:103|70:102,1,80,2|8,0:0|0:0,0:0:0:0:
6,150,36742,2,0,P|15:229|20:309,1,160,2|2,0:0|0:0,0:0:0:0:
92,345,37690,1,8,0:0:0:0:
149,289,38005,6,0,P|218:257|283:299,1,160,4|2,2:1|0:0,0:0:0:0:
330,365,38953,1,8,0:0:0:0:
407,342,39269,2,0,P|446:340|486:336,1,80,2|8,0:0|0:0,0:0:0:0:
487,256,39900,2,0,P|447:254|407:250,1,80,2|8,0:0|0:0,0:0:0:0:
407,170,40532,6,0,P|477:140|490:64,1,160,6|2,0:0|0:0,0:0:0:0:
415,90,41479,1,8,0:0:0:0:
344,52,41795,2,0,P|304:56|264:58,1,80,2|2,0:0|0:0,0:0:0:0:
208,115,42427,2,0,P|212:154|214:194,1,80,2|2,0:0|0:0,0:0:0:0:
279,240,43058,6,0,P|318:235|358:233,1,80,4|8,2:1|0:0,0:0:0:0:
424,278,43690,2,0,P|426:317|431:356,1,80,2|8,0:0|0:0,0:0:0:0:
352,372,44321,2,0,P|272:367|192:357,1,160,2|2,0:0|0:0,0:0:0:0:
130,308,45269,1,8,0:0:0:0:
55,337,45584,6,0,P|49:297|47:257,1,80,4|8,2:1|0:0,0:0:0:0:
16,183,46216,2,0,P|18:143|23:103,1,80,2|8,0:0|0:0,0:0:0:0:
93,64,46848,2,0,P|148:116|223:97,1,160,2|2,0:0|0:0,0:0:0:0:
280,40,47795,1,8,0:0:0:0:
336,97,48111,6,0,P|326:176|321:256,1,160,4|2,2:1|0:0,0:0:0:0:
256,303,49058,1,8,0:0:0:0:
312,360,49374,2,0,P|351:365|391:367,1,80,2|8,0:0|0:0,0:0:0:0:
457,321,50005,2,0,P|461:281|463:241,1,80,2|8,0:0|0:0,0:0:0:0:
487,164,50637,6,0,P|483:104|475:44,1,120,6|2,0:0|0:0,0:0:0:0:
395,43,51427,1,2,0:0:0:0:
336,97,51742,2,0,P|276:93|216:85,1,120,2|8,0:0|0:0,0:0:0:0:
157,139,52532,2,0,P|158:178|163:218,1,80,2|8,0:0|0:0,0:0:0:0:
235,251,53163,5,6,0:0:0:0:
301,205,53479,2,0,P|360:197|420:193,1,120,8|2,0:0|0:0,0:0:0:0:
426,272,54269,2,0,P|366:279|306:283,1,120,4|8,0:0|0:0,0:0:0:0:
240,329,55058,2,0,P|201:328|161:323,1,80,2|8,0:0|0:0,0:0:0:0:
101,269,55690,6,0,P|46:292|18:344,2,120,2|2|8,0:0|0:0|0:0,0:0:0:0:
163,218,56953,2,0,P|158:178|157:139,1,80,2|8,0:0|0:0,0:0:0:0:
216,85,57584,2,0,P|255:79|295:78,1,80,2|8,0:0|0:0,0:0:0:0:
363,121,58216,5,2,0:0:0:0:
430,78,58532,2,0,P|485:100|513:153,1,120,8|2,0:0|0:0,0:0:0:0:
456,209,59321,2,0,P|396:202|336:198,1,120,4|8,0:0|0:0,0:0:0:0:
309,275,60111,2,0,P|315:314|316:354,1,80,2|8,0:0|0:0,0:0:0:0:
237,374,60742,6,0,P|179:368|140:324,2,120,2|2|8,0:0|0:0|0:0,0:0:0:0:
215,297,62005,2,0,P|211:237|202:177,2,120,2|2|8,0:0|0:0|0:0,0:0:0:0:
140,324,63269,6,0,P|100:323|60:317,1,80,2|8,0:0|0:0,0:0:0:0:
45,237,63900,2,0,P|84:236|124:230,1,80,2|8,0:0|0:0,0:0:0:0:
127,149,64532,2,0,P|166:105|225:100,2,120,2|2|2,0:0|0:0|0:0,0:0:0:0:
202,177,65795,5,4,0:0:0:0:
279,158,66111,2,0,P|339:154|399:145,1,120,8|2,0:0|0:0,0:0:0:0:
426,70,66900,2,0,P|470:109|475:168,1,120,2|8,0:0|0:0,0:0:0:0:
417,223,67690,1,2,0:0:0:0:
473,281,68005,1,8,0:0:0:0:
455,359,68321,6,0,P|395:367|335:371,1,120,4|2,0:0|0:0,0:0:0:0:
256,366,69111,1,2,0:0:0:0:
176,371,69427,2,0,P|116:367|57:359,1,120,2|8,0:0|0:0,0:0:0:0:
39,281,70216,2,0,P|36:241|38:201,1,80,2|8,0:0|0:0,0:0:0:0:
49,162,70690,6,0,P|83:114|142:104,1,120,2|8,0:0|0:0,0:0:0:0:
194,166,71479,2,0,P|233:166|273:172,1,80,2|8,0:0|0:0,0:0:0:0:
304,198,71953,2,0,P|363:189|423:185,1,120,2|8,0:0|0:0,0:0:0:0:
492,144,72742,1,2,0:0:0:0:
492,64,73058,1,8,0:0:0:0:
423,24,73374,6,0,P|384:24|344:18,1,80,6|8,0:0|0:0,0:0:0:0:
267,44,74005,2,0,P|209:54|160:21,1,120,2|4,0:0|0:0,0:0:0:0:
80,21,74795,1,4,0:0:0:0:
41,91,75111,2,0,P|50:150|54:210,1,120,4|2,0:0|0:0,0:0:0:0:
60,290,75900,5,4,0:0:0:0:
133,325,76216,2,0,P|190:334|239:301,1,120,8|2,0:0|0:0,0:0:0:0:
174,256,77005,2,0,P|141:207|150:149,1,120,2|8,0:0|0:0,0:0:0:0:
220,110,77795,1,2,0:0:0:0:
219,190,78111,1,8,0:0:0:0:
288,231,78427,6,0,P|347:227|407:217,1,120,4|2,0:0|0:0,0:0:0:0:
468,164,79216,1,2,0:0:0:0:
405,114,79532,2,0,P|356:81|298:90,1,120,2|8,0:0|0:0,0:0:0:0:
220,110,80321,2,0,P|180:110|140:116,1,80,2|8,0:0|0:0,0:0:0:0:
61,102,80953,6,0,P|13:136|2:194,1,120,4|2,0:0|0:0,0:0:0:0:
20,272,81742,1,2,0:0:0:0:
97,253,82058,2,0,P|156:256|216:266,1,120,2|8,0:0|0:0,0:0:0:0:
289,299,82848,1,2,0:0:0:0:
362,266,83163,1,8,0:0:0:0:
435,299,83479,6,0,P|438:240|401:195,2,120,2|2|8,0:0|0:0|0:0,0:0:0:0:
362,266,84742,2,0,P|358:324|395:369,2,120,2|2|2,0:0|0:0|0:0,0:0:0:0:
401,195,86005,5,4,2:1:0:0:
440,124,86321,2,0,P|445:84|445:44,2,80,8|2|8,0:0|0:0|0:0,0:0:0:0:
359,126,87269,2,0,P|280:117|200:112,1,160,2|2,0:0|0:0,0:0:0:0:
119,105,88216,1,8,0:0:0:0:
74,171,88532,5,2,0:0:0:0:
108,243,88848,2,0,P|147:237|187:238,2,80,8|2|8,0:0|0:0|0:0,0:0:0:0:
63,309,89795,2,0,P|118:361|193:343,1,160,2|2,0:0|0:0,0:0:0:0:
251,287,90742,1,8,0:0:0:0:
187,238,91058,5,4,2:1:0:0:
245,183,91374,2,0,P|284:188|324:188,2,80,8|2|8,0:0|0:0|0:0,0:0:0:0:
181,134,92321,2,0,P|175:56|237:10,1,160,2|2,0:0|0:0,0:0:0:0:
312,35,93269,1,8,0:0:0:0:
341,109,93584,5,2,0:0:0:0:
417,86,93900,2,0,P|456:80|496:80,2,80,8|2|8,0:0|0:0|0:0,0:0:0:0:
445,163,94848,2,0,P|450:202|450:242,1,80,2|8,0:0|0:0,0:0:0:0:
438,321,95479,2,0,P|398:326|358:326,1,80,2|8,0:0|0:0,0:0:0:0:
316,258,96111,5,4,2:1:0:0:
237,261,96427,2,0,P|197:260|157:266,2,80,8|2|8,0:0|0:0|0:0,0:0:0:0:
275,190,97374,2,0,P|270:110|260:30,1,160,2|2,0:0|0:0,0:0:0:0:
180,23,98321,1,8,0:0:0:0:
134,89,98637,5,2,0:0:0:0:
168,162,98953,2,0,P|173:201|173:241,2,80,8|2|8,0:0|0:0|0:0,0:0:0:0:
88,155,99900,2,0,P|34:210|53:285,1,160,2|2,0:0|0:0,0:0:0:0:
129,309,100848,1,8,0:0:0:0:
172,241,101163,5,4,2:1:0:0:
247,268,101479,2,0,P|242:307|242:347,2,80,8|2|8,0:0|0:0|0:0,0:0:0:0:
288,198,102427,2,0,P|327:197|367:202,1,80,2|8,0:0|0:0,0:0:0:0:
404,272,103058,2,0,P|443:272|483:267,1,80,2|8,0:0|0:0,0:0:0:0:
256,192,103690,12,4,106216,2:1:0:0:
