osu file format v14

[General]
AudioFilename: audio.mp3
AudioLeadIn: 0
PreviewTime: 55333
Countdown: 0
SampleSet: Soft
StackLeniency: 0.6
Mode: 0
LetterboxInBreaks: 0
WidescreenStoryboard: 0

[Editor]
DistanceSpacing: 0.9
BeatDivisor: 8
GridSize: 4
TimelineZoom: 1.8

[Metadata]
Title:agony (TV Size)
TitleUnicode:agony (TV Size)
Artist:KOTOKO
ArtistUnicode:KOTOKO
Creator:achyoo
Version:gayge
Source:神無月の巫女
Tags:ayucchi mocaotic vararaup shirahane suou chisataki takichisa 錦木 千束 Nishikigi Chisato 井ノ上 たきな Inoue Takina Kannazuki no Miko japanese anime pop jpop j-pop ed ending
BeatmapID:4288050
BeatmapSetID:2052974

[Difficulty]
HPDrainRate:7
CircleSize:4
OverallDifficulty:8.5
ApproachRate:7
SliderMultiplier:1.6
SliderTickRate:1

[Events]
//Background and Video events
0,0,"chisataki.jpg",0,0
//Break Periods
2,4899,10874
//Storyboard Layer 0 (Background)
//Storyboard Layer 1 (Fail)
//Storyboard Layer 2 (Pass)
//Storyboard Layer 3 (Foreground)
//Storyboard Layer 4 (Overlay)
//Storyboard Sound Samples

[TimingPoints]
1063,454.545454545455,4,2,1,30,1,0
4699,-100,4,2,1,40,0,0
19244,-100,4,2,1,45,0,0
22881,-100,4,2,1,50,0,0
26517,-100,4,2,1,45,0,0
26858,-76.9230769230769,4,2,1,45,0,0
39244,-76.9230769230769,4,2,1,50,0,0
41063,-76.9230769230769,4,2,1,45,0,0
44472,-76.9230769230769,4,2,1,55,0,0
48335,-76.9230769230769,4,2,1,50,0,0
51972,-76.9230769230769,4,2,1,60,0,0
55608,-66.6666666666667,4,2,1,70,0,0
82881,-100,4,2,1,70,0,0
84244,-76.9230769230769,4,2,1,70,0,0
90153,-76.9230769230769,4,2,1,60,0,0

[Colours]
Combo1 : 255,228,138
Combo2 : 140,172,255
Combo3 : 255,108,108
Combo4 : 170,170,170

[HitObjects]
256,192,1517,12,2,4699,2:0:0:0:
68,72,11972,5,2,2:0:0:0:
158,54,12199,1,2,2:0:0:0:
158,54,12313,1,2,2:0:0:0:
201,135,12653,1,2,2:0:0:0:
201,135,12767,1,0,2:0:0:0:
201,135,12881,1,2,2:0:0:0:
165,214,13108,1,2,2:0:0:0:
165,214,13222,1,2,2:0:0:0:
230,283,13563,1,2,2:0:0:0:
230,283,13676,1,2,2:0:0:0:
230,283,13790,1,2,2:0:0:0:
308,244,14017,1,2,2:0:0:0:
308,244,14131,1,2,2:0:0:0:
378,295,14472,1,2,2:0:0:0:
378,295,14585,1,2,2:0:0:0:
378,295,14699,1,2,2:0:0:0:
350,373,14926,1,2,2:0:0:0:
454,267,15153,1,2,2:0:0:0:
329,166,15381,1,2,2:0:0:0:
413,32,15608,5,2,2:0:0:0:
351,82,15835,1,2,2:0:0:0:
351,82,15949,1,2,2:0:0:0:
271,54,16290,1,2,2:0:0:0:
236,127,16517,1,2,2:0:0:0:
160,121,16744,1,2,2:0:0:0:
160,121,16858,1,2,2:0:0:0:
117,189,17199,1,2,2:0:0:0:
117,189,17313,1,0,2:0:0:0:
117,189,17426,1,2,2:0:0:0:
32,202,17653,1,2,2:0:0:0:
32,202,17767,1,2,2:0:0:0:
21,288,18108,1,2,2:0:0:0:
21,288,18222,1,2,2:0:0:0:
21,288,18335,1,2,2:0:0:0:
198,197,18563,1,2,2:0:0:0:
141,384,18790,1,2,2:0:0:0:
346,282,19017,1,2,2:0:0:0:
108,278,19244,5,2,3:2:0:0:
102,267,19358,1,0,3:2:0:0:
100,255,19472,1,2,3:2:0:0:
100,243,19585,1,2,3:2:0:0:
102,231,19699,1,8,3:2:0:0:
106,219,19813,1,0,3:2:0:0:
112,209,19926,1,2,3:2:0:0:
120,200,20040,1,0,3:2:0:0:
130,194,20153,1,2,3:2:0:0:
141,192,20267,1,0,3:2:0:0:
153,192,20381,1,2,3:2:0:0:
164,194,20494,1,2,3:2:0:0:
175,198,20608,1,8,3:2:0:0:
184,204,20722,1,0,3:2:0:0:
192,212,20835,1,2,3:2:0:0:
198,222,20949,1,0,3:2:0:0:
199,233,21063,5,2,3:2:0:0:
210,216,21176,1,0,3:2:0:0:
224,201,21290,1,2,3:2:0:0:
243,195,21403,1,2,3:2:0:0:
262,197,21517,1,8,3:2:0:0:
280,204,21631,1,0,3:2:0:0:
295,216,21744,1,2,3:2:0:0:
311,228,21858,1,0,3:2:0:0:
329,234,21972,1,2,3:2:0:0:
348,236,22085,1,0,3:2:0:0:
367,233,22199,1,2,3:2:0:0:
386,227,22313,1,0,3:2:0:0:
401,214,22426,1,10,3:2:0:0:
414,198,22540,1,0,3:2:0:0:
423,180,22653,1,2,3:2:0:0:
428,160,22767,1,0,3:2:0:0:
429,123,22881,5,2,3:2:0:0:
406,95,22994,1,0,3:2:0:0:
372,81,23108,1,2,3:2:0:0:
335,81,23222,1,2,3:2:0:0:
300,91,23335,1,8,3:2:0:0:
265,99,23449,1,0,3:2:0:0:
229,104,23563,1,2,3:2:0:0:
193,99,23676,1,2,3:2:0:0:
176,66,23790,5,2,3:2:0:0:
150,40,23903,1,0,3:2:0:0:
118,23,24017,1,2,3:2:0:0:
82,17,24131,1,0,3:2:0:0:
50,33,24244,1,10,3:2:0:0:
30,63,24358,1,0,3:2:0:0:
27,99,24472,1,2,3:2:0:0:
43,130,24585,1,0,3:2:0:0:
71,152,24699,6,0,L|105:141,7,20,10|0|0|0|0|0|0|0,2:0|3:2|3:2|3:2|3:2|3:2|3:2|3:2,2:0:0:0:
52,231,25153,6,0,L|33:238,7,20,10|0|0|0|0|0|0|0,2:0|3:2|3:2|3:2|3:2|3:2|3:2|3:2,2:0:0:0:
148,276,25608,6,0,L|182:265,7,20,10|0|0|0|2|0|0|0,2:0|3:2|3:2|3:2|3:2|3:2|3:2|3:2,2:0:0:0:
61,347,26063,6,0,L|41:353,7,20,10|0|0|0|2|0|0|0,2:0|3:2|3:2|3:2|3:2|3:2|3:2|3:2,2:0:0:0:
186,371,26517,5,6,1:2:0:0:
279,307,26744,1,2,2:0:0:0:
287,295,26858,2,0,P|264:227|220:142,1,156,2|2,2:0|2:0,2:0:0:0:
190,122,27313,1,0,2:0:0:0:
205,79,27426,1,2,1:2:0:0:
304,38,27653,1,2,2:0:0:0:
327,51,27767,2,0,P|353:46|379:45,1,52,2|8,2:0|2:0,2:0:0:0:
496,149,28108,5,2,2:0:0:0:
466,182,28222,1,0,2:0:0:0:
487,226,28335,2,0,P|502:293|457:342,1,104,2|2,1:2|2:0,2:0:0:0:
467,348,28676,2,0,L|403:331,1,52,2|8,2:0|2:0,2:0:0:0:
312,260,29017,1,2,2:0:0:0:
274,289,29131,1,2,2:0:0:0:
232,272,29244,5,2,1:2:0:0:
323,109,29472,1,2,2:0:0:0:
163,17,29699,1,10,2:0:0:0:
69,178,29926,1,2,2:0:0:0:
252,149,30153,6,0,P|192:123|137:104,1,104,2|2,1:2|2:0,2:0:0:0:
112,117,30494,1,2,2:0:0:0:
81,85,30608,1,8,2:0:0:0:
14,176,30835,2,0,P|28:213|41:247,1,52,2|0,2:0|2:0,2:0:0:0:
20,257,31063,2,0,P|53:284|150:283,1,104,2|2,1:2|2:0,2:0:0:0:
146,270,31403,1,2,2:0:0:0:
187,282,31517,1,8,2:0:0:0:
264,370,31744,5,2,2:0:0:0:
290,330,31858,1,0,2:0:0:0:
272,288,31972,2,0,P|284:217|294:143,1,104,2|2,1:2|2:0,2:0:0:0:
263,134,32313,1,2,2:0:0:0:
271,112,32426,1,8,2:0:0:0:
359,51,32653,1,2,2:0:0:0:
322,18,32767,1,2,2:0:0:0:
274,28,32881,5,2,1:2:0:0:
158,98,33108,1,2,2:0:0:0:
27,27,33335,1,10,2:0:0:0:
12,179,33563,1,2,2:0:0:0:
170,245,33790,5,2,1:2:0:0:
253,135,34017,1,2,2:0:0:0:
283,127,34131,2,0,P|368:149|445:176,1,156,2|2,2:0|2:0,2:0:0:0:
465,198,34585,1,0,2:0:0:0:
506,181,34699,1,2,1:2:0:0:
493,311,34926,1,2,2:0:0:0:
493,311,35040,2,0,L|440:333,1,52,2|8,2:0|2:0,2:0:0:0:
302,359,35381,5,2,2:0:0:0:
261,331,35494,1,0,2:0:0:0:
209,336,35608,1,2,1:2:0:0:
76,383,35835,1,2,2:0:0:0:
49,355,35949,2,0,L|63:296,1,52,2|8,2:0|2:0,2:0:0:0:
128,181,36290,1,2,2:0:0:0:
147,138,36403,1,2,2:0:0:0:
109,102,36517,5,2,1:2:0:0:
227,21,36744,1,2,2:0:0:0:
342,125,36972,1,10,2:0:0:0:
470,40,37199,1,2,2:0:0:0:
467,180,37426,6,0,L|498:174,4,26,2|0|0|0|0,1:2|3:2|3:2|3:2|3:2,2:0:0:0:
433,209,37767,1,2,2:0:0:0:
393,198,37881,2,0,P|348:208|270:230,1,104,8|2,2:0|3:2,2:0:0:0:
248,225,38222,1,0,3:2:0:0:
248,225,38335,2,0,L|236:266,4,26,0|0|0|0|0,1:2|3:2|3:2|3:2|3:2,2:0:0:0:
220,187,38676,1,0,3:2:0:0:
250,146,38790,1,8,2:0:0:0:
255,36,39017,2,0,L|188:56,1,52,2|2,3:2|3:2,2:0:0:0:
169,26,39244,5,2,1:2:0:0:
131,56,39358,1,8,2:0:0:0:
83,41,39472,1,0,3:2:0:0:
49,72,39585,1,0,3:2:0:0:
3,64,39699,2,0,P|2:32|4:2,1,52,8|0,2:0|3:2,2:0:0:0:
128,140,39926,2,0,P|129:108|127:78,1,52,2|0,1:2|3:2,2:0:0:0:
17,235,40153,5,2,1:2:0:0:
61,221,40267,1,0,3:2:0:0:
107,217,40381,1,2,3:2:0:0:
152,226,40494,1,0,3:2:0:0:
195,243,40608,1,2,1:2:0:0:
241,249,40722,1,2,3:2:0:0:
286,239,40835,1,2,1:2:0:0:
329,220,40949,1,2,3:2:0:0:
331,166,41063,6,0,P|393:153|440:221,1,156,6|2,1:2|2:0,2:0:0:0:
423,254,41517,1,8,2:0:0:0:
506,352,41744,1,2,2:0:0:0:
462,369,41858,1,0,2:0:0:0:
418,347,41972,2,0,P|350:331|282:322,2,104,2|0|8,1:2|2:0|2:0,2:0:0:0:
311,233,42653,5,2,2:0:0:0:
311,233,42767,1,2,2:0:0:0:
311,233,42881,2,0,P|250:254|209:280,1,104,2|2,1:2|2:0,2:0:0:0:
125,380,43335,1,10,2:0:0:0:
18,295,43563,1,2,2:0:0:0:
18,295,43676,2,0,P|-2:196|-13:116,1,156,0|2,2:0|2:0,2:0:0:0:
83,21,44244,1,10,2:0:0:0:
202,120,44472,5,2,2:0:0:0:
145,115,44585,1,2,2:0:0:0:
116,164,44699,2,0,P|196:169|341:209,1,208,6|8,1:2|2:0,2:0:0:0:
108,280,45381,5,2,2:0:0:0:
95,332,45494,1,2,2:0:0:0:
131,369,45608,2,0,P|191:323|192:198,1,208,6|8,1:2|2:0,2:0:0:0:
408,72,46290,5,2,2:0:0:0:
350,54,46403,1,2,2:0:0:0:
314,107,46517,2,0,P|381:90|453:76,2,104,6|0|14,1:2|2:0|2:0,2:0:0:0:
501,327,47313,5,2,2:0:0:0:
501,327,47426,2,0,P|499:271|433:227,1,104,2|2,1:2|2:0,2:0:0:0:
304,274,47881,2,0,P|306:330|372:374,1,104,10|2,2:0|2:0,2:0:0:0:
375,384,48222,1,0,2:0:0:0:
414,356,48335,6,0,B|417:263|366:300|378:168,1,156,6|2,1:2|2:0,2:0:0:0:
401,170,48790,1,8,2:0:0:0:
331,59,49017,1,2,2:0:0:0:
377,73,49131,1,0,2:0:0:0:
413,45,49244,2,0,B|468:23|463:45|528:11,2,104,2|0|8,1:2|2:0|2:0,2:0:0:0:
262,16,49926,5,0,2:0:0:0:
220,49,50040,1,0,2:0:0:0:
170,32,50153,1,0,1:2:0:0:
50,105,50381,1,2,2:0:0:0:
161,194,50608,1,10,2:0:0:0:
36,285,50835,2,0,P|59:335|113:345,1,104,2|0,2:0|1:2,2:0:0:0:
139,324,51176,1,0,2:0:0:0:
182,344,51290,1,2,2:0:0:0:
254,264,51517,1,10,2:0:0:0:
373,314,51744,2,0,L|387:338,3,26,2|0|0|0,3:2|3:2|3:2|3:2,2:0:0:0:
362,302,51972,6,0,P|367:239|395:195,1,104,6|2,1:2|2:0,2:0:0:0:
430,190,52313,1,2,2:0:0:0:
439,143,52426,2,0,L|424:86,1,52,8|0,2:0|2:0,2:0:0:0:
332,58,52653,1,2,3:2:0:0:
291,82,52767,1,2,3:2:0:0:
250,65,52881,1,2,1:2:0:0:
160,160,53108,2,0,L|180:232,1,52,10|0,2:0|2:0,2:0:0:0:
116,293,53335,2,0,L|44:273,1,52,10|0,2:0|2:0,2:0:0:0:
11,174,53563,6,0,P|3:119|78:74,1,104,6|0,1:2|2:0,2:0:0:0:
79,86,53903,1,0,3:2:0:0:
122,49,54017,1,4,1:2:0:0:
249,231,54244,5,4,3:2:0:0:
356,55,54472,5,8,2:0:0:0:
396,88,54585,1,8,2:0:0:0:
441,81,54699,2,0,L|475:55,3,26,0|0|0|0,3:2|3:2|3:2|3:2,2:0:0:0:
353,178,54926,2,0,L|319:152,3,26,0|0|0|0,3:2|3:2|3:2|3:2,2:0:0:0:
465,257,55153,2,0,L|499:231,3,26,0|0|0|0,3:2|3:2|3:2|3:2,2:0:0:0:
362,325,55381,5,2,1:2:0:0:
319,300,55494,1,2,1:2:0:0:
273,312,55608,2,0,B|216:319|221:338|154:341,1,120,6|0,1:2|2:0,2:0:0:0:
121,309,55949,1,0,2:0:0:0:
106,313,56063,1,10,2:0:0:0:
15,195,56290,2,0,P|-7:132|42:95,1,120,2|0,2:0|1:2,2:0:0:0:
56,58,56631,1,0,2:0:0:0:
103,76,56744,2,0,P|163:89|225:100,1,120,2|10,2:0|2:0,2:0:0:0:
355,201,57199,1,2,2:0:0:0:
391,163,57313,1,2,2:0:0:0:
377,112,57426,2,0,P|392:54|432:-3,2,120,0|0|8,1:2|2:0|2:0,2:0:0:0:
184,173,58108,5,2,2:0:0:0:
217,211,58222,1,2,2:0:0:0:
195,257,58335,2,0,P|127:249|57:227,1,120,2|2,1:2|2:0,2:0:0:0:
7,342,58790,1,8,2:0:0:0:
153,374,59017,1,2,2:0:0:0:
187,344,59131,2,0,P|222:339|282:322,1,60,2|2,2:0|1:2,2:0:0:0:
388,364,59472,1,0,2:0:0:0:
429,336,59585,1,0,2:0:0:0:
412,285,59699,1,8,2:0:0:0:
306,201,59926,5,2,2:0:0:0:
284,164,60040,1,2,2:0:0:0:
311,134,60153,2,0,P|372:120|460:108,1,120,2|2,1:2|2:0,2:0:0:0:
304,17,60608,1,10,2:0:0:0:
166,54,60835,1,2,2:0:0:0:
122,33,60949,1,2,2:0:0:0:
109,43,61063,2,0,B|44:64|52:76|-16:96,2,120,2|0|8,1:2|2:0|2:0,2:0:0:0:
129,162,61744,5,2,2:0:0:0:
138,177,61858,1,0,2:0:0:0:
131,195,61972,2,0,P|72:214|-5:227,1,120,2|0,1:2|2:0,2:0:0:0:
0,256,62313,1,0,2:0:0:0:
16,285,62426,2,0,P|50:291|84:303,1,60,10|0,2:0|2:0,2:0:0:0:
166,384,62653,2,0,P|209:373|255:364,1,60,0|0,2:0|2:0,2:0:0:0:
282,257,62881,6,0,B|270:173|255:202|245:93,1,120,6|2,1:2|2:0,2:0:0:0:
215,115,63222,1,2,2:0:0:0:
231,64,63335,1,8,2:0:0:0:
371,17,63563,2,0,L|443:39,1,60,2|0,2:0|2:0,2:0:0:0:
477,31,63790,2,0,P|460:87|448:159,1,120,2|2,1:2|2:0,2:0:0:0:
485,190,64131,1,2,2:0:0:0:
454,233,64244,1,8,2:0:0:0:
481,370,64472,1,2,2:0:0:0:
431,342,64585,1,0,2:0:0:0:
384,360,64699,1,2,1:2:0:0:
280,295,64926,1,2,2:0:0:0:
259,313,65040,2,0,P|231:320|185:334,1,60,2|8,2:0|2:0,2:0:0:0:
56,336,65381,5,2,2:0:0:0:
83,301,65494,1,2,2:0:0:0:
66,267,65608,1,2,1:2:0:0:
0,97,65835,1,2,2:0:0:0:
168,32,66063,1,10,2:0:0:0:
232,201,66290,1,2,2:0:0:0:
49,182,66517,5,6,1:2:0:0:
56,166,66631,1,0,3:2:0:0:
68,153,66744,1,0,3:2:0:0:
83,144,66858,1,0,2:0:0:0:
98,136,66972,1,8,2:0:0:0:
115,132,67085,1,0,2:0:0:0:
133,128,67199,2,0,P|162:126|193:129,1,60,2|2,3:2|3:2,2:0:0:0:
265,208,67426,5,6,1:2:0:0:
296,224,67540,1,0,2:0:0:0:
331,228,67653,1,0,3:2:0:0:
364,214,67767,1,0,3:2:0:0:
390,189,67881,1,8,2:0:0:0:
404,156,67994,1,0,3:2:0:0:
401,119,68108,1,2,3:2:0:0:
383,87,68222,1,2,2:0:0:0:
349,74,68335,6,0,L|361:31,3,30,2|0|0|0,1:2|3:2|3:2|3:2,2:0:0:0:
265,98,68563,2,0,P|244:59|244:20,1,60,0|0,1:2|2:0,2:0:0:0:
435,153,68790,2,0,P|456:114|456:75,1,60,2|0,1:2|2:0,2:0:0:0:
317,243,69017,1,2,1:2:0:0:
349,270,69131,2,0,P|400:268|428:280,2,60,2|0|0,2:0|1:2|2:0,2:0:0:0:
241,341,69472,5,2,3:2:0:0:
232,288,69585,1,0,3:2:0:0:
187,256,69699,1,10,2:0:0:0:
134,243,69813,1,0,3:2:0:0:
83,260,69926,1,2,3:2:0:0:
48,301,70040,1,0,3:2:0:0:
50,351,70153,6,0,P|88:294|58:222,1,120,6|0,1:2|2:0,2:0:0:0:
56,237,70494,1,0,2:0:0:0:
56,215,70608,1,10,2:0:0:0:
28,41,70835,1,2,2:0:0:0:
67,78,70949,1,0,2:0:0:0:
115,64,71063,2,0,P|177:69|248:67,1,120,0|2,1:2|2:0,2:0:0:0:
263,30,71403,1,0,2:0:0:0:
310,28,71517,1,10,2:0:0:0:
423,118,71744,1,2,2:0:0:0:
462,157,71858,1,2,2:0:0:0:
442,205,71972,2,0,B|429:272|458:260|442:353,2,120,2|0|8,1:2|2:0|2:0,2:0:0:0:
309,173,72653,5,2,2:0:0:0:
268,191,72767,1,2,2:0:0:0:
218,173,72881,1,2,1:2:0:0:
26,270,73108,1,2,2:0:0:0:
201,363,73335,1,10,2:0:0:0:
89,152,73563,2,0,L|107:84,1,60,2|2,2:0|2:0,2:0:0:0:
119,54,73790,2,0,B|49:51|66:63|-7:62,2,120,0|0|8,1:2|2:0|2:0,2:0:0:0:
259,126,74472,5,2,2:0:0:0:
301,94,74585,1,2,2:0:0:0:
354,108,74699,1,2,1:2:0:0:
466,41,74926,1,2,2:0:0:0:
499,179,75153,2,0,P|477:235|402:261,1,120,10|2,2:0|2:0,2:0:0:0:
380,239,75494,1,2,2:0:0:0:
329,258,75608,2,0,B|340:330|315:312|326:380,2,120,2|0|8,1:2|2:0|2:0,2:0:0:0:
245,160,76290,5,2,2:0:0:0:
226,186,76403,1,0,2:0:0:0:
235,210,76517,2,0,P|167:218|97:223,1,120,2|0,1:2|2:0,2:0:0:0:
84,248,76858,1,0,2:0:0:0:
47,238,76972,2,0,P|39:210|35:156,1,60,10|0,2:0|2:0,2:0:0:0:
0,87,77199,2,0,P|18:64|61:31,1,60,0|0,2:0|2:0,2:0:0:0:
171,105,77426,6,0,P|240:94|328:82,1,120,6|2,1:2|2:0,2:0:0:0:
339,101,77767,1,2,2:0:0:0:
384,72,77881,1,8,2:0:0:0:
475,177,78108,2,0,P|476:205|453:247,1,60,2|0,2:0|2:0,2:0:0:0:
436,242,78335,2,0,P|341:225|280:235,1,120,2|2,1:2|2:0,2:0:0:0:
282,250,78676,1,2,2:0:0:0:
265,242,78790,1,8,2:0:0:0:
129,148,79017,1,2,2:0:0:0:
97,181,79131,1,0,2:0:0:0:
102,234,79244,1,2,1:2:0:0:
39,364,79472,1,2,2:0:0:0:
72,343,79585,2,0,P|115:347|176:354,1,60,2|8,2:0|2:0,2:0:0:0:
268,372,79926,1,2,2:0:0:0:
323,243,80153,6,0,P|357:200|318:107,1,120,2|0,1:2|2:0,2:0:0:0:
303,129,80494,1,0,2:0:0:0:
279,86,80608,2,0,P|182:59|143:52,1,120,10|0,2:0|3:2,2:0:0:0:
122,31,80949,1,0,3:2:0:0:
84,58,81063,1,2,1:2:0:0:
0,146,81290,5,2,2:0:0:0:
36,190,81403,1,2,2:0:0:0:
22,238,81517,2,0,P|92:229|155:225,1,120,8|0,2:0|3:2,2:0:0:0:
155,238,81858,1,0,3:2:0:0:
199,207,81972,1,0,1:2:0:0:
252,205,82085,1,0,2:0:0:0:
299,230,82199,1,0,3:2:0:0:
339,265,82313,1,0,3:2:0:0:
391,277,82426,2,0,P|408:245|427:215,1,60,8|0,2:0|2:0,2:0:0:0:
484,133,82653,1,0,3:2:0:0:
503,93,82767,1,0,3:2:0:0:
471,56,82881,2,0,P|370:82|303:89,1,160,14|0,1:2|2:0,2:0:0:0:
234,36,83563,5,0,2:0:0:0:
227,27,83676,2,0,P|174:41|134:99,1,120,0|0,2:0|2:0,2:0:0:0:
162,131,84131,1,0,2:0:0:0:
138,167,84244,2,0,L|95:161,3,26,2|0|0|0,1:2|3:2|3:2|3:2,2:0:0:0:
201,229,84472,2,0,L|244:235,3,26,2|0|0|0,1:2|3:2|3:2|3:2,2:0:0:0:
128,300,84699,1,6,1:2:0:0:
256,192,84756,12,0,90153,1:2:0:0:
353,115,90608,6,0,P|361:78|376:52,3,52,10|0|0|0,2:0|3:2|3:2|3:2,2:0:0:0:
293,184,91063,2,0,P|301:221|316:247,3,52,2|0|0|0,1:2|3:2|3:2|3:2,2:0:0:0:
204,162,91517,2,0,P|212:125|227:99,3,52,10|0|0|0,2:0|3:2|3:2|3:2,2:0:0:0:
96,178,91972,5,4,1:2:0:0:
86,180,92085,1,0,3:2:0:0:
77,186,92199,1,0,3:2:0:0:
70,193,92313,1,0,3:2:0:0:
64,201,92426,1,10,2:0:0:0:
59,210,92540,1,0,3:2:0:0:
55,219,92653,1,2,3:2:0:0:
53,228,92767,1,0,3:2:0:0:
53,238,92881,1,0,1:2:0:0:
56,248,92994,1,0,3:2:0:0:
59,257,93108,1,2,3:2:0:0:
64,266,93222,1,0,3:2:0:0:
70,274,93335,1,8,2:0:0:0:
77,281,93449,1,0,3:2:0:0:
85,287,93563,1,2,3:2:0:0:
94,291,93676,1,0,3:2:0:0:
117,279,93790,5,0,1:2:0:0:
137,263,93903,1,0,3:2:0:0:
163,261,94017,1,0,3:2:0:0:
188,266,94131,1,0,3:2:0:0:
210,277,94244,1,10,2:0:0:0:
231,291,94358,1,0,3:2:0:0:
254,302,94472,1,2,3:2:0:0:
279,308,94585,1,0,3:2:0:0:
305,309,94699,1,0,1:2:0:0:
331,307,94813,1,0,3:2:0:0:
355,300,94926,1,2,3:2:0:0:
378,287,95040,1,0,3:2:0:0:
397,269,95153,1,8,2:0:0:0:
411,247,95267,1,0,3:2:0:0:
420,222,95381,1,2,3:2:0:0:
421,196,95494,1,0,3:2:0:0:
413,155,95608,6,0,L|453:131,3,26,0|0|0|0,1:2|3:2|3:2|3:2,2:0:0:0:
359,139,95835,1,0,3:2:0:0:
321,165,95949,1,0,3:2:0:0:
275,140,96063,6,0,L|259:177,3,26,8|0|0|0,2:0|3:2|3:2|3:2,2:0:0:0:
215,71,96290,6,0,L|231:34,3,26,0|0|0|0,3:2|3:2|3:2|3:2,2:0:0:0:
141,148,96517,6,0,L|125:185,3,26,0|0|0|0,1:2|3:2|3:2|3:2,2:0:0:0:
123,25,96744,6,0,L|139:-12,3,26,0|0|0|0,3:2|3:2|3:2|3:2,2:0:0:0:
23,91,96972,6,0,L|-14:75,4,26,10|0|0|0|2,2:0|3:2|3:2|3:2|1:2,2:0:0:0:
50,139,97313,1,0,1:2:0:0:
30,188,97426,1,14,1:2:0:0:
