osu file format v14

[General]
AudioFilename: audio.ogg
AudioLeadIn: 0
PreviewTime: 54478
Countdown: 0
SampleSet: Normal
StackLeniency: 0.7
Mode: 1
LetterboxInBreaks: 0
WidescreenStoryboard: 1

[Editor]
Bookmarks: 11069,25615,40160,69251,83797,99706
DistanceSpacing: 0.8
BeatDivisor: 2
GridSize: 8
TimelineZoom: 0.4

[Metadata]
Title:agony (TV Size)
TitleUnicode:agony (TV Size)
Artist:KOTOKO
ArtistUnicode:KOTOKO
Creator:J a c k y
Version:Futsuu
Source:神無月の巫女
Tags:Destiny of the Shrine Maiden jacky j_a_c_k_y ending ed Kannazuki no Miko anime japanese JPop J-pop Pop
BeatmapID:2683378
BeatmapSetID:1293072

[Difficulty]
HPDrainRate:7
CircleSize:5
OverallDifficulty:4
ApproachRate:5
SliderMultiplier:1.4
SliderTickRate:1

[Events]
//Background and Video events
0,0,"godnomoon.jpg",0,30
//Break Periods
//Storyboard Layer 0 (Background)
//Storyboard Layer 1 (Fail)
//Storyboard Layer 2 (Pass)
//Storyboard Layer 3 (Foreground)
//Storyboard Layer 4 (Overlay)
//Storyboard Sound Samples

[TimingPoints]
3797,454.545454545455,4,1,0,70,1,0
38001,-100,4,1,0,80,0,0
54706,-100,4,1,0,100,0,1
81978,-100,4,1,0,70,0,0
96524,-100,4,1,0,50,0,0
97433,-100,4,1,0,40,0,0
98342,-100,4,1,0,30,0,0
99251,-100,4,1,0,20,0,0

[HitObjects]
112,119,3797,5,4,0:0:0:0:
112,119,4706,1,8,0:0:0:0:
112,119,5387,1,0,0:0:0:0:
112,119,6069,1,8,0:0:0:0:
112,119,6524,1,8,0:0:0:0:
112,119,7433,1,0,0:0:0:0:
112,119,8342,1,8,0:0:0:0:
112,119,9024,1,0,0:0:0:0:
112,119,9706,1,8,0:0:0:0:
112,119,10160,1,8,0:0:0:0:
112,119,11069,1,0,0:0:0:0:
112,119,11751,1,8,0:0:0:0:
167,127,11978,1,0,0:0:0:0:
146,155,12660,1,8,0:0:0:0:
97,125,12887,1,8,0:0:0:0:
97,125,13569,1,0,0:0:0:0:
97,125,13797,1,0,0:0:0:0:
97,125,14251,1,0,0:0:0:0:
97,125,14706,1,0,0:0:0:0:
124,129,15387,1,8,0:0:0:0:
124,129,15615,1,0,0:0:0:0:
111,154,16297,1,0,0:0:0:0:
111,154,16524,1,0,0:0:0:0:
55,155,17206,1,0,0:0:0:0:
55,155,17433,1,0,0:0:0:0:
55,155,17887,1,0,0:0:0:0:
83,138,18342,1,8,0:0:0:0:
83,138,19024,1,8,0:0:0:0:
138,142,19251,1,0,0:0:0:0:
53,130,19933,1,8,0:0:0:0:
107,119,20160,1,0,0:0:0:0:
132,169,20842,1,0,0:0:0:0:
81,143,21069,1,8,0:0:0:0:
81,143,21524,1,0,0:0:0:0:
81,143,21978,1,8,0:0:0:0:
81,143,22660,1,0,0:0:0:0:
81,143,22887,1,8,0:0:0:0:
92,118,23342,1,0,0:0:0:0:
92,118,23569,1,8,0:0:0:0:
92,118,23797,1,0,0:0:0:0:
92,118,24706,1,8,0:0:0:0:
92,118,24933,1,8,0:0:0:0:
92,118,25160,1,0,0:0:0:0:
83,138,25615,1,4,0:0:0:0:
83,138,26524,1,0,0:0:0:0:
92,136,26978,1,8,0:0:0:0:
92,136,27433,1,0,0:0:0:0:
92,136,28115,1,0,0:0:0:0:
92,136,28342,1,0,0:0:0:0:
92,136,28797,1,8,0:0:0:0:
92,136,29251,1,0,0:0:0:0:
92,136,30160,1,0,0:0:0:0:
92,136,30615,1,8,0:0:0:0:
92,136,31069,1,0,0:0:0:0:
67,120,31751,1,8,0:0:0:0:
102,97,31978,1,8,0:0:0:0:
129,100,32433,1,8,0:0:0:0:
102,97,32887,1,4,0:0:0:0:
129,100,33797,1,0,0:0:0:0:
129,100,34251,1,8,0:0:0:0:
100,96,34706,1,0,0:0:0:0:
129,100,35387,1,0,0:0:0:0:
125,86,35615,1,8,0:0:0:0:
100,96,36069,1,0,0:0:0:0:
50,104,36524,1,8,0:0:0:0:
50,104,37206,1,8,0:0:0:0:
50,104,37433,1,8,0:0:0:0:
50,104,37887,1,8,0:0:0:0:
50,104,38342,1,0,0:0:0:0:
77,99,38569,1,0,0:0:0:0:
50,104,38797,1,8,0:0:0:0:
50,104,39024,1,8,0:0:0:0:
50,104,39251,1,8,0:0:0:0:
77,99,39706,1,8,0:0:0:0:
50,104,40160,1,4,0:0:0:0:
50,104,40615,1,8,0:0:0:0:
65,157,40842,1,0,0:0:0:0:
56,130,41069,1,0,0:0:0:0:
56,130,41524,1,8,0:0:0:0:
103,159,41751,1,8,0:0:0:0:
56,130,41978,1,0,0:0:0:0:
55,129,42433,1,8,0:0:0:0:
110,135,42660,1,0,0:0:0:0:
111,136,43115,1,0,0:0:0:0:
71,124,43342,1,8,0:0:0:0:
71,124,43797,1,4,0:0:0:0:
71,124,44706,1,12,0:0:0:0:
71,124,45615,1,12,0:0:0:0:
71,124,46297,1,0,0:0:0:0:
71,124,46524,1,8,0:0:0:0:
71,124,46978,1,0,0:0:0:0:
71,124,47433,1,4,0:0:0:0:
96,135,47887,1,8,0:0:0:0:
96,135,48115,1,8,0:0:0:0:
96,135,48342,1,0,0:0:0:0:
96,135,48797,1,8,0:0:0:0:
96,135,49024,1,8,0:0:0:0:
96,135,49251,1,0,0:0:0:0:
96,135,49706,1,8,0:0:0:0:
96,135,49933,1,8,0:0:0:0:
96,135,50387,1,0,0:0:0:0:
96,135,50615,1,8,0:0:0:0:
71,124,51069,1,4,0:0:0:0:
71,124,51751,1,8,0:0:0:0:
71,124,51978,1,0,0:0:0:0:
71,124,52433,1,0,0:0:0:0:
94,130,52660,1,12,0:0:0:0:
94,130,53115,1,4,0:0:0:0:
94,130,53342,1,4,0:0:0:0:
94,130,54251,1,0,0:0:0:0:
94,130,54706,1,4,0:0:0:0:
184,64,55160,1,8,0:0:0:0:
160,114,55387,1,0,0:0:0:0:
111,214,55842,1,0,0:0:0:0:
92,124,56069,1,8,0:0:0:0:
135,164,56297,1,0,0:0:0:0:
92,124,56524,1,0,0:0:0:0:
92,124,56978,1,0,0:0:0:0:
92,124,57206,1,0,0:0:0:0:
92,124,57433,1,8,0:0:0:0:
92,124,57887,1,8,0:0:0:0:
92,124,58342,1,8,0:0:0:0:
92,124,58797,1,0,0:0:0:0:
92,124,59024,1,0,0:0:0:0:
92,124,59251,1,8,0:0:0:0:
92,124,59706,1,8,0:0:0:0:
92,124,60160,1,8,0:0:0:0:
92,124,60615,1,0,0:0:0:0:
92,124,60842,1,8,0:0:0:0:
64,119,61069,1,0,0:0:0:0:
92,124,61524,1,8,0:0:0:0:
112,91,61978,1,4,0:0:0:0:
30,111,62660,1,0,0:0:0:0:
84,97,62887,1,8,0:0:0:0:
84,97,63569,1,0,0:0:0:0:
84,97,63797,1,8,0:0:0:0:
28,94,64478,1,0,0:0:0:0:
84,97,64706,1,8,0:0:0:0:
84,97,65160,1,8,0:0:0:0:
84,97,65615,1,0,0:0:0:0:
71,121,66069,1,8,0:0:0:0:
84,97,66524,1,0,0:0:0:0:
52,97,67433,1,8,0:0:0:0:
71,121,67887,1,4,0:0:0:0:
71,121,68342,1,8,0:0:0:0:
71,121,68569,1,0,0:0:0:0:
55,118,68797,1,0,0:0:0:0:
55,118,69251,1,4,0:0:0:0:
55,118,69706,1,8,0:0:0:0:
55,118,69933,1,8,0:0:0:0:
55,118,70387,1,0,0:0:0:0:
55,118,70615,1,8,0:0:0:0:
55,118,70842,1,0,0:0:0:0:
55,118,71069,1,8,0:0:0:0:
55,118,71524,1,8,0:0:0:0:
55,118,71751,1,0,0:0:0:0:
55,118,71978,1,0,0:0:0:0:
55,118,72433,1,0,0:0:0:0:
487,2,72887,1,12,0:0:0:0:
34,98,73342,1,8,0:0:0:0:
34,98,73569,1,8,0:0:0:0:
34,98,73797,1,8,0:0:0:0:
116,90,74251,1,0,0:0:0:0:
255,86,74706,1,4,0:0:0:0:
143,98,75160,1,8,0:0:0:0:
143,98,75387,1,8,0:0:0:0:
143,98,75615,1,8,0:0:0:0:
77,150,76069,1,8,0:0:0:0:
85,134,76524,1,4,0:0:0:0:
85,134,77206,1,0,0:0:0:0:
85,134,77433,1,0,0:0:0:0:
85,134,78115,1,0,0:0:0:0:
85,134,78342,1,8,0:0:0:0:
61,107,79024,1,0,0:0:0:0:
61,107,79251,1,8,0:0:0:0:
97,149,79706,1,0,0:0:0:0:
97,149,80160,1,12,0:0:0:0:
97,149,81069,1,0,0:0:0:0:
41,143,81297,1,0,0:0:0:0:
68,145,81524,1,8,0:0:0:0:
94,130,81978,1,4,0:0:0:0:
94,130,83342,1,8,0:0:0:0:
94,130,83797,1,4,0:0:0:0:
94,130,84251,1,8,0:0:0:0:
94,130,84478,1,0,0:0:0:0:
94,130,84933,1,8,0:0:0:0:
94,130,85387,1,0,0:0:0:0:
101,112,86069,1,8,0:0:0:0:
101,112,86297,1,0,0:0:0:0:
149,138,86751,1,0,0:0:0:0:
149,138,87206,1,8,0:0:0:0:
149,138,87433,1,0,0:0:0:0:
149,138,87887,1,0,0:0:0:0:
149,138,88115,1,8,0:0:0:0:
149,138,88569,1,0,0:0:0:0:
149,138,88797,1,8,0:0:0:0:
149,138,89024,1,0,0:0:0:0:
149,138,89251,1,0,0:0:0:0:
149,138,89706,1,8,0:0:0:0:
149,138,90160,1,0,0:0:0:0:
149,138,90387,1,0,0:0:0:0:
149,138,90615,1,8,0:0:0:0:
149,138,91069,1,4,0:0:0:0:
223,54,91524,1,8,0:0:0:0:
184,93,91751,1,8,0:0:0:0:
145,132,92206,1,8,0:0:0:0:
184,93,92433,1,0,0:0:0:0:
184,93,92660,1,8,0:0:0:0:
67,213,93342,1,8,0:0:0:0:
105,172,93569,1,8,0:0:0:0:
145,132,94024,1,8,0:0:0:0:
151,109,94251,1,0,0:0:0:0:
127,124,94478,1,8,0:0:0:0:
127,124,94706,1,0,0:0:0:0:
127,124,95160,1,8,0:0:0:0:
151,109,95387,1,8,0:0:0:0:
151,109,95615,1,8,0:0:0:0:
169,104,96069,1,8,0:0:0:0:
256,192,96524,12,0,99706,0:0:0:0:
