osu file format v14

[General]
AudioFilename: audio.ogg
AudioLeadIn: 0
PreviewTime: 54478
Countdown: 0
SampleSet: Normal
StackLeniency: 0.7
Mode: 1
LetterboxInBreaks: 0
WidescreenStoryboard: 0

[Editor]
Bookmarks: 11069,25615,40160,69251,83797,99706
DistanceSpacing: 0.8
BeatDivisor: 4
GridSize: 8
TimelineZoom: 2.2

[Metadata]
Title:agony (TV Size)
TitleUnicode:agony (TV Size)
Artist:KOTOKO
ArtistUnicode:KOTOKO
Creator:J a c k y
Version:Excruciation
Source:神無月の巫女
Tags:Destiny of the Shrine Maiden jacky j_a_c_k_y ending ed Kannazuki no Miko anime japanese JPop J-pop Pop
BeatmapID:2683377
BeatmapSetID:1293072

[Difficulty]
HPDrainRate:6
CircleSize:5
OverallDifficulty:6
ApproachRate:5
SliderMultiplier:1.4
SliderTickRate:1

[Events]
//Background and Video events
0,0,"godnomoon.jpg",0,30
//Break Periods
//Storyboard Layer 0 (Background)
//Storyboard Layer 1 (Fail)
//Storyboard Layer 2 (Pass)
//Storyboard Layer 3 (Foreground)
//Storyboard Layer 4 (Overlay)
//Storyboard Sound Samples

[TimingPoints]
3797,454.545454545455,4,1,0,70,1,0
38001,-100,4,1,0,80,0,0
54706,-100,4,1,0,100,0,1
81978,-100,4,1,0,70,0,0
96637,-100,4,1,0,50,0,0
97433,-100,4,1,0,40,0,0
98342,-100,4,1,0,30,0,0
99251,-100,4,1,0,20,0,0

[HitObjects]
112,119,3797,5,4,0:0:0:0:
112,119,4252,1,0,0:0:0:0:
112,119,4707,1,8,0:0:0:0:
112,119,5161,1,8,0:0:0:0:
112,119,5388,1,0,0:0:0:0:
112,119,5843,1,0,0:0:0:0:
112,119,6070,1,8,0:0:0:0:
112,119,6298,1,0,0:0:0:0:
112,119,6525,1,8,0:0:0:0:
112,119,6979,1,8,0:0:0:0:
112,119,7207,1,8,0:0:0:0:
112,119,7434,1,0,0:0:0:0:
112,119,7888,1,0,0:0:0:0:
112,119,8116,1,0,0:0:0:0:
112,119,8343,1,8,0:0:0:0:
112,119,8798,1,8,0:0:0:0:
112,119,9025,1,0,0:0:0:0:
112,119,9479,1,0,0:0:0:0:
112,119,9707,1,8,0:0:0:0:
112,119,9934,1,0,0:0:0:0:
112,119,10161,1,8,0:0:0:0:
112,119,10616,1,8,0:0:0:0:
112,119,10843,1,8,0:0:0:0:
112,119,11070,1,0,0:0:0:0:
112,119,11298,1,0,0:0:0:0:
112,119,11411,1,8,0:0:0:0:
112,119,11752,1,8,0:0:0:0:
167,127,11979,1,0,0:0:0:0:
119,157,12207,1,0,0:0:0:0:
146,155,12320,1,8,0:0:0:0:
146,155,12661,1,8,0:0:0:0:
121,140,12775,1,0,0:0:0:0:
97,125,12888,1,8,0:0:0:0:
119,157,13116,1,0,0:0:0:0:
119,157,13229,1,8,0:0:0:0:
97,125,13457,1,8,0:0:0:0:
97,125,13570,1,0,0:0:0:0:
97,125,13684,1,0,0:0:0:0:
97,125,13798,1,8,0:0:0:0:
97,125,14025,1,8,0:0:0:0:
97,125,14138,1,8,0:0:0:0:
97,125,14252,1,0,0:0:0:0:
97,125,14479,1,8,0:0:0:0:
97,125,14707,1,0,0:0:0:0:
152,132,14934,1,0,0:0:0:0:
124,129,15048,1,8,0:0:0:0:
124,129,15388,1,8,0:0:0:0:
124,129,15616,1,0,0:0:0:0:
94,176,15843,1,0,0:0:0:0:
111,154,15957,1,8,0:0:0:0:
111,154,16298,1,0,0:0:0:0:
111,154,16411,1,0,0:0:0:0:
111,154,16525,1,8,0:0:0:0:
55,155,16752,1,0,0:0:0:0:
55,155,16866,1,8,0:0:0:0:
55,155,17093,1,8,0:0:0:0:
55,155,17207,1,0,0:0:0:0:
55,155,17320,1,0,0:0:0:0:
55,155,17434,1,8,0:0:0:0:
55,155,17661,1,8,0:0:0:0:
55,155,17888,1,0,0:0:0:0:
55,155,18116,1,8,0:0:0:0:
83,138,18343,1,0,0:0:0:0:
83,138,18457,1,0,0:0:0:0:
83,138,18570,1,8,0:0:0:0:
83,138,18684,1,8,0:0:0:0:
83,138,18798,1,0,0:0:0:0:
83,138,19025,1,8,0:0:0:0:
83,138,19138,1,0,0:0:0:0:
138,142,19252,1,8,0:0:0:0:
109,140,19366,1,0,0:0:0:0:
109,140,19479,1,8,0:0:0:0:
109,140,19593,1,8,0:0:0:0:
109,140,19707,1,0,0:0:0:0:
53,130,19934,1,8,0:0:0:0:
107,119,20048,1,8,0:0:0:0:
107,119,20161,1,0,0:0:0:0:
107,119,20275,1,0,0:0:0:0:
107,119,20388,1,8,0:0:0:0:
107,119,20502,1,0,0:0:0:0:
107,119,20616,1,8,0:0:0:0:
132,169,20843,1,0,0:0:0:0:
106,156,20957,1,0,0:0:0:0:
81,143,21070,1,8,0:0:0:0:
81,143,21184,1,8,0:0:0:0:
81,143,21298,1,0,0:0:0:0:
81,143,21411,1,0,0:0:0:0:
81,143,21525,1,8,0:0:0:0:
81,143,21752,1,8,0:0:0:0:
81,143,21866,1,8,0:0:0:0:
81,143,21979,1,0,0:0:0:0:
81,143,22093,1,8,0:0:0:0:
81,143,22207,1,0,0:0:0:0:
81,143,22320,1,0,0:0:0:0:
81,143,22434,1,8,0:0:0:0:
81,143,22661,1,0,0:0:0:0:
81,143,22775,1,0,0:0:0:0:
81,143,22888,1,8,0:0:0:0:
81,143,23002,1,0,0:0:0:0:
81,143,23116,1,0,0:0:0:0:
81,143,23229,1,0,0:0:0:0:
92,118,23343,1,8,0:0:0:0:
64,120,23457,1,0,0:0:0:0:
92,118,23570,1,8,0:0:0:0:
63,119,23684,1,8,0:0:0:0:
92,118,23798,1,0,0:0:0:0:
92,118,24025,1,8,0:0:0:0:
92,118,24101,1,8,0:0:0:0:
92,118,24176,1,8,0:0:0:0:
92,118,24252,1,0,0:0:0:0:
92,118,24479,1,8,0:0:0:0:
92,118,24555,1,8,0:0:0:0:
92,118,24631,1,8,0:0:0:0:
92,118,24707,1,0,0:0:0:0:
92,118,24934,1,8,0:0:0:0:
92,118,25010,1,8,0:0:0:0:
92,136,25085,1,8,0:0:0:0:
92,118,25161,1,0,0:0:0:0:
36,121,25388,1,8,0:0:0:0:
83,138,25616,1,4,0:0:0:0:
92,136,25843,1,0,0:0:0:0:
92,136,25957,1,0,0:0:0:0:
92,136,26070,1,8,0:0:0:0:
83,138,26298,1,0,0:0:0:0:
83,138,26525,1,0,0:0:0:0:
92,136,26752,1,0,0:0:0:0:
92,136,26866,1,0,0:0:0:0:
92,136,26979,1,8,0:0:0:0:
92,136,27207,1,8,0:0:0:0:
92,136,27320,1,8,0:0:0:0:
92,136,27434,1,0,0:0:0:0:
92,136,27661,1,0,0:0:0:0:
92,136,27888,1,8,0:0:0:0:
92,136,28116,1,0,0:0:0:0:
92,136,28229,1,0,0:0:0:0:
92,136,28343,1,8,0:0:0:0:
92,136,28570,1,8,0:0:0:0:
92,136,28683,1,0,0:0:0:0:
92,136,28798,1,8,0:0:0:0:
92,136,28911,1,8,0:0:0:0:
92,136,29025,1,0,0:0:0:0:
92,136,29252,1,8,0:0:0:0:
92,136,29479,1,0,0:0:0:0:
92,136,29592,1,0,0:0:0:0:
92,136,29706,1,8,0:0:0:0:
92,136,29934,1,0,0:0:0:0:
92,136,30161,1,0,0:0:0:0:
92,136,30388,1,0,0:0:0:0:
92,136,30502,1,0,0:0:0:0:
92,136,30616,1,8,0:0:0:0:
92,136,30843,1,8,0:0:0:0:
67,120,30956,1,8,0:0:0:0:
92,136,31070,1,0,0:0:0:0:
40,114,31298,1,0,0:0:0:0:
67,120,31524,1,8,0:0:0:0:
67,120,31752,1,8,0:0:0:0:
102,97,31866,1,8,0:0:0:0:
102,97,31979,1,0,0:0:0:0:
102,97,32207,1,0,0:0:0:0:
102,97,32320,1,0,0:0:0:0:
129,100,32434,1,8,0:0:0:0:
129,100,32548,1,0,0:0:0:0:
129,100,32661,1,8,0:0:0:0:
102,97,32888,1,4,0:0:0:0:
129,100,33116,1,0,0:0:0:0:
129,100,33228,1,0,0:0:0:0:
129,100,33342,1,8,0:0:0:0:
129,100,33569,1,0,0:0:0:0:
129,100,33798,1,0,0:0:0:0:
129,100,34025,1,0,0:0:0:0:
129,100,34138,1,0,0:0:0:0:
73,93,34251,1,8,0:0:0:0:
100,96,34479,1,0,0:0:0:0:
100,96,34707,1,0,0:0:0:0:
152,77,34934,1,0,0:0:0:0:
125,86,35048,1,0,0:0:0:0:
125,86,35161,1,8,0:0:0:0:
125,86,35388,1,0,0:0:0:0:
125,86,35502,1,0,0:0:0:0:
125,86,35616,1,8,0:0:0:0:
98,92,35728,1,0,0:0:0:0:
100,96,35843,1,8,0:0:0:0:
100,96,35957,1,8,0:0:0:0:
100,96,36070,1,0,0:0:0:0:
50,104,36298,1,8,0:0:0:0:
50,104,36411,1,8,0:0:0:0:
50,104,36525,1,0,0:0:0:0:
50,104,36601,1,0,0:0:0:0:
50,104,36676,1,0,0:0:0:0:
50,104,36752,1,0,0:0:0:0:
50,104,36828,1,0,0:0:0:0:
50,104,36904,1,0,0:0:0:0:
50,104,36979,1,8,0:0:0:0:
50,104,37207,1,8,0:0:0:0:
50,104,37320,1,8,0:0:0:0:
50,104,37434,1,0,0:0:0:0:
50,104,37510,1,0,0:0:0:0:
50,104,37585,1,0,0:0:0:0:
50,104,37661,1,0,0:0:0:0:
50,104,37737,1,0,0:0:0:0:
50,104,37813,1,0,0:0:0:0:
50,104,37888,1,8,0:0:0:0:
50,104,38116,1,8,0:0:0:0:
50,104,38229,1,8,0:0:0:0:
50,104,38343,1,0,0:0:0:0:
50,104,38457,1,8,0:0:0:0:
50,104,38570,1,0,0:0:0:0:
50,104,38684,1,0,0:0:0:0:
50,104,38798,1,8,0:0:0:0:
50,104,39025,1,8,0:0:0:0:
50,104,39138,1,8,0:0:0:0:
50,104,39252,1,0,0:0:0:0:
77,99,39366,1,8,0:0:0:0:
77,99,39479,1,0,0:0:0:0:
77,99,39593,1,0,0:0:0:0:
77,99,39707,1,8,0:0:0:0:
77,99,39934,1,8,0:0:0:0:
50,104,40161,1,4,0:0:0:0:
95,174,40502,1,0,0:0:0:0:
50,104,40616,1,8,0:0:0:0:
65,157,40843,1,0,0:0:0:0:
56,130,40957,1,0,0:0:0:0:
56,130,41070,1,0,0:0:0:0:
56,130,41298,1,0,0:0:0:0:
56,130,41525,1,8,0:0:0:0:
56,130,41752,1,0,0:0:0:0:
56,130,41866,1,8,0:0:0:0:
56,130,41979,1,0,0:0:0:0:
111,136,42207,1,0,0:0:0:0:
55,129,42434,1,8,0:0:0:0:
110,135,42661,1,0,0:0:0:0:
111,136,42775,1,0,0:0:0:0:
111,136,42888,1,0,0:0:0:0:
111,136,43116,1,0,0:0:0:0:
71,124,43343,1,8,0:0:0:0:
71,124,43570,1,0,0:0:0:0:
71,124,43684,1,8,0:0:0:0:
71,124,43798,1,0,0:0:0:0:
71,124,44252,1,8,0:0:0:0:
71,124,44479,1,0,0:0:0:0:
71,124,44593,1,0,0:0:0:0:
71,124,44707,1,8,0:0:0:0:
71,124,45161,1,8,0:0:0:0:
71,124,45388,1,8,0:0:0:0:
71,124,45502,1,0,0:0:0:0:
71,124,45616,1,8,0:0:0:0:
71,124,46070,1,8,0:0:0:0:
71,124,46298,1,8,0:0:0:0:
71,124,46411,1,8,0:0:0:0:
71,124,46525,1,8,0:0:0:0:
71,124,46752,1,8,0:0:0:0:
71,124,46979,1,0,0:0:0:0:
71,124,47207,1,8,0:0:0:0:
71,124,47434,1,4,0:0:0:0:
96,135,47775,1,0,0:0:0:0:
96,135,47888,1,8,0:0:0:0:
96,135,48116,1,8,0:0:0:0:
96,135,48343,1,0,0:0:0:0:
96,135,48684,1,0,0:0:0:0:
96,135,48798,1,8,0:0:0:0:
96,135,49025,1,8,0:0:0:0:
96,135,49252,1,0,0:0:0:0:
96,135,49479,1,0,0:0:0:0:
96,135,49707,1,8,0:0:0:0:
96,135,49934,1,8,0:0:0:0:
96,135,50161,1,0,0:0:0:0:
96,135,50275,1,0,0:0:0:0:
96,135,50388,1,0,0:0:0:0:
96,135,50616,1,8,0:0:0:0:
71,124,50729,1,8,0:0:0:0:
71,124,50843,1,8,0:0:0:0:
71,124,51070,1,4,0:0:0:0:
71,124,51298,1,0,0:0:0:0:
71,124,51411,1,8,0:0:0:0:
16,136,51638,1,0,0:0:0:0:
71,124,51752,1,8,0:0:0:0:
71,124,51979,1,0,0:0:0:0:
71,124,52092,1,0,0:0:0:0:
120,97,52207,1,0,0:0:0:0:
94,130,52434,1,0,0:0:0:0:
94,130,52661,1,12,0:0:0:0:
94,130,53116,1,4,0:0:0:0:
94,130,53343,1,4,0:0:0:0:
94,130,53570,1,8,0:0:0:0:
94,130,53684,1,8,0:0:0:0:
94,130,53798,1,0,0:0:0:0:
94,130,53872,1,0,0:0:0:0:
94,130,53948,1,0,0:0:0:0:
94,130,54025,1,8,0:0:0:0:
94,130,54100,1,8,0:0:0:0:
119,117,54175,1,8,0:0:0:0:
76,135,54251,1,0,0:0:0:0:
94,130,54478,1,8,0:0:0:0:
119,117,54592,1,8,0:0:0:0:
94,130,54707,1,0,0:0:0:0:
184,64,55161,1,8,0:0:0:0:
160,114,55388,1,0,0:0:0:0:
147,139,55502,1,0,0:0:0:0:
135,164,55616,1,0,0:0:0:0:
111,214,55843,1,0,0:0:0:0:
92,124,55956,1,0,0:0:0:0:
92,124,56070,1,8,0:0:0:0:
92,124,56183,1,0,0:0:0:0:
92,124,56298,1,0,0:0:0:0:
92,124,56411,1,8,0:0:0:0:
92,124,56638,1,8,0:0:0:0:
92,124,56752,1,0,0:0:0:0:
92,124,56866,1,0,0:0:0:0:
92,124,56979,1,8,0:0:0:0:
92,124,57207,1,0,0:0:0:0:
92,124,57320,1,0,0:0:0:0:
92,124,57434,1,8,0:0:0:0:
92,124,57661,1,8,0:0:0:0:
92,124,57775,1,8,0:0:0:0:
92,124,57888,1,8,0:0:0:0:
92,124,58002,1,0,0:0:0:0:
92,124,58116,1,0,0:0:0:0:
92,124,58229,1,8,0:0:0:0:
92,124,58457,1,8,0:0:0:0:
92,124,58570,1,0,0:0:0:0:
92,124,58684,1,0,0:0:0:0:
92,124,58798,1,8,0:0:0:0:
92,124,59025,1,0,0:0:0:0:
92,124,59138,1,0,0:0:0:0:
92,124,59252,1,8,0:0:0:0:
92,124,59479,1,8,0:0:0:0:
92,124,59593,1,8,0:0:0:0:
92,124,59707,1,8,0:0:0:0:
92,124,59820,1,0,0:0:0:0:
92,124,59934,1,0,0:0:0:0:
92,124,60048,1,8,0:0:0:0:
92,124,60275,1,8,0:0:0:0:
92,124,60388,1,0,0:0:0:0:
92,124,60502,1,0,0:0:0:0:
92,124,60616,1,8,0:0:0:0:
92,124,60843,1,8,0:0:0:0:
92,124,60957,1,8,0:0:0:0:
64,119,61070,1,0,0:0:0:0:
92,124,61298,1,0,0:0:0:0:
92,124,61411,1,0,0:0:0:0:
92,124,61525,1,8,0:0:0:0:
92,124,61752,1,8,0:0:0:0:
112,91,61979,1,4,0:0:0:0:
112,91,62207,1,8,0:0:0:0:
112,91,62320,1,0,0:0:0:0:
57,104,62548,1,0,0:0:0:0:
30,111,62661,1,0,0:0:0:0:
57,104,62775,1,0,0:0:0:0:
84,97,62888,1,8,0:0:0:0:
84,97,63116,1,0,0:0:0:0:
84,97,63229,1,8,0:0:0:0:
84,97,63457,1,0,0:0:0:0:
84,97,63570,1,0,0:0:0:0:
84,97,63684,1,8,0:0:0:0:
84,97,63798,1,8,0:0:0:0:
84,97,64025,1,8,0:0:0:0:
84,97,64138,1,0,0:0:0:0:
118,141,64366,1,0,0:0:0:0:
84,97,64479,1,8,0:0:0:0:
84,97,64593,1,0,0:0:0:0:
84,97,64707,1,8,0:0:0:0:
84,97,64934,1,8,0:0:0:0:
56,94,65048,1,8,0:0:0:0:
84,97,65161,1,0,0:0:0:0:
84,97,65388,1,8,0:0:0:0:
68,120,65502,1,8,0:0:0:0:
84,97,65616,1,0,0:0:0:0:
68,120,65729,1,8,0:0:0:0:
71,121,65843,1,0,0:0:0:0:
71,121,65957,1,0,0:0:0:0:
71,121,66070,1,8,0:0:0:0:
84,97,66298,1,8,0:0:0:0:
84,97,66411,1,8,0:0:0:0:
84,97,66525,1,0,0:0:0:0:
68,120,66638,1,8,0:0:0:0:
71,121,66752,1,0,0:0:0:0:
71,121,66866,1,0,0:0:0:0:
71,121,66979,1,8,0:0:0:0:
30,82,67207,1,8,0:0:0:0:
52,97,67320,1,8,0:0:0:0:
52,97,67434,1,0,0:0:0:0:
52,97,67548,1,0,0:0:0:0:
52,97,67661,1,0,0:0:0:0:
71,121,67888,1,4,0:0:0:0:
71,121,68116,1,0,0:0:0:0:
71,121,68229,1,8,0:0:0:0:
71,121,68457,1,8,0:0:0:0:
71,121,68570,1,0,0:0:0:0:
71,121,68684,1,8,0:0:0:0:
55,118,68798,1,0,0:0:0:0:
71,121,68910,1,0,0:0:0:0:
55,118,69025,1,8,0:0:0:0:
55,118,69252,1,4,0:0:0:0:
55,118,69707,1,8,0:0:0:0:
55,118,69934,1,8,0:0:0:0:
55,118,70048,1,8,0:0:0:0:
55,118,70161,1,0,0:0:0:0:
55,118,70388,1,0,0:0:0:0:
55,118,70502,1,0,0:0:0:0:
55,118,70616,1,8,0:0:0:0:
55,118,70729,1,8,0:0:0:0:
55,118,70843,1,0,0:0:0:0:
55,118,70957,1,8,0:0:0:0:
55,118,71184,1,8,0:0:0:0:
55,118,71298,1,0,0:0:0:0:
55,118,71411,1,0,0:0:0:0:
55,118,71525,1,8,0:0:0:0:
55,118,71752,1,0,0:0:0:0:
55,118,71866,1,0,0:0:0:0:
55,118,71979,1,8,0:0:0:0:
55,118,72207,1,8,0:0:0:0:
55,118,72320,1,8,0:0:0:0:
55,118,72434,1,0,0:0:0:0:
55,118,72661,1,0,0:0:0:0:
78,133,72775,1,8,0:0:0:0:
487,2,72888,1,8,0:0:0:0:
34,98,73229,1,0,0:0:0:0:
34,98,73343,1,8,0:0:0:0:
34,98,73570,1,8,0:0:0:0:
34,98,73684,1,0,0:0:0:0:
34,98,73798,1,8,0:0:0:0:
89,92,74025,1,8,0:0:0:0:
116,90,74138,1,0,0:0:0:0:
116,90,74252,1,0,0:0:0:0:
313,84,74479,1,0,0:0:0:0:
284,85,74593,1,8,0:0:0:0:
255,86,74707,1,0,0:0:0:0:
171,95,75048,1,0,0:0:0:0:
143,98,75161,1,8,0:0:0:0:
143,98,75388,1,8,0:0:0:0:
143,98,75502,1,8,0:0:0:0:
143,98,75616,1,0,0:0:0:0:
99,133,75843,1,0,0:0:0:0:
77,150,75957,1,0,0:0:0:0:
77,150,76070,1,8,0:0:0:0:
77,150,76298,1,8,0:0:0:0:
85,134,76525,1,4,0:0:0:0:
85,134,76752,1,0,0:0:0:0:
85,134,76866,1,8,0:0:0:0:
85,134,77093,1,8,0:0:0:0:
85,134,77207,1,0,0:0:0:0:
85,134,77320,1,8,0:0:0:0:
85,134,77434,1,0,0:0:0:0:
85,134,77661,1,0,0:0:0:0:
85,134,77775,1,8,0:0:0:0:
85,134,78002,1,8,0:0:0:0:
85,134,78116,1,0,0:0:0:0:
85,134,78229,1,0,0:0:0:0:
85,134,78343,1,8,0:0:0:0:
61,107,78570,1,8,0:0:0:0:
61,107,78684,1,0,0:0:0:0:
61,107,78798,1,0,0:0:0:0:
61,107,78911,1,8,0:0:0:0:
61,107,79025,1,0,0:0:0:0:
61,107,79138,1,0,0:0:0:0:
61,107,79252,1,8,0:0:0:0:
97,149,79479,1,0,0:0:0:0:
97,149,79593,1,0,0:0:0:0:
97,149,79707,1,8,0:0:0:0:
97,149,79934,1,0,0:0:0:0:
97,149,80048,1,0,0:0:0:0:
97,149,80161,1,8,0:0:0:0:
97,149,80388,1,0,0:0:0:0:
97,149,80502,1,8,0:0:0:0:
97,149,80729,1,0,0:0:0:0:
97,149,80843,1,0,0:0:0:0:
97,149,80957,1,8,0:0:0:0:
97,149,81070,1,0,0:0:0:0:
41,143,81298,1,0,0:0:0:0:
68,145,81411,1,0,0:0:0:0:
68,145,81525,1,8,0:0:0:0:
68,145,81638,1,8,0:0:0:0:
86,166,81752,1,0,0:0:0:0:
94,130,81979,1,4,0:0:0:0:
94,130,82434,1,8,0:0:0:0:
94,130,82661,1,8,0:0:0:0:
94,130,82775,1,8,0:0:0:0:
94,130,83116,1,8,0:0:0:0:
94,130,83343,1,8,0:0:0:0:
94,130,83419,1,8,0:0:0:0:
94,130,83494,1,8,0:0:0:0:
94,130,83570,1,8,0:0:0:0:
94,130,83646,1,8,0:0:0:0:
94,130,83722,1,8,0:0:0:0:
94,130,83798,1,0,0:0:0:0:
94,130,84252,1,8,0:0:0:0:
94,130,84479,1,0,0:0:0:0:
94,130,84706,1,0,0:0:0:0:
94,130,84819,1,0,0:0:0:0:
94,130,84934,1,0,0:0:0:0:
94,130,85161,1,8,0:0:0:0:
94,130,85388,1,0,0:0:0:0:
94,130,85616,1,0,0:0:0:0:
101,112,86070,1,8,0:0:0:0:
101,112,86298,1,0,0:0:0:0:
94,130,86524,1,0,0:0:0:0:
94,130,86637,1,0,0:0:0:0:
198,166,86752,1,0,0:0:0:0:
149,138,86979,1,8,0:0:0:0:
149,138,87207,1,8,0:0:0:0:
149,138,87434,1,0,0:0:0:0:
149,138,87888,1,8,0:0:0:0:
149,138,88116,1,0,0:0:0:0:
149,138,88343,1,0,0:0:0:0:
149,138,88456,1,0,0:0:0:0:
149,138,88569,1,0,0:0:0:0:
149,138,88798,1,8,0:0:0:0:
149,138,89025,1,0,0:0:0:0:
149,138,89252,1,0,0:0:0:0:
149,138,89366,1,0,0:0:0:0:
149,138,89479,1,0,0:0:0:0:
149,138,89593,1,0,0:0:0:0:
149,138,89707,1,8,0:0:0:0:
149,138,89934,1,8,0:0:0:0:
149,138,90161,1,0,0:0:0:0:
149,138,90275,1,0,0:0:0:0:
149,138,90388,1,0,0:0:0:0:
149,138,90502,1,0,0:0:0:0:
149,138,90616,1,8,0:0:0:0:
149,138,90843,1,8,0:0:0:0:
149,138,91070,1,4,0:0:0:0:
223,54,91525,1,8,0:0:0:0:
204,74,91638,1,8,0:0:0:0:
184,93,91752,1,0,0:0:0:0:
164,113,91866,1,0,0:0:0:0:
164,113,91979,1,8,0:0:0:0:
184,93,92207,1,8,0:0:0:0:
184,93,92434,1,0,0:0:0:0:
184,93,92661,1,8,0:0:0:0:
145,132,92888,1,0,0:0:0:0:
145,132,93002,1,0,0:0:0:0:
145,132,93116,1,0,0:0:0:0:
67,213,93343,1,8,0:0:0:0:
86,192,93457,1,8,0:0:0:0:
105,172,93570,1,0,0:0:0:0:
125,152,93684,1,0,0:0:0:0:
145,132,93798,1,8,0:0:0:0:
145,132,94025,1,8,0:0:0:0:
151,109,94252,1,0,0:0:0:0:
127,124,94479,1,8,0:0:0:0:
127,124,94593,1,8,0:0:0:0:
127,124,94707,1,0,0:0:0:0:
127,124,94782,1,0,0:0:0:0:
127,124,94858,1,0,0:0:0:0:
127,124,94934,1,0,0:0:0:0:
127,124,95010,1,0,0:0:0:0:
127,124,95085,1,0,0:0:0:0:
127,124,95161,1,8,0:0:0:0:
151,109,95388,1,8,0:0:0:0:
151,109,95502,1,8,0:0:0:0:
151,109,95616,1,0,0:0:0:0:
169,104,95691,1,0,0:0:0:0:
169,104,95767,1,0,0:0:0:0:
169,104,95843,1,0,0:0:0:0:
169,104,95919,1,0,0:0:0:0:
169,104,95994,1,0,0:0:0:0:
169,104,96070,1,8,0:0:0:0:
169,104,96298,1,8,0:0:0:0:
169,104,96525,1,4,0:0:0:0:
256,192,96751,12,0,99706,0:0:0:0:
