osu file format v14

[General]
AudioFilename: audio.mp3
AudioLeadIn: 0
PreviewTime: 54394
Countdown: 0
SampleSet: Soft
StackLeniency: 0.4
Mode: 0
LetterboxInBreaks: 0
WidescreenStoryboard: 1

[Editor]
Bookmarks: 25644,231099
DistanceSpacing: 0.9
BeatDivisor: 4
GridSize: 8
TimelineZoom: 1.8

[Metadata]
Title:agony
TitleUnicode:agony
Artist:KOTOKO
ArtistUnicode:KOTOKO
Creator:Apo11o
Version:bluirre's Normal
Source:神無月の巫女
Tags:jpop pop j-pop 中沢伴行 Tomoyuki Nakazawa Kannazuki no Miko Destiny of Shrine Maiden Japanese Anime ED -kemsyt aranel flux3on bluirre mildly accurate silent rock fluxie ending apollo
BeatmapID:3473060
BeatmapSetID:1697454

[Difficulty]
HPDrainRate:3
CircleSize:7
OverallDifficulty:4
ApproachRate:5.2
SliderMultiplier:0.999999999999999
SliderTickRate:1

[Events]
//Background and Video events
0,0,"Pokejie.jpg",0,0
//Break Periods
2,87662,96553
2,224026,227462
//Storyboard Layer 0 (Background)
//Storyboard Layer 1 (Fail)
//Storyboard Layer 2 (Pass)
//Storyboard Layer 3 (Foreground)
//Storyboard Layer 4 (Overlay)
//Storyboard Sound Samples

[TimingPoints]
190,454.545454545455,4,2,1,60,1,0
18371,-100,4,2,1,63,0,0
20190,-100,4,2,1,66,0,0
22008,-100,4,2,1,69,0,0
23826,-100,4,2,1,45,0,0
24053,-100,4,2,1,55,0,0
24280,-100,4,2,1,65,0,0
24508,-100,4,2,1,75,0,0
24735,-100,4,2,1,85,0,0
24962,-100,4,2,1,70,0,0
25644,-100,4,2,2,60,0,0
36553,-100,4,2,3,40,0,0
37008,-100,4,2,3,60,0,0
37462,-100,4,2,3,40,0,0
37917,-100,4,2,3,60,0,0
54735,-100,4,2,3,70,0,1
62008,-100,4,2,60,70,0,1
62121,-100,4,2,3,70,0,1
62917,-100,4,2,61,70,0,1
63030,-100,4,2,3,70,0,1
63826,-100,4,2,62,70,0,1
63940,-100,4,2,3,70,0,1
64735,-100,4,2,63,70,0,1
64849,-100,4,2,3,70,0,1
65190,-100,4,2,61,70,0,1
65303,-100,4,2,3,70,0,1
65644,-100,4,2,4,70,0,1
65758,-100,4,2,3,70,0,1
76553,-100,4,2,60,70,0,1
76667,-100,4,2,3,70,0,1
77462,-100,4,2,61,70,0,1
77576,-100,4,2,3,70,0,1
78371,-100,4,2,62,70,0,1
78485,-100,4,2,3,70,0,1
79280,-100,4,2,4,70,0,1
79735,-100,4,2,65,70,0,1
80190,-100,4,2,5,70,0,1
80417,-100,4,2,65,70,0,1
80530,-100,4,2,4,70,0,1
82008,-100,4,2,10,70,0,0
82462,-100,4,2,3,60,0,0
83826,-100,4,2,3,60,0,0
98371,-100,4,2,6,60,0,0
109280,-100,4,2,3,40,0,0
109735,-100,4,2,6,60,0,0
110190,-100,4,2,3,40,0,0
110644,-100,4,2,6,60,0,0
111099,-100,4,2,3,60,0,0
127462,-100,4,2,3,70,0,1
134735,-100,4,2,60,70,0,1
134849,-100,4,2,3,70,0,1
135644,-100,4,2,61,70,0,1
135758,-100,4,2,3,70,0,1
136553,-100,4,2,62,70,0,1
136667,-100,4,2,3,70,0,1
137462,-100,4,2,63,70,0,1
137576,-100,4,2,3,70,0,1
137917,-100,4,2,61,70,0,1
138030,-100,4,2,3,70,0,1
138371,-100,4,2,4,70,0,1
138485,-100,4,2,3,70,0,1
149280,-100,4,2,60,70,0,1
149394,-100,4,2,3,70,0,1
150190,-100,4,2,61,70,0,1
150303,-100,4,2,3,70,0,1
151099,-100,4,2,62,70,0,1
151212,-100,4,2,3,70,0,1
152008,-100,4,2,4,70,0,1
152462,-100,4,2,65,70,0,1
152917,-100,4,2,5,70,0,1
153144,-100,4,2,65,70,0,1
153258,-100,4,2,4,70,0,1
154735,-100,4,2,10,70,0,0
155190,-100,4,2,3,60,0,0
156553,-100,4,2,73,60,0,0
156780,-100,4,2,2,60,0,0
162008,-100,4,2,71,60,0,0
163371,-100,4,2,72,60,0,0
163826,-100,4,2,73,60,0,0
165644,-100,4,2,74,60,0,0
166553,-100,4,2,72,60,0,0
167462,-100,4,2,73,60,0,0
171099,-100,4,2,10,60,0,0
178371,-100,4,2,73,60,0,0
179280,-100,4,2,72,60,0,0
180190,-100,4,2,71,60,0,0
181099,-100,4,2,74,60,0,0
181553,-100,4,2,72,60,0,0
182008,-100,4,2,75,60,0,0
183826,-100,4,2,2,60,0,0
187462,-100,4,2,3,70,0,1
194735,-100,4,2,66,70,0,1
194849,-100,4,2,3,70,0,1
195644,-100,4,2,62,70,0,1
195758,-100,4,2,3,70,0,1
196553,-100,4,2,67,70,0,1
196667,-100,4,2,3,70,0,1
197462,-100,4,2,68,70,0,1
197576,-100,4,2,3,70,0,1
197917,-100,4,2,62,70,0,1
198030,-100,4,2,3,70,0,1
198371,-100,4,2,7,70,0,1
198485,-100,4,2,3,70,0,1
209280,-100,4,2,66,70,0,1
209394,-100,4,2,3,70,0,1
210190,-100,4,2,62,70,0,1
210303,-100,4,2,3,70,0,1
211099,-100,4,2,67,70,0,1
211212,-100,4,2,3,70,0,1
212008,-100,4,2,7,70,0,1
212462,-100,4,2,99,70,0,1
212917,-100,4,2,8,70,0,1
213144,-100,4,2,99,70,0,1
213258,-100,4,2,7,70,0,1
214735,-100,4,2,10,70,0,0
215190,-100,4,2,3,60,0,0
216553,-100,4,2,2,60,0,0
217008,-100,4,2,2,60,0,0
223826,-100,4,2,3,60,0,0
229792,-100,4,2,3,40,0,0
230644,-100,4,2,3,60,0,0
231099,-100,4,2,10,60,0,0
231553,-100,4,2,2,60,0,0
245644,-100,4,2,10,60,0,0
245871,-100,4,2,2,60,0,0
247462,-100,4,2,2,50,0,0
249280,-100,4,2,2,40,0,0
251099,-100,4,2,2,30,0,0
252917,-100,4,2,2,20,0,0

[Colours]
Combo1 : 254,56,160
Combo2 : 19,79,168
Combo3 : 253,185,70
Combo4 : 135,125,255

[HitObjects]
0,383,25644,6,0,P|-14:340|9:319,2,74.9999999999999,6|2|0,0:0|0:0|0:0,0:0:0:0:
45,384,26553,2,0,L|65:269,1,99.9999999999999,2|8,0:0|0:0,0:0:0:0:
135,232,27462,22,0,B|175:251|221:233|193:208|244:186|288:217,1,150,2|0,0:0|0:0,0:0:0:0:
275,255,28371,2,0,P|271:282|290:310,1,50,2|0,0:0|0:0,0:0:0:0:
304,340,28826,2,0,P|326:330|350:334,1,50,8|2,0:0|0:0,0:0:0:0:
392,316,29280,22,0,P|406:359|383:380,2,74.9999999999999,6|2|0,0:0|0:0|0:0,0:0:0:0:
357,287,30189,2,0,L|387:191,1,99.9999999999999,2|8,0:0|0:0,0:0:0:0:
430,112,31099,22,0,P|387:98|366:121,2,74.9999999999999,2|2|0,0:0|0:0|0:0,0:0:0:0:
452,151,32008,1,2,0:0:0:0:
388,215,32462,1,8,0:0:0:0:
433,299,32917,22,0,P|468:296|488:327,2,74.9999999999999,6|2|0,0:0|0:0|0:0,0:0:0:0:
395,323,33826,2,0,L|377:384,1,50,2|0,0:0|0:0,0:0:0:0:
336,377,34280,2,0,L|287:363,1,50,8|0,0:0|0:0,0:0:0:0:
242,364,34735,22,0,P|235:338|176:317,2,74.9999999999999,2|0|0,0:0|0:0|0:0,0:0:0:0:
196,363,35644,2,0,B|168:349|136:362|156:379|121:394|90:373,1,99.9999999999999,2|2,0:0|0:0,0:0:0:0:
36,320,36553,22,0,P|89:295|99:248,1,99.9999999999999,0|8,3:0|0:0,3:0:0:0:
67,229,37235,1,2,0:0:0:0:
289,190,38371,22,0,B|292:220|292:220|272:247|272:247|276:284,2,99.9999999999999,6|8|6,3:2|0:0|3:2,0:0:0:0:
287,144,39508,1,2,3:2:0:0:
287,144,39735,2,0,L|350:141,1,50,12|2,0:0|3:2,0:0:0:0:
382,141,40190,22,0,L|387:225,2,74.9999999999999,6|0|0,3:2|0:0|0:0,0:0:0:0:
382,95,41099,2,0,P|409:124|452:85,1,99.9999999999999,2|8,3:2|0:0,0:0:0:0:
448,54,41780,1,0,0:0:0:0:
448,54,42008,22,0,L|439:-4,1,50,2|0,3:2|0:0,0:0:0:0:
396,12,42462,1,8,0:0:0:0:
396,12,42690,2,0,P|371:43|296:50,1,99.9999999999999,2|2,0:0|0:0,0:0:0:0:
269,48,43371,2,0,L|243:109,1,50,8|0,0:0|0:0,0:0:0:0:
249,139,43826,22,0,P|200:113|154:137,1,99.9999999999999,6|8,3:2|0:0,0:0:0:0:
108,202,44735,2,0,P|61:186|20:211,1,99.9999999999999,6|8,3:2|0:0,0:0:0:0:
24,301,45644,22,0,P|70:316|111:291,1,99.9999999999999,6|8,3:2|0:0,0:0:0:0:
142,258,46326,1,0,0:0:0:0:
142,258,46553,2,0,P|179:283|198:282,1,50,6|2,3:2|0:0,0:0:0:0:
222,261,47008,2,0,P|245:268|262:286,1,50,8|2,0:0|0:0,0:0:0:0:
283,326,47462,22,0,P|248:319|213:348,2,74.9999999999999,6|2|2,3:2|0:0|0:0,0:0:0:0:
322,346,48371,1,2,3:2:0:0:
382,278,48826,1,8,0:0:0:0:
332,210,49280,21,2,3:2:0:0:
332,210,49508,1,0,0:0:0:0:
332,210,49735,1,8,0:0:0:0:
332,210,49962,2,0,P|325:170|387:149,1,99.9999999999999,2|2,0:0|0:0,0:0:0:0:
412,160,50644,2,0,P|404:121|420:101,1,50,8|2,0:0|3:2,0:0:0:0:
448,95,51099,22,0,L|436:15,2,74.9999999999999,6|2|0,3:2|0:0|0:0,0:0:0:0:
478,127,52008,2,0,L|486:189,1,50,2|2,3:2|0:0,0:0:0:0:
473,221,52462,1,8,0:0:0:0:
473,221,52690,1,6,3:2:0:0:
168,28,54508,1,0,3:0:0:0:
168,28,54735,38,0,P|103:52|91:97,1,99.9999999999999,6|8,3:2|0:0,0:0:0:0:
52,96,55417,2,0,P|100:100|131:137,1,99.9999999999999,2|2,0:0|0:0,0:0:0:0:
137,182,56099,2,0,L|196:184,1,50,8|0,0:0|0:0,0:0:0:0:
221,212,56553,22,0,P|200:167|276:98,1,150,2|0,3:2|0:0,0:0:0:0:
298,118,57462,1,2,3:2:0:0:
325,203,57917,2,0,L|308:265,1,50,8|0,0:0|0:0,0:0:0:0:
269,266,58371,22,0,P|303:268|318:339,1,99.9999999999999,2|8,3:2|0:0,0:0:0:0:
298,358,59053,1,0,0:0:0:0:
298,358,59280,2,0,P|264:356|249:285,1,99.9999999999999,2|8,3:2|0:0,0:0:0:0:
260,261,59962,1,0,0:0:0:0:
265,214,60190,22,0,P|213:216|154:210,1,99.9999999999999,2|8,3:2|0:0,0:0:0:0:
124,193,60871,1,2,0:0:0:0:
124,193,61099,2,0,P|148:222|100:260,1,99.9999999999999,2|8,3:2|0:0,0:0:0:0:
23,273,62008,22,0,P|-3:224|21:178,1,99.9999999999999,6|8,3:2|0:0,0:0:0:0:
87,135,62917,2,0,P|112:93|97:47,1,99.9999999999999,2|8,3:2|0:0,0:0:0:0:
7,45,63826,22,0,P|-17:86|-1:132,1,99.9999999999999,2|8,3:2|0:0,0:0:0:0:
87,135,64735,2,0,L|159:132,1,50,2|0,3:2|0:0,0:0:0:0:
172,105,65190,2,0,L|244:102,1,50,8|2,3:2|0:0,0:0:0:0:
263,120,65644,22,0,B|253:118|211:96|201:35|265:-28|335:18|342:68|342:68|349:110|404:113,1,300,6|8,3:2|0:0,0:0:0:0:
417,25,67462,22,0,B|428:19|428:19|434:7|434:7|450:7|450:7|458:2,1,50,2|6,3:2|3:2,0:0:0:0:
501,16,67917,1,8,3:2:0:0:
466,99,68371,1,0,3:2:0:0:
502,181,68826,1,8,3:2:0:0:
466,263,69280,22,0,P|397:274|364:241,1,99.9999999999999,6|8,0:0|0:0,0:0:0:0:
332,262,69962,2,0,P|371:234|379:186,1,99.9999999999999,2|2,0:0|0:0,0:0:0:0:
358,146,70644,2,0,L|299:148,1,50,8|0,0:0|0:0,0:0:0:0:
263,152,71098,22,0,P|208:197|226:266,1,150,2|0,3:2|0:0,0:0:0:0:
258,297,72007,1,2,3:2:0:0:
347,289,72462,2,0,L|409:272,1,50,8|0,0:0|0:0,0:0:0:0:
440,284,72916,22,0,P|405:250|419:205,1,99.9999999999999,6|8,3:2|0:0,0:0:0:0:
400,168,73598,1,0,0:0:0:0:
400,168,73825,2,0,P|430:183|478:129,1,99.9999999999999,2|8,3:2|0:0,0:0:0:0:
487,102,74508,1,0,0:0:0:0:
487,57,74735,22,0,P|437:52|387:54,1,99.9999999999999,2|8,3:2|0:0,0:0:0:0:
346,69,75416,1,0,0:0:0:0:
346,69,75644,2,0,P|322:98|370:136,1,99.9999999999999,2|8,3:2|0:0,0:0:0:0:
377,225,76553,22,0,P|328:199|282:223,1,99.9999999999999,6|8,3:2|0:0,0:0:0:0:
239,289,77462,2,0,P|197:314|151:299,1,99.9999999999999,2|8,3:2|0:0,0:0:0:0:
149,209,78371,22,0,P|190:184|236:200,1,99.9999999999999,2|8,3:2|0:0,0:0:0:0:
239,290,79280,2,0,L|167:287,1,50,2|0,3:2|0:0,0:0:0:0:
154,260,79735,2,0,L|82:257,1,50,8|0,3:2|0:0,0:0:0:0:
61,271,80189,22,0,B|66:273|96:274|121:244|106:189|53:192|33:217|33:217|8:241|-27:214|-27:214|-30:160|36:145,1,300,6|0,3:2|0:0,0:0:0:0:
108,168,82008,21,4,0:0:0:0:
167,100,82462,2,0,L|161:20,2,74.9999999999999,2|2|2,0:0|0:0|0:0,0:0:0:0:
198,132,83371,2,0,L|267:125,1,50,8|2,3:2|3:2,0:0:0:0:
291,117,83826,22,0,B|323:238|201:271|201:271|323:238|356:360|356:360|323:238|445:206|445:206|368:210|347:160|347:160|385:135|424:159,1,799.999999999999,6|2,3:2|3:2,0:0:0:0:
145,381,98371,6,0,P|188:367|209:390,2,74.9999999999999,6|0|0,0:0|0:0|0:0,0:0:0:0:
102,367,99280,2,0,L|80:261,1,99.9999999999999,2|8,0:0|0:0,0:0:0:0:
40,188,100189,22,0,B|59:148|41:102|16:130|-6:79|25:35,1,150,2|0,0:0|0:0,0:0:0:0:
62,49,101099,2,0,L|115:31,1,50,2|0,0:0|0:0,0:0:0:0:
153,42,101553,2,0,L|169:89,1,50,8|2,0:0|0:0,0:0:0:0:
165,134,102008,22,0,P|208:120|229:143,2,74.9999999999999,2|0|0,0:0|0:0|0:0,0:0:0:0:
145,174,102916,2,0,L|175:277,1,99.9999999999999,2|8,0:0|0:0,0:0:0:0:
263,263,103826,22,0,P|262:229|340:258,1,150,2|0,0:0|0:0,0:0:0:0:
349,290,104735,2,0,P|399:248|428:307,1,150,2|2,0:0|0:0,0:0:0:0:
422,353,105644,22,0,P|441:322|476:325,2,74.9999999999999,6|0|0,0:0|0:0|0:0,0:0:0:0:
380,370,106553,2,0,L|279:333,1,99.9999999999999,2|8,0:0|0:0,0:0:0:0:
220,274,107462,22,0,B|204:261|177:272|192:286|168:295|147:285,2,74.9999999999999,2|0|0,0:0|0:0|0:0,0:0:0:0:
257,298,108371,2,0,P|225:254|237:201,1,99.9999999999999,2|2,0:0|0:0,0:0:0:0:
195,128,109280,22,0,P|147:162|101:147,1,99.9999999999999,0|8,3:0|0:0,3:0:0:0:
70,132,109962,1,2,0:0:0:0:
211,17,111099,22,0,B|241:14|241:14|268:34|268:34|305:30,2,99.9999999999999,6|8|6,3:2|0:0|3:2,0:0:0:0:
168,24,112235,1,0,0:0:0:0:
168,24,112462,2,0,L|171:87,1,50,12|2,0:0|3:2,0:0:0:0:
174,118,112917,22,0,L|90:123,2,74.9999999999999,6|2|2,3:2|0:0|0:0,0:0:0:0:
218,110,113826,2,0,P|189:137|228:180,1,99.9999999999999,2|8,3:2|0:0,0:0:0:0:
265,180,114507,1,0,0:0:0:0:
265,180,114735,22,0,L|323:170,1,50,2|0,3:2|0:0,0:0:0:0:
357,193,115189,1,8,0:0:0:0:
357,193,115417,2,0,P|342:155|374:87,1,99.9999999999999,2|2,0:0|0:0,0:0:0:0:
375,58,116098,2,0,L|314:32,1,50,8|0,0:0|0:0,0:0:0:0:
291,13,116553,22,0,P|305:59|280:100,1,99.9999999999999,6|8,3:2|0:0,0:0:0:0:
200,141,117462,2,0,P|184:94|209:53,1,99.9999999999999,6|8,3:2|0:0,0:0:0:0:
280,100,118371,22,0,P|295:145|270:187,1,99.9999999999999,6|8,3:2|0:0,0:0:0:0:
229,205,119053,1,0,0:0:0:0:
229,205,119280,2,0,P|204:242|205:261,1,50,6|2,3:2|0:0,0:0:0:0:
226,285,119735,2,0,P|219:308|201:325,1,50,8|2,0:0|0:0,0:0:0:0:
161,346,120189,22,0,P|168:311|139:276,2,74.9999999999999,6|2|2,3:2|0:0|0:0,0:0:0:0:
116,351,121098,1,2,3:2:0:0:
67,275,121553,1,8,0:0:0:0:
107,194,122007,21,2,3:2:0:0:
107,194,122235,1,0,0:0:0:0:
107,194,122462,1,8,0:0:0:0:
107,194,122689,2,0,P|114:154|52:133,1,99.9999999999999,2|2,0:0|0:0,0:0:0:0:
26,110,123371,2,0,P|34:149|18:169,1,50,8|2,0:0|3:2,0:0:0:0:
21,200,123826,22,0,L|42:278,2,74.9999999999999,6|2|0,3:2|0:0|0:0,0:0:0:0:
64,189,124735,2,0,L|78:239,1,50,2|2,3:2|0:0,0:0:0:0:
110,272,125189,1,8,0:0:0:0:
110,272,125417,1,6,3:2:0:0:
409,377,127235,1,0,3:0:0:0:
409,377,127462,6,0,P|453:323|441:278,1,99.9999999999999,6|8,3:2|0:0,0:0:0:0:
421,263,128144,2,0,P|466:280|510:259,1,99.9999999999999,2|2,0:0|0:0,0:0:0:0:
509,214,128826,2,0,L|507:155,1,50,8|0,0:0|0:0,0:0:0:0:
504,119,129280,22,0,P|475:78|377:109,1,150,2|0,3:2|0:0,0:0:0:0:
364,133,130189,1,2,3:2:0:0:
341,220,130644,2,0,L|327:268,1,50,8|0,0:0|0:0,0:0:0:0:
286,285,131098,22,0,P|320:287|335:358,1,99.9999999999999,2|8,3:2|0:0,0:0:0:0:
313,374,131780,1,0,0:0:0:0:
313,374,132007,2,0,P|279:372|264:301,1,99.9999999999999,2|8,3:2|0:0,0:0:0:0:
286,285,132690,1,0,0:0:0:0:
317,251,132917,22,0,P|265:249|206:255,1,99.9999999999999,2|8,3:2|0:0,0:0:0:0:
175,266,133598,1,2,0:0:0:0:
175,266,133826,2,0,P|201:229|167:201,1,99.9999999999999,2|8,3:2|0:0,0:0:0:0:
94,256,134735,22,0,P|68:305|92:351,1,99.9999999999999,6|8,3:2|0:0,0:0:0:0:
173,346,135644,2,0,P|187:299|162:258,1,99.9999999999999,2|8,3:2|0:0,0:0:0:0:
94,199,136553,22,0,P|70:158|86:112,1,99.9999999999999,2|8,3:2|0:0,0:0:0:0:
167,70,137462,2,0,L|170:142,1,50,2|0,3:2|0:0,0:0:0:0:
197,155,137917,2,0,L|200:227,1,50,8|2,3:2|0:0,0:0:0:0:
190,249,138371,22,0,B|209:216|249:201|281:214|281:214|259:247|271:273,1,150,6|6,3:2|3:2,0:0:0:0:
269,299,139280,2,0,B|271:314|254:339|254:339|286:351|327:337|346:304,1,150,6|2,3:2|3:2,0:0:0:0:
359,261,140189,22,0,B|356:253|356:253|361:242|361:242|359:231|359:231|363:220|363:220|359:213,1,50,2|6,3:2|3:2,3:0:0:0:
355,169,140644,1,8,3:2:0:0:
415,102,141098,1,0,3:2:0:0:
444,187,141553,1,8,3:2:0:0:
472,272,142007,22,0,P|403:283|370:250,1,99.9999999999999,6|8,3:2|0:0,0:0:0:0:
337,260,142690,2,0,P|381:205|368:160,1,99.9999999999999,2|2,0:0|0:0,0:0:0:0:
354,141,143371,2,0,L|295:143,1,50,8|0,0:0|0:0,0:0:0:0:
278,179,143826,22,0,P|266:108|197:89,1,150,2|0,3:2|0:0,0:0:0:0:
184,132,144734,1,2,3:2:0:0:
155,217,145189,2,0,L|93:234,1,50,8|0,0:0|0:0,0:0:0:0:
62,239,145644,22,0,P|108:250|119:296,1,99.9999999999999,2|8,3:2|0:0,0:0:0:0:
149,334,146325,1,0,0:0:0:0:
149,334,146553,2,0,P|119:319|71:373,1,99.9999999999999,2|8,3:2|0:0,0:0:0:0:
109,378,147235,1,0,0:0:0:0:
147,400,147462,22,0,B|183:403|252:395,1,99.9999999999999,2|8,3:2|0:0,0:0:0:0:
258,354,148143,1,0,0:0:0:0:
258,354,148371,2,0,P|271:389|328:366,1,99.9999999999999,2|8,3:2|0:0,0:0:0:0:
366,299,149280,22,0,P|340:250|364:204,1,99.9999999999999,6|8,3:2|0:0,0:0:0:0:
430,161,150189,2,0,P|455:119|440:73,1,99.9999999999999,2|8,3:2|0:0,0:0:0:0:
350,71,151098,22,0,P|325:112|341:158,1,99.9999999999999,2|8,3:2|0:0,0:0:0:0:
431,161,152007,2,0,L|428:89,1,50,2|0,3:2|0:0,0:0:0:0:
401,76,152462,2,0,L|398:4,1,50,8|0,3:2|0:0,0:0:0:0:
353,21,152917,22,0,B|283:-22|197:19|266:65|152:143|74:62,1,300,6|0,3:2|0:0,0:0:0:0:
144,3,154735,21,4,0:0:0:0:
188,81,155189,2,0,P|203:121|182:161,2,74.9999999999999,2|2|2,0:0|0:0|0:0,0:0:0:0:
143,89,156098,2,0,L|74:96,1,50,8|2,3:2|3:2,0:0:0:0:
48,98,156553,22,0,B|10:88|-15:129|9:164|48:154|48:154|81:145|113:182|75:221|48:213|48:213|16:202|-11:241|17:278|48:267|48:267|86:251|107:264|107:264|134:214|217:179|269:260|269:260|164:254|110:358|110:358|147:327|202:344|390:368|468:219|468:219|414:173|359:215|307:195|295:101|388:66|425:136|425:136|453:77|414:45|414:45|428:-25|318:-43|304:37|304:37|300:58|289:110|190:135|158:60|194:10|240:31|240:31|218:-24|153:-22|120:4|94:14|101:68|101:68|186:77|100:150|181:175|243:161|243:161|289:176|401:276|295:303|368:411|439:392|516:373|479:285,1,2800,2|0,3:2|0:0,0:0:0:0:
501,128,171099,6,0,P|426:88|226:150,1,300,4|0,0:0|0:0,0:0:0:0:
259,230,172917,1,0,0:0:0:0:
1,16,174735,2,0,P|76:56|276:-6,1,300
356,27,176553,1,0,0:0:0:0:
404,200,177462,2,0,L|391:306,1,99.9999999999999
426,382,178371,22,0,P|326:366|316:373,1,99.9999999999999,2|0,0:0|0:0,0:0:0:0:
245,350,179280,2,0,P|308:271|307:259,1,99.9999999999999,2|0,0:0|0:0,0:0:0:0:
366,212,180190,22,0,P|402:306|413:311,1,99.9999999999999,2|0,0:0|0:0,0:0:0:0:
439,302,180871,1,0,0:0:0:0:
439,302,181099,2,0,L|506:287,1,50,2|0,0:0|0:0,0:0:0:0:
504,249,181553,2,0,L|489:182,1,50,2|0,0:0|0:0,0:0:0:0:
454,175,182008,22,0,B|460:182|500:208|558:186|581:99|506:61|459:80|459:80|419:95|389:49,1,300,6|0,0:0|0:0,0:0:0:0:
376,20,183599,1,4,0:0:0:0:
376,20,183826,2,0,B|343:44|343:44|309:37|309:37|282:61|282:61|248:54|248:54|221:77|221:77|187:70|187:70|160:93|160:93|126:86|126:86|99:110|99:110|65:103,1,350,6|0,0:0|3:2,0:0:0:0:
38,75,185644,22,0,B|32:98|32:98|54:122|54:122|47:154|47:154|69:178|69:178|62:210|62:210|83:233|83:233|77:265|77:265|99:289|99:289|91:321|91:321|114:350,1,300,0|2,3:2|3:2,0:0:0:0:
86,378,187235,1,2,3:2:0:0:
86,378,187462,6,0,P|154:366|187:399,1,99.9999999999999,6|8,3:2|0:0,0:0:0:0:
213,357,188144,2,0,P|258:374|302:353,1,99.9999999999999,2|2,0:0|0:0,0:0:0:0:
327,315,188826,2,0,L|325:256,1,50,8|0,0:0|0:0,0:0:0:0:
297,229,189280,22,0,P|347:224|369:124,1,150,2|0,3:2|0:0,0:0:0:0:
359,99,190189,1,2,3:2:0:0:
295,34,190644,2,0,L|247:48,1,50,8|0,0:0|0:0,0:0:0:0:
230,89,191098,22,0,P|228:55|157:40,1,99.9999999999999,2|8,3:2|0:0,0:0:0:0:
132,45,191780,1,0,0:0:0:0:
132,45,192008,2,0,L|76:61,1,50,2|2,3:2|0:0,0:0:0:0:
75,102,192462,2,0,L|19:118,1,50,8|0,0:0|0:0,0:0:0:0:
16,159,192917,22,0,P|14:211|20:270,1,99.9999999999999,2|8,3:2|0:0,0:0:0:0:
57,286,193599,1,0,0:0:0:0:
57,286,193827,2,0,L|113:270,1,50,2|0,3:2|0:0,0:0:0:0:
114,229,194281,2,0,L|170:213,1,50,8|0,0:0|0:0,0:0:0:0:
198,188,194735,22,0,P|172:237|196:283,1,99.9999999999999,6|8,3:2|0:0,0:0:0:0:
264,228,195644,2,0,P|278:181|253:140,1,99.9999999999999,2|8,3:2|0:0,0:0:0:0:
193,72,196553,22,0,P|234:48|280:64,1,99.9999999999999,2|8,3:2|0:0,0:0:0:0:
319,93,197235,1,0,0:0:0:0:
319,93,197462,2,0,L|322:165,1,50,2|0,3:2|0:0,0:0:0:0:
360,164,197917,2,0,L|363:236,1,50,8|0,3:2|0:0,0:0:0:0:
341,254,198371,22,0,B|326:296|366:331|366:331|408:306|382:258,1,150,6|6,3:2|3:2,0:0:0:0:
423,247,199280,2,0,B|434:219|474:220|474:220|487:252|472:292|445:304,1,150,6|6,3:2|3:2,0:0:0:0:
451,345,200189,22,0,B|445:351|445:351|433:352|433:352|425:360|425:360|413:362|413:362|409:369,1,50,6|0,3:2|3:2,0:0:0:0:
365,362,200644,1,8,0:0:0:0:
277,341,201098,1,0,3:2:0:0:
188,357,201553,1,8,3:2:0:0:
108,315,202007,22,0,P|53:359|8:346,1,99.9999999999999,6|8,3:2|0:0,0:0:0:0:
6,316,202690,2,0,P|60:271|105:284,1,99.9999999999999,2|2,0:0|0:0,0:0:0:0:
121,246,203371,2,0,L|119:196,1,50,8|0,0:0|0:0,0:0:0:0:
99,155,203825,22,0,P|166:180|196:162,1,99.9999999999999,2|8,3:2|0:0,0:0:0:0:
221,139,204508,1,0,0:0:0:0:
221,139,204735,2,0,L|283:156,1,50,2|2,3:2|0:0,0:0:0:0:
307,128,205190,2,0,L|369:145,1,50,8|0,0:0|0:0,0:0:0:0:
395,160,205644,22,0,P|381:114|415:82,1,99.9999999999999,2|8,3:2|0:0,0:0:0:0:
455,57,206326,1,0,0:0:0:0:
455,57,206553,2,0,P|408:46|397:0,1,99.9999999999999,2|8,3:2|0:0,0:0:0:0:
352,6,207235,1,0,0:0:0:0:
308,12,207462,22,0,B|244:19|208:16,1,99.9999999999999,2|8,3:2|0:0,0:0:0:0:
167,5,208143,1,0,0:0:0:0:
167,5,208371,2,0,P|190:33|142:71,1,99.9999999999999,2|8,3:2|0:0,0:0:0:0:
82,127,209280,22,0,P|137:128|165:172,1,99.9999999999999,6|8,3:2|0:0,0:0:0:0:
169,251,210189,2,0,P|192:293|240:303,1,99.9999999999999,2|8,3:2|0:0,0:0:0:0:
326,277,211099,22,0,P|305:232|255:219,1,99.9999999999999,2|8,3:2|0:0,0:0:0:0:
240,303,212007,2,0,L|303:336,1,50,2|0,3:2|0:0,0:0:0:0:
329,323,212462,2,0,L|392:356,1,50,8|0,3:2|0:0,0:0:0:0:
412,368,212917,22,0,P|376:299|496:356,1,350,6|0,3:2|0:0,0:0:0:0:
452,345,214735,21,4,0:0:0:0:
435,256,215189,2,0,L|421:182,2,74.9999999999999,2|2|2,0:0|0:0|0:0,0:0:0:0:
411,294,216098,2,0,P|387:280|351:286,1,50,8|2,0:0|0:0,0:0:0:0:
327,255,216553,22,0,P|277:259|241:222,1,99.9999999999999,6|8,0:0|0:0,0:0:0:0:
236,182,217235,2,0,L|226:64,2,99.9999999999999,2|2|2,0:2|0:2|0:2,0:0:0:0:
201,210,218371,21,0,0:0:0:0:
141,142,218826,1,8,0:0:0:0:
141,142,219053,2,0,P|108:177|112:226,1,99.9999999999999,2|2,0:2|0:2,0:0:0:0:
163,300,219962,21,2,0:2:0:0:
236,182,220644,1,8,0:0:0:0:
236,182,220871,2,0,L|226:64,2,99.9999999999999,2|2|2,0:2|0:2|0:2,0:0:0:0:
311,293,222462,22,0,L|379:271,1,50,8|0,0:0|0:0,0:0:0:0:
370,233,222917,2,0,L|348:165,1,50,2|0,0:0|0:0,0:0:0:0:
316,162,223371,2,0,L|248:184,1,50,2|0,0:0|0:0,0:0:0:0:
251,219,223826,21,2,3:2:0:0:
256,192,229280,38,0,B|242:195|242:195|231:202|231:202|214:203|214:203|194:212,1,50,2|0,3:2|0:0,0:0:0:0:
192,247,229735,2,0,B|183:248|183:248|171:257|171:257|156:255|156:255|144:260,1,50,8|0,3:2|3:0,3:0:0:0:
102,271,230190,22,0,B|99:257|99:257|92:246|92:246|91:229|91:229|82:209,1,50,0|0,3:0|3:0,0:0:0:0:
47,207,230645,2,0,B|46:197|46:197|37:186|37:186|39:171|39:171|33:159,1,50,8|0,3:2|3:0,0:0:0:0:
60,124,231099,1,4,0:0:0:0:
