osu file format v14

[General]
AudioFilename: audio.mp3
AudioLeadIn: 0
PreviewTime: 54394
Countdown: 0
SampleSet: Soft
StackLeniency: 0.4
Mode: 0
LetterboxInBreaks: 0
WidescreenStoryboard: 1

[Editor]
Bookmarks: 3826,25644,40190,54735,83826,98371,112917,127462,156553,171099,183826,184735,185644,186553,186667,186780,186894,187008,187121,187235,187349,187462,216553,231099,245644,252917
DistanceSpacing: 0.75
BeatDivisor: 4
GridSize: 4
TimelineZoom: 2.299999

[Metadata]
Title:agony
TitleUnicode:agony
Artist:KOTOKO
ArtistUnicode:KOTOKO
Creator:Apo11o
Version:Fluxie's Insane
Source:神無月の巫女
Tags:jpop pop j-pop 中沢伴行 Tomoyuki Nakazawa Kannazuki no Miko Destiny of Shrine Maiden Japanese Anime ED -kemsyt aranel flux3on bluirre mildly accurate silent rock fluxie ending apollo
BeatmapID:3490282
BeatmapSetID:1697454

[Difficulty]
HPDrainRate:6
CircleSize:8
OverallDifficulty:7
ApproachRate:7
SliderMultiplier:1.28
SliderTickRate:2

[Events]
//Background and Video events
0,0,"Pokejie.jpg",0,0
//Break Periods
2,156753,170199
2,171299,181108
//Storyboard Layer 0 (Background)
//Storyboard Layer 1 (Fail)
//Storyboard Layer 2 (Pass)
//Storyboard Layer 3 (Foreground)
//Storyboard Layer 4 (Overlay)
//Storyboard Sound Samples

[TimingPoints]
190,454.545454545455,4,2,1,60,1,0
18371,-100,4,2,1,63,0,0
20190,-100,4,2,1,66,0,0
22008,-100,4,2,1,69,0,0
23826,-100,4,2,1,45,0,0
24053,-100,4,2,1,55,0,0
24280,-100,4,2,1,65,0,0
24508,-100,4,2,1,75,0,0
24735,-100,4,2,1,85,0,0
24962,-100,4,2,1,70,0,0
25644,-100,4,2,2,60,0,0
36553,-100,4,2,3,40,0,0
37008,-100,4,2,3,60,0,0
37462,-100,4,2,3,40,0,0
37917,-100,4,2,3,60,0,0
44735,-90.9090909090909,4,2,3,60,0,0
45644,-83.3333333333333,4,2,3,60,0,0
46553,-100,4,2,3,60,0,0
54735,-100,4,2,3,70,0,1
62008,-100,4,2,60,70,0,1
62121,-100,4,2,3,70,0,1
62917,-100,4,2,61,70,0,1
63030,-100,4,2,3,70,0,1
63826,-100,4,2,62,70,0,1
63940,-100,4,2,3,70,0,1
64735,-100,4,2,63,70,0,1
64849,-100,4,2,3,70,0,1
65190,-100,4,2,61,70,0,1
65303,-100,4,2,3,70,0,1
65644,-100,4,2,4,70,0,1
65758,-100,4,2,3,70,0,1
76553,-100,4,2,60,70,0,1
76667,-100,4,2,3,70,0,1
77462,-100,4,2,61,70,0,1
77576,-100,4,2,3,70,0,1
78371,-100,4,2,62,70,0,1
78485,-100,4,2,3,70,0,1
79280,-100,4,2,4,70,0,1
79735,-100,4,2,65,70,0,1
80190,-100,4,2,5,70,0,1
80417,-100,4,2,65,70,0,1
80530,-66.6666666666667,4,2,4,70,0,1
82008,-100,4,2,10,70,0,0
82462,-100,4,2,3,60,0,0
83826,-100,4,2,3,60,0,0
98371,-100,4,2,6,60,0,0
109280,-100,4,2,3,40,0,0
109735,-100,4,2,6,60,0,0
110190,-100,4,2,3,40,0,0
110644,-100,4,2,6,60,0,0
111099,-100,4,2,3,60,0,0
127462,-100,4,2,3,70,0,1
134735,-100,4,2,60,70,0,1
134849,-100,4,2,3,70,0,1
135644,-100,4,2,61,70,0,1
135758,-100,4,2,3,70,0,1
136553,-100,4,2,62,70,0,1
136667,-100,4,2,3,70,0,1
137462,-100,4,2,63,70,0,1
137576,-100,4,2,3,70,0,1
137917,-100,4,2,61,70,0,1
138030,-100,4,2,3,70,0,1
138371,-100,4,2,4,70,0,1
138485,-100,4,2,3,70,0,1
149280,-100,4,2,60,70,0,1
149394,-100,4,2,3,70,0,1
150190,-100,4,2,61,70,0,1
150303,-100,4,2,3,70,0,1
151099,-100,4,2,62,70,0,1
151212,-100,4,2,3,70,0,1
152008,-100,4,2,4,70,0,1
152462,-100,4,2,65,70,0,1
152917,-100,4,2,5,70,0,1
153144,-100,4,2,65,70,0,1
153258,-66.6666666666667,4,2,4,70,0,1
154735,-100,4,2,10,70,0,0
155190,-100,4,2,3,60,0,0
156553,-100,4,2,73,60,0,0
156780,-100,4,2,2,60,0,0
162008,-100,4,2,71,60,0,0
163371,-100,4,2,72,60,0,0
163826,-100,4,2,73,60,0,0
165644,-100,4,2,74,60,0,0
166553,-100,4,2,72,60,0,0
167462,-100,4,2,73,60,0,0
171099,-200,4,2,10,60,0,0
178371,-200,4,2,73,60,0,0
179280,-200,4,2,72,60,0,0
180190,-200,4,2,71,60,0,0
181099,-200,4,2,74,60,0,0
181553,-200,4,2,72,60,0,0
182008,-200,4,2,75,60,0,0
183826,-200,4,2,2,60,0,0
186553,-100,4,2,2,60,0,0
187462,-100,4,2,3,70,0,1
194735,-100,4,2,66,70,0,1
194849,-100,4,2,3,70,0,1
195644,-100,4,2,62,70,0,1
195758,-100,4,2,3,70,0,1
196553,-100,4,2,67,70,0,1
196667,-100,4,2,3,70,0,1
197462,-100,4,2,68,70,0,1
197576,-100,4,2,3,70,0,1
197917,-100,4,2,62,70,0,1
198030,-100,4,2,3,70,0,1
198371,-100,4,2,7,70,0,1
198485,-100,4,2,3,70,0,1
209280,-100,4,2,66,70,0,1
209394,-100,4,2,3,70,0,1
210190,-100,4,2,62,70,0,1
210303,-100,4,2,3,70,0,1
211099,-100,4,2,67,70,0,1
211212,-100,4,2,3,70,0,1
212008,-100,4,2,7,70,0,1
212462,-100,4,2,99,70,0,1
212917,-100,4,2,8,70,0,1
213144,-100,4,2,99,70,0,1
213258,-100,4,2,7,70,0,1
213371,-63.1578947368421,4,2,7,70,0,1
214735,-100,4,2,10,70,0,0
215190,-100,4,2,3,60,0,0
216553,-100,4,2,2,60,0,0
217008,-100,4,2,2,60,0,0
223826,-100,4,2,3,60,0,0
229792,-100,4,2,3,40,0,0
230644,-100,4,2,3,60,0,0
231099,-100,4,2,10,60,0,0
231553,-100,4,2,2,60,0,0
245644,-100,4,2,10,60,0,0
245871,-100,4,2,2,60,0,0
247462,-100,4,2,2,50,0,0
249280,-100,4,2,2,40,0,0
251099,-100,4,2,2,30,0,0
252917,-100,4,2,2,20,0,0

[Colours]
Combo1 : 254,56,160
Combo2 : 19,79,168
Combo3 : 253,185,70
Combo4 : 135,125,255

[HitObjects]
256,192,23599,12,0,24735,3:0:0:0:
292,160,24962,5,2,3:2:0:0:
336,140,25190,1,2,3:2:0:0:
356,96,25417,1,2,3:2:0:0:
376,52,25644,2,0,P|408:44|436:56,1,64,6|0,0:0|0:0,0:0:0:0:
456,68,25985,1,2,0:0:0:0:
496,128,26326,1,0,0:0:0:0:
484,172,26553,2,0,P|482:211|492:236,1,64,2|0,0:0|0:0,0:0:0:0:
500,256,26894,1,2,0:0:0:0:
492,328,27235,5,0,0:0:0:0:
492,328,27349,1,0,0:0:0:0:
492,328,27462,2,0,P|456:332|432:344,1,64,2|0,0:0|0:0,0:0:0:0:
412,356,27803,1,2,0:0:0:0:
344,384,28144,5,0,0:0:0:0:
344,384,28258,1,0,0:0:0:0:
344,384,28371,1,2,0:0:0:0:
304,296,28599,1,0,0:0:0:0:
208,296,28826,1,8,0:0:0:0:
168,384,29053,1,2,0:0:0:0:
84,340,29280,6,0,P|64:316|56:284,1,64,6|0,0:0|0:0,0:0:0:0:
56,260,29621,1,2,0:0:0:0:
124,284,29962,1,0,0:0:0:0:
144,240,30190,2,0,P|168:220|200:212,1,64,2|0,0:0|0:0,0:0:0:0:
224,212,30531,1,2,0:0:0:0:
292,248,30872,5,0,0:0:0:0:
292,248,30986,1,0,0:0:0:0:
292,248,31099,2,0,P|332:260|356:256,1,64,2|0,0:0|0:0,0:0:0:0:
376,248,31440,1,2,0:0:0:0:
400,192,31781,5,0,0:0:0:0:
400,192,31895,1,0,0:0:0:0:
400,192,32008,1,2,0:0:0:0:
304,192,32236,1,0,0:0:0:0:
208,192,32462,1,8,0:0:0:0:
112,192,32690,1,2,0:0:0:0:
16,192,32917,6,0,P|0:164|16:140,1,64,6|0,0:0|0:0,0:0:0:0:
36,128,33258,1,2,0:0:0:0:
96,92,33599,1,0,0:0:0:0:
136,68,33827,2,0,P|152:40|136:16,1,64,2|0,0:0|0:0,0:0:0:0:
116,4,34167,1,2,0:0:0:0:
48,24,34508,5,0,0:0:0:0:
48,24,34621,1,0,0:0:0:0:
48,24,34735,2,0,P|32:52|48:76,1,64,2|0,0:0|0:0,0:0:0:0:
68,88,35076,2,0,P|117:127|128:156,1,96,2|0,0:0|0:0,0:0:0:0:
132,180,35530,1,0,0:0:0:0:
132,204,35644,1,2,0:0:0:0:
180,288,35871,1,0,0:0:0:0:
84,288,36099,1,8,0:0:0:0:
132,372,36326,1,2,0:0:0:0:
228,372,36553,6,0,L|244:372,8,16,0|0|0|0|0|0|0|0|8,3:0|3:0|3:0|3:0|3:0|3:0|3:0|0:0|0:0,3:0:0:0:
284,344,37235,1,2,0:0:0:0:
284,344,37349,1,0,3:0:0:0:
284,344,37462,2,0,L|268:344,8,16,0|0|0|0|0|0|0|0|8,3:0|3:0|3:0|3:0|3:0|3:0|3:0|0:0|0:0,3:0:0:0:
256,304,38144,5,6,0:0:0:0:
244,284,38258,1,0,0:0:0:0:
232,264,38371,1,6,3:2:0:0:
232,264,38485,1,8,0:0:0:0:
280,264,38712,1,2,3:2:0:0:
280,264,38825,1,8,0:0:0:0:
316,232,39053,5,6,0:0:0:0:
320,208,39167,1,0,0:0:0:0:
316,184,39280,1,6,3:2:0:0:
304,164,39394,1,0,0:0:0:0:
280,156,39508,1,2,3:2:0:0:
256,152,39621,1,0,0:0:0:0:
232,156,39736,1,12,0:0:0:0:
208,164,39849,1,0,0:0:0:0:
196,184,39963,1,2,3:2:0:0:
192,208,40077,1,0,0:0:0:0:
196,232,40190,5,6,3:2:0:0:
228,268,40417,1,0,0:0:0:0:
228,268,40530,2,0,P|248:312|236:356,1,96
188,364,41099,2,0,L|124:364,2,64,2|0|8,3:2|0:0|0:0,0:0:0:0:
164,324,41780,5,0,0:0:0:0:
164,324,41894,1,0,0:0:0:0:
164,324,42008,2,0,L|100:324,2,64,2|0|8,3:2|0:0|0:0,0:0:0:0:
136,284,42690,2,0,P|136:276|64:192,1,128,2|2,0:0|0:0,0:0:0:0:
16,192,43371,1,8,0:0:0:0:
40,152,43599,5,0,0:0:0:0:
52,132,43712,1,0,0:0:0:0:
64,112,43826,2,0,L|131:0,1,128,6|8,3:2|0:0,0:0:0:0:
168,32,44508,1,0,0:0:0:0:
156,52,44622,1,0,0:0:0:0:
144,72,44736,2,0,L|70:192,1,140.800004296875,6|8,3:2|0:0,0:0:0:0:
96,248,45417,1,0,0:0:0:0:
119,208,45645,2,0,L|197:75,1,153.5999953125,6|8,3:2|0:0,0:0:0:0:
240,24,46326,5,0,0:0:0:0:
240,24,46440,1,0,0:0:0:0:
240,24,46553,2,0,P|244:24|300:44,1,64,6|2,3:2|0:0,0:0:0:0:
280,88,47008,2,0,P|276:88|220:108,1,64,8|2,0:0|0:0,0:0:0:0:
212,156,47462,6,0,B|256:185|256:126|300:156,2,96,6|2|2,3:2|0:0|0:0,0:0:0:0:
196,200,48371,2,0,P|258:219|316:200,2,128,2|8|2,3:2|0:0|3:2,0:0:0:0:
232,168,49508,1,0,0:0:0:0:
280,168,49735,1,8,0:0:0:0:
256,128,49962,2,0,P|216:124|196:200,1,128,2|2,0:0|0:0,0:0:0:0:
232,224,50644,1,8,0:0:0:0:
280,232,50871,1,2,3:2:0:0:
256,276,51099,6,0,L|236:336,1,64,6|0,3:2|0:0,0:0:0:0:
228,360,51440,1,2,0:0:0:0:
284,316,51780,1,0,0:0:0:0:
328,296,52008,2,0,P|359:288|392:292,2,64,2|2|8,3:2|0:0|0:0,0:0:0:0:
288,268,52690,1,6,3:2:0:0:
256,192,52803,12,12,53371,3:2:0:0:
396,40,54508,5,0,3:0:0:0:
420,36,54621,1,0,3:0:0:0:
444,32,54735,2,0,P|483:37|512:112,1,128,6|8,3:2|0:0,0:0:0:0:
488,152,55417,2,0,P|476:180|480:212,1,64,2|0,0:0|3:2,0:0:0:0:
500,256,55871,1,2,0:0:0:0:
452,248,56099,2,0,P|400:252|388:256,1,64,8|0,0:0|0:0,0:0:0:0:
368,264,56440,2,0,P|323:294|268:384,1,160,0|8,0:0|0:0,0:0:0:0:
228,364,57235,5,0,0:0:0:0:
228,364,57349,1,0,0:0:0:0:
228,364,57462,2,0,P|244:325|256:304,2,64,2|2|8,3:2|0:0|0:0,0:0:0:0:
196,332,58144,1,0,0:0:0:0:
196,332,58258,2,0,P|167:240|128:192,1,160,2|8,0:0|0:0,0:0:0:0:
88,176,59054,5,0,0:0:0:0:
88,176,59168,1,0,0:0:0:0:
88,176,59281,2,0,P|49:192|28:204,2,64,2|2|8,3:2|0:0|0:0,0:0:0:0:
140,156,59962,1,0,0:0:0:0:
140,156,60076,2,0,P|167:180|226:291,1,160,2|8,0:0|0:0,0:0:0:0:
224,336,60871,1,2,0:0:0:0:
264,312,61099,2,0,B|340:312|300:360|376:360,1,128,2|8,3:2|0:0,0:0:0:0:
464,324,62008,5,6,3:2:0:0:
484,256,62236,1,0,0:0:0:0:
484,256,62349,1,2,0:0:0:0:
420,236,62690,5,0,0:0:0:0:
420,236,62803,1,0,0:0:0:0:
420,236,62917,1,2,3:2:0:0:
400,168,63145,1,0,0:0:0:0:
400,168,63258,1,2,0:0:0:0:
472,148,63599,5,0,0:0:0:0:
472,148,63713,1,0,0:0:0:0:
472,148,63827,1,2,3:2:0:0:
452,80,64054,1,0,0:0:0:0:
452,80,64167,1,2,0:0:0:0:
388,60,64508,5,0,0:0:0:0:
388,60,64621,1,0,0:0:0:0:
388,60,64735,1,2,3:2:0:0:
296,80,64962,1,0,0:0:0:0:
316,172,65190,1,8,3:2:0:0:
224,192,65417,1,2,0:0:0:0:
204,100,65644,5,6,3:2:0:0:
256,192,65758,12,4,66326,0:0:0:0:
256,192,66554,12,2,67462,3:2:0:0:
228,100,67917,5,8,3:2:0:0:
196,64,68144,1,6,3:2:0:0:
196,64,68258,2,0,P|152:56|104:76,1,96,2|4,0:3|3:2,0:0:0:0:
76,112,68826,1,8,3:2:0:0:
72,136,68940,1,2,3:2:0:0:
76,160,69053,1,2,3:2:0:0:
76,184,69167,1,2,3:2:0:0:
72,208,69280,6,0,P|64:256|80:332,1,128,6|8,0:0|0:0,0:0:0:0:
116,364,69962,2,0,P|136:340|164:324,2,64,2|0|2,0:0|3:2|0:0,0:0:0:0:
160,384,70644,1,8,0:0:0:0:
204,368,70871,1,0,0:0:0:0:
204,368,70985,2,0,B|256:368|256:316|256:264|308:264,1,160,2|8,0:0|0:0,0:0:0:0:
352,284,71780,5,0,0:0:0:0:
372,272,71894,1,0,0:0:0:0:
396,268,72008,2,0,P|424:272|452:292,3,64,2|2|8|0,3:2|0:0|0:0|0:0,0:0:0:0:
468,312,72803,2,0,P|488:248|476:156,1,160,2|8,0:0|0:0,0:0:0:0:
440,128,73599,5,0,0:0:0:0:
420,116,73713,1,0,0:0:0:0:
396,112,73827,2,0,P|368:116|340:136,3,64,2|2|8|0,3:2|0:0|0:0|0:0,0:0:0:0:
324,156,74622,2,0,P|304:92|316:0,1,160,2|8,0:0|0:0,0:0:0:0:
356,28,75417,1,0,0:0:0:0:
396,0,75644,2,0,P|420:0|512:44,1,128,2|8,3:2|0:0,0:0:0:0:
468,128,76553,5,6,3:2:0:0:
424,144,76780,1,0,0:0:0:0:
424,144,76894,1,2,0:0:0:0:
408,80,77236,5,0,0:0:0:0:
408,80,77349,1,0,0:0:0:0:
408,80,77463,1,2,3:2:0:0:
364,96,77690,1,0,0:0:0:0:
364,96,77803,2,0,P|308:88|296:92,1,64,2|0,0:0|0:0,0:0:0:0:
280,100,78144,1,0,0:0:0:0:
256,140,78372,5,2,3:2:0:0:
276,188,78599,1,0,0:0:0:0:
276,188,78713,1,2,0:0:0:0:
276,188,78826,1,0,0:0:0:0:
236,216,79053,1,0,0:0:0:0:
196,192,79280,2,0,P|160:204|88:256,1,128,2|8,3:2|3:2,0:0:0:0:
188,364,80190,5,6,3:2:0:0:
256,336,80417,1,0,3:0:0:0:
256,336,80530,2,0,B|344:212|344:212|390:143|286:93|256:170|256:170|225:93|121:143|167:212|167:212|256:336,1,624.000023803712,2|4,3:2|0:0,0:0:0:0:
372,380,82462,6,0,P|393:349|392:324,1,64,2|0,0:0|0:0,0:0:0:0:
380,304,82803,1,2,0:0:0:0:
324,260,83144,1,2,0:0:0:0:
256,192,83371,1,8,3:2:0:0:
324,124,83599,1,2,3:2:0:0:
256,56,83826,5,6,3:2:0:0:
256,192,83940,12,2,89280,3:2:0:0:
256,132,91099,6,0,L|256:164,15,32,2|0|0|0|8|0|0|0|2|0|0|0|8|0|0|0,3:2|3:0|3:0|3:0|3:2|3:0|3:0|3:0|3:2|3:0|3:0|3:0|3:2|3:0|3:0|3:0,3:0:0:0:
316,192,92917,6,0,L|284:192,15,32,2|0|0|0|8|0|0|0|2|0|0|0|8|0|0|0,3:2|3:0|3:0|3:0|3:2|3:0|3:0|3:0|3:2|3:0|3:0|3:0|3:2|3:0|3:0|3:0,3:0:0:0:
256,252,94735,6,0,L|256:220,15,32,2|0|0|0|8|0|0|0|2|0|0|0|8|0|0|0,3:2|3:0|3:2|3:0|3:2|3:2|3:2|3:2|3:2|3:0|3:0|3:0|3:2|3:0|3:0|3:0,3:0:0:0:
196,192,96553,6,0,L|228:192,8,32,2|0|2|0|8|2|2|2|0,3:2|0:0|3:2|0:0|3:2|3:0|3:0|3:0|0:0,0:0:0:0:
228,156,97690,6,0,L|233:140,3,16,0|0|0|0,3:0|3:0|3:0|3:0,3:0:0:0:
284,155,98144,2,0,L|279:140,3,16,0|0|0|0,3:0|3:0|3:0|3:0,3:0:0:0:
288,172,98371,6,0,P|316:196|344:196,1,64,6|0,0:0|0:0,0:0:0:0:
360,180,98712,1,0,0:0:0:0:
432,192,99053,1,0,0:0:0:0:
472,168,99280,2,0,P|489:138|472:120,1,64,2|0,0:0|0:0,0:0:0:0:
464,144,99621,1,0,0:0:0:0:
416,92,99962,5,0,0:0:0:0:
404,72,100076,1,0,0:0:0:0:
392,52,100190,2,0,P|368:27|340:20,1,64,2|0,0:0|0:0,0:0:0:0:
316,20,100530,2,0,L|252:20,1,64
228,20,100871,1,0,0:0:0:0:
204,20,100985,1,0,0:0:0:0:
180,20,101099,1,2,0:0:0:0:
228,104,101326,1,0,0:0:0:0:
132,104,101553,1,8,0:0:0:0:
180,188,101780,1,2,0:0:0:0:
208,280,102008,6,0,P|178:297|160:280,1,64,2|0,0:0|0:0,0:0:0:0:
184,272,102349,1,0,0:0:0:0:
256,272,102690,1,0,0:0:0:0:
304,264,102917,2,0,P|334:247|352:264,1,64,2|0,0:0|0:0,0:0:0:0:
328,272,103258,1,0,0:0:0:0:
328,344,103599,5,0,0:0:0:0:
352,348,103712,1,0,0:0:0:0:
376,352,103826,2,0,P|406:356|440:372,1,64,2|0,0:0|0:0,0:0:0:0:
456,384,104167,1,0,0:0:0:0:
492,320,104508,5,0,0:0:0:0:
496,296,104621,1,0,0:0:0:0:
500,272,104735,1,2,0:0:0:0:
408,300,104962,1,0,0:0:0:0:
480,236,105190,1,8,0:0:0:0:
444,324,105417,1,2,0:0:0:0:
440,228,105644,6,0,P|424:184|396:168,1,64,6|0,0:0|0:0,0:0:0:0:
388,168,105985,1,0,0:0:0:0:
316,168,106326,1,0,0:0:0:0:
268,168,106554,2,0,P|284:124|312:108,1,64,2|0,0:0|0:0,0:0:0:0:
320,108,106895,1,0,0:0:0:0:
388,92,107235,5,0,0:0:0:0:
412,92,107349,1,0,0:0:0:0:
436,92,107463,2,0,P|420:48|392:32,1,64,2|0,0:0|0:0,0:0:0:0:
388,28,107804,1,0,0:0:0:0:
320,4,108144,1,0,0:0:0:0:
296,0,108258,1,0,0:0:0:0:
272,0,108371,1,2,0:0:0:0:
264,96,108599,1,0,0:0:0:0:
256,192,108826,1,8,0:0:0:0:
248,288,109053,1,2,0:0:0:0:
240,384,109280,6,0,L|228:372,8,16,0|0|0|0|0|0|0|0|8,3:0|3:0|3:0|3:0|3:0|3:0|3:0|0:0|0:0,3:0:0:0:
272,348,109962,1,2,0:0:0:0:
288,332,110076,1,0,0:0:0:0:
304,316,110190,2,0,L|316:304,8,16,0|0|0|0|0|0|0|0|8,3:0|3:0|3:0|3:0|3:0|3:0|3:0|0:0|0:0,3:0:0:0:
256,308,110871,5,6,0:0:0:0:
236,296,110985,1,0,0:0:0:0:
216,284,111099,1,6,3:2:0:0:
216,260,111212,1,8,0:0:0:0:
256,232,111440,1,2,3:2:0:0:
256,256,111553,1,8,0:0:0:0:
292,224,111780,5,6,0:0:0:0:
312,212,111894,1,0,0:0:0:0:
312,188,112008,1,6,3:2:0:0:
292,176,112121,1,8,0:0:0:0:
268,176,112235,1,0,0:0:0:0:
244,176,112349,1,2,3:2:0:0:
220,176,112463,1,12,0:0:0:0:
200,164,112577,1,0,0:0:0:0:
200,140,112690,1,2,3:2:0:0:
220,128,112804,1,0,0:0:0:0:
244,128,112917,6,0,B|276:128|276:128|316:128|316:88,2,96,6|2|2,3:2|0:0|0:0,0:0:0:0:
244,80,113826,2,0,B|212:80|212:80|180:80|156:104|156:144,1,128,2|8,3:2|0:0,0:0:0:0:
156,196,114508,1,0,0:0:0:0:
156,196,114621,1,0,0:0:0:0:
156,196,114735,2,0,P|156:200|116:236,2,64,2|0|8,3:2|0:0|0:0,0:0:0:0:
108,192,115417,2,0,P|104:192|20:116,1,128,2|2,0:0|0:0,0:0:0:0:
20,68,116099,1,8,0:0:0:0:
20,20,116326,5,0,0:0:0:0:
40,8,116440,1,0,0:0:0:0:
64,0,116553,2,0,L|192:0,1,128,6|8,3:2|0:0,0:0:0:0:
236,20,117235,5,0,0:0:0:0:
256,8,117349,1,0,0:0:0:0:
280,0,117462,2,0,L|408:0,1,128,6|8,3:2|0:0,0:0:0:0:
456,0,118144,5,0,0:0:0:0:
468,20,118258,1,0,0:0:0:0:
476,44,118371,2,0,L|476:172,1,128,6|8,3:2|0:0,0:0:0:0:
492,216,119053,5,0,0:0:0:0:
504,236,119167,1,0,0:0:0:0:
512,260,119280,2,0,L|512:324,1,64,6|2,3:2|0:0,0:0:0:0:
512,372,119735,2,0,L|448:372,1,64,8|2,0:0|0:0,0:0:0:0:
400,372,120190,6,0,L|304:372,2,96,6|2|2,3:2|0:0|0:0,0:0:0:0:
400,324,121099,2,0,P|352:288|304:324,2,128,2|8|2,3:2|0:0|3:2,0:0:0:0:
420,368,122235,5,0,0:0:0:0:
452,332,122462,1,8,0:0:0:0:
484,296,122690,2,0,B|508:264|464:208|484:172,1,128,2|2,0:0|0:0,0:0:0:0:
508,132,123371,1,8,0:0:0:0:
508,132,123599,1,2,3:2:0:0:
492,88,123826,6,0,P|468:64|440:56,1,64,6|0,3:2|0:0,0:0:0:0:
416,60,124167,1,2,0:0:0:0:
352,88,124508,1,0,0:0:0:0:
352,88,124621,1,0,0:0:0:0:
352,88,124735,2,0,P|320:88|292:72,2,64,2|2|8,3:2|0:0|0:0,0:0:0:0:
372,44,125417,1,6,3:2:0:0:
256,192,125530,12,12,126099,3:2:0:0:
364,16,127235,5,0,3:0:0:0:
344,4,127349,1,0,3:0:0:0:
320,0,127462,2,0,L|192:0,1,128,6|8,3:2|0:0,0:0:0:0:
148,16,128144,2,0,P|124:41|128:68,2,64,2|0|2,0:0|3:2|0:0,0:0:0:0:
176,56,128826,1,8,0:0:0:0:
196,100,129053,1,0,0:0:0:0:
196,100,129167,2,0,B|240:100|256:56|256:56|272:100|316:100,1,160,2|8,0:0|0:0,0:0:0:0:
360,84,129962,5,0,0:0:0:0:
384,80,130076,1,0,0:0:0:0:
408,84,130190,2,0,P|440:96|464:112,2,64,2|2|8,3:2|0:0|0:0,0:0:0:0:
376,120,130871,1,0,0:0:0:0:
376,120,130985,2,0,B|338:195|413:195|376:271,1,160,2|8,0:0|0:0,0:0:0:0:
336,260,131780,5,0,0:0:0:0:
336,260,131894,1,0,0:0:0:0:
336,260,132008,2,0,P|337:289|361:311,2,64,2|2|8,3:2|0:0|0:0,0:0:0:0:
336,212,132690,1,0,0:0:0:0:
336,212,132803,2,0,L|176:212,1,160,2|8,0:0|0:0,0:0:0:0:
176,164,133599,1,2,0:0:0:0:
136,188,133826,2,0,P|131:224|205:246,1,128,2|8,3:2|0:0,0:0:0:0:
240,156,134735,5,6,3:2:0:0:
200,136,134962,1,0,0:0:0:0:
200,136,135076,1,2,0:0:0:0:
272,116,135417,5,0,0:0:0:0:
272,116,135530,1,0,0:0:0:0:
272,116,135644,1,2,3:2:0:0:
316,96,135871,1,0,0:0:0:0:
316,96,135985,1,2,0:0:0:0:
240,72,136327,5,0,0:0:0:0:
240,72,136440,1,0,0:0:0:0:
240,72,136554,1,2,3:2:0:0:
196,52,136781,1,0,0:0:0:0:
196,52,136895,1,2,0:0:0:0:
256,12,137235,5,0,0:0:0:0:
280,8,137349,1,0,0:0:0:0:
304,4,137462,2,0,B|336:4|336:4|360:28,1,64,2|0,3:2|0:0,0:0:0:0:
392,60,137917,2,0,B|414:82|414:82|446:82,1,64,8|2,3:2|0:0,0:0:0:0:
488,60,138371,5,6,3:2:0:0:
256,192,138485,12,6,139053,3:2:0:0:
256,192,139280,12,2,140190,3:2:0:0:
256,288,140644,5,8,3:2:0:0:
216,268,140871,1,6,3:2:0:0:
216,268,140985,2,0,P|160:260|124:272,1,96,2|4,0:3|3:2,0:0:0:0:
84,300,141553,1,8,3:2:0:0:
72,320,141667,1,2,3:2:0:0:
60,340,141780,1,2,3:2:0:0:
48,360,141894,1,2,3:2:0:0:
36,380,142008,6,0,B|16:380|0:364|0:340|0:340|0:272,1,128,6|8,3:2|0:0,0:0:0:0:
44,252,142690,2,0,B|64:252|80:236|80:212|80:212|80:144,1,128,2|2,0:0|0:0,0:0:0:0:
36,124,143371,1,8,0:0:0:0:
76,96,143599,1,0,0:0:0:0:
96,84,143712,2,0,B|144:56|204:112|252:84,1,160,2|8,0:0|0:0,0:0:0:0:
288,52,144508,5,0,0:0:0:0:
288,52,144621,1,0,0:0:0:0:
288,52,144735,2,0,P|320:40|356:48,1,64,2|2,3:2|0:0,0:0:0:0:
392,64,145190,1,8,0:0:0:0:
356,96,145417,1,0,0:0:0:0:
356,96,145530,2,0,P|344:148|408:224,1,160,2|8,0:0|0:0,0:0:0:0:
460,224,146326,5,0,0:0:0:0:
460,224,146440,1,0,0:0:0:0:
460,224,146553,2,0,P|492:203|508:180,2,64,2|2|8,3:2|0:0|0:0,0:0:0:0:
428,192,147235,1,0,0:0:0:0:
428,192,147349,2,0,P|408:152|456:56,1,160,2|8,0:0|0:0,0:0:0:0:
500,40,148144,1,0,0:0:0:0:
464,8,148371,2,0,P|410:33|372:88,1,128,2|8,3:2|0:0,0:0:0:0:
328,172,149280,6,0,P|290:164|272:148,1,64,6|0,3:2|0:0,0:0:0:0:
264,128,149621,1,2,0:0:0:0:
184,124,149962,5,0,0:0:0:0:
184,124,150076,1,0,0:0:0:0:
184,124,150190,2,0,P|222:116|240:100,1,64,2|0,3:2|0:0,0:0:0:0:
248,80,150531,1,2,0:0:0:0:
372,56,150871,5,0,0:0:0:0:
328,76,151099,2,0,P|290:68|272:52,1,64,2|0,3:2|0:0,0:0:0:0:
264,32,151440,1,2,0:0:0:0:
328,0,151780,1,0,0:0:0:0:
376,12,152008,2,0,P|436:56|456:104,1,128,2|8,3:2|3:2,0:0:0:0:
432,148,152690,1,0,0:0:0:0:
388,172,152917,5,6,3:2:0:0:
345,147,153144,1,0,3:0:0:0:
345,147,153258,2,0,C|338:128|289:124|267:75|244:75|222:124|173:128|166:147|199:188|181:229|199:244|244:218|267:218|312:244|330:229|312:188|345:147,1,624.000023803712,2|4,3:2|0:0,0:0:0:0:
256,192,155190,12,2,156553,3:2:0:0:
256,192,171099,5,4,0:0:0:0:
256,192,182008,12,4,183599,0:0:0:0:
256,192,183826,12,0,186553,3:2:0:0:
172,268,186780,5,2,3:2:0:0:
152,312,187008,1,2,3:2:0:0:
116,344,187235,1,2,3:2:0:0:
68,352,187463,6,0,P|29:347|0:272,1,128,6|8,3:2|0:0,0:0:0:0:
24,232,188145,2,0,P|36:204|32:172,1,64,2|0,0:0|3:2,0:0:0:0:
12,128,188599,1,2,0:0:0:0:
60,136,188827,2,0,P|112:132|124:128,1,64,8|0,0:0|0:0,0:0:0:0:
144,120,189167,2,0,P|189:90|244:0,1,160,2|8,0:0|0:0,0:0:0:0:
284,20,189963,5,0,0:0:0:0:
284,20,190077,1,0,0:0:0:0:
284,20,190190,2,0,P|268:59|256:80,2,64,2|2|8,3:2|0:0|0:0,0:0:0:0:
316,52,190872,1,0,0:0:0:0:
316,52,190986,2,0,P|345:144|384:192,1,160,2|8,0:0|0:0,0:0:0:0:
424,208,191781,5,0,0:0:0:0:
424,208,191895,1,0,0:0:0:0:
424,208,192008,2,0,P|463:192|484:180,2,64,2|2|8,3:2|0:0|0:0,0:0:0:0:
372,228,192690,1,0,0:0:0:0:
372,228,192804,2,0,P|345:204|286:93,1,160,2|8,0:0|0:0,0:0:0:0:
288,48,193599,1,0,0:0:0:0:
248,72,193827,2,0,B|172:72|212:24|136:24,1,128,2|8,3:2|0:0,0:0:0:0:
48,60,194736,5,6,3:2:0:0:
28,128,194963,1,0,0:0:0:0:
28,128,195077,1,2,0:0:0:0:
92,148,195417,5,0,0:0:0:0:
92,148,195531,1,0,0:0:0:0:
92,148,195645,1,2,3:2:0:0:
112,216,195872,1,0,0:0:0:0:
112,216,195986,1,2,0:0:0:0:
40,236,196327,5,0,0:0:0:0:
40,236,196440,1,0,0:0:0:0:
40,236,196554,1,2,3:2:0:0:
60,304,196781,1,0,0:0:0:0:
60,304,196895,1,0,0:0:0:0:
124,324,197236,5,0,0:0:0:0:
124,324,197349,1,0,0:0:0:0:
124,324,197463,1,2,3:2:0:0:
216,304,197690,1,0,0:0:0:0:
196,212,197917,1,8,3:2:0:0:
288,192,198145,1,0,0:0:0:0:
308,284,198372,5,6,3:2:0:0:
256,192,198486,12,6,199054,3:2:0:0:
256,192,199281,12,6,200189,3:2:0:0:
284,284,200645,5,8,0:0:0:0:
316,320,200872,1,2,3:2:0:0:
316,320,200986,2,0,P|360:328|408:308,1,96,2|4,0:3|3:2,0:0:0:0:
436,272,201554,1,8,3:2:0:0:
440,248,201667,1,0,3:2:0:0:
436,224,201781,1,0,3:2:0:0:
436,200,201895,1,0,3:2:0:0:
440,176,202008,6,0,P|448:128|432:52,1,128,6|8,3:2|0:0,0:0:0:0:
396,20,202690,2,0,P|376:44|348:60,2,64,2|0|2,0:0|3:2|0:0,0:0:0:0:
352,0,203372,1,8,0:0:0:0:
308,16,203599,1,0,0:0:0:0:
308,16,203713,2,0,B|256:16|256:68|256:120|204:120,1,160,2|8,0:0|0:0,0:0:0:0:
160,100,204508,5,0,0:0:0:0:
140,112,204622,1,0,0:0:0:0:
116,116,204736,2,0,P|88:112|60:92,3,64,2|2|8|0,3:2|0:0|0:0|0:0,0:0:0:0:
44,72,205531,2,0,P|24:136|36:228,1,160,2|8,0:0|0:0,0:0:0:0:
72,256,206327,5,0,0:0:0:0:
92,268,206440,1,0,0:0:0:0:
116,272,206554,2,0,P|144:268|172:248,3,64,2|2|8|0,3:2|0:0|0:0|0:0,0:0:0:0:
188,228,207349,2,0,P|208:292|196:384,1,160,2|8,0:0|0:0,0:0:0:0:
156,356,208145,1,0,0:0:0:0:
116,384,208372,2,0,P|92:384|0:340,1,128,2|8,3:2|0:0,0:0:0:0:
44,256,209281,5,6,3:2:0:0:
88,240,209508,1,0,0:0:0:0:
88,240,209622,1,2,0:0:0:0:
104,304,209963,5,0,0:0:0:0:
104,304,210077,1,0,0:0:0:0:
104,304,210190,1,2,3:2:0:0:
148,288,210417,1,0,0:0:0:0:
148,288,210531,2,0,P|204:296|216:292,1,64,2|0,0:0|0:0,0:0:0:0:
232,284,210872,1,0,0:0:0:0:
256,244,211099,5,2,3:2:0:0:
236,196,211327,1,0,0:0:0:0:
236,196,211440,1,2,0:0:0:0:
236,196,211553,1,10,0:0:0:0:
276,168,211781,1,0,0:0:0:0:
316,192,212008,2,0,P|352:180|424:128,1,128,2|8,3:2|3:2,0:0:0:0:
324,48,212917,5,6,3:2:0:0:
256,76,213145,1,0,3:0:0:0:
236,146,213371,2,0,B|203:127|147:120|101:183|131:229|157:262|206:268|239:252|256:193|256:193|272:133|306:117|355:124|381:157|411:203|365:265|309:259|276:239,1,608,2|4,0:0|0:0,0:0:0:0:
328,368,215190,6,0,P|349:337|348:312,1,64,2|0,0:0|0:0,0:0:0:0:
336,292,215531,1,2,0:0:0:0:
280,248,215872,1,2,0:0:0:0:
212,180,216099,1,8,0:0:0:0:
280,112,216327,1,2,0:0:0:0:
256,20,216554,5,6,0:0:0:0:
256,192,216667,12,0,222008,0:0:0:0:
