osu file format v14

[General]
AudioFilename: audio.mp3
AudioLeadIn: 0
PreviewTime: 54394
Countdown: 0
SampleSet: Soft
StackLeniency: 0.4
Mode: 0
LetterboxInBreaks: 0
WidescreenStoryboard: 1

[Editor]
Bookmarks: 3826,25644,40190,54735,83826,98371,112917,127462,156553,171099,183826,184735,185644,186553,186667,186780,186894,187008,187121,187235,187349,187462,201553,216553,231099,245644,252917
DistanceSpacing: 0.75
BeatDivisor: 4
GridSize: 4
TimelineZoom: 1.199999

[Metadata]
Title:agony
TitleUnicode:agony
Artist:KOTOKO
ArtistUnicode:KOTOKO
Creator:Apo11o
Version:Extra
Source:神無月の巫女
Tags:jpop pop j-pop 中沢伴行 Tomoyuki Nakazawa Kannazuki no Miko Destiny of Shrine Maiden Japanese Anime ED -kemsyt aranel flux3on bluirre mildly accurate silent rock fluxie ending apollo
BeatmapID:3583984
BeatmapSetID:1697454

[Difficulty]
HPDrainRate:6
CircleSize:8.5
OverallDifficulty:7.5
ApproachRate:8
SliderMultiplier:1.2
SliderTickRate:1

[Events]
//Background and Video events
0,0,"Pokejie.jpg",0,0
//Break Periods
2,156753,170349
2,178571,179440
//Storyboard Layer 0 (Background)
//Storyboard Layer 1 (Fail)
//Storyboard Layer 2 (Pass)
//Storyboard Layer 3 (Foreground)
//Storyboard Layer 4 (Overlay)
//Storyboard Sound Samples

[TimingPoints]
190,454.545454545455,4,2,1,60,1,0
18371,-100,4,2,1,63,0,0
20190,-100,4,2,1,66,0,0
22008,-100,4,2,1,69,0,0
23826,-100,4,2,1,45,0,0
24053,-100,4,2,1,55,0,0
24280,-100,4,2,1,65,0,0
24508,-100,4,2,1,75,0,0
24735,-100,4,2,1,85,0,0
24962,-100,4,2,1,70,0,0
25644,-100,4,2,2,60,0,0
36553,-100,4,2,3,40,0,0
37008,-100,4,2,3,60,0,0
37462,-100,4,2,3,40,0,0
37917,-100,4,2,3,60,0,0
40190,-90.9090909090909,4,2,3,60,0,0
41780,-100,4,2,3,60,0,0
54735,-100,4,2,3,70,0,1
62008,-100,4,2,60,70,0,1
62121,-100,4,2,3,70,0,1
62917,-100,4,2,61,70,0,1
63030,-100,4,2,3,70,0,1
63826,-100,4,2,62,70,0,1
63940,-100,4,2,3,70,0,1
64735,-100,4,2,63,70,0,1
64849,-100,4,2,3,70,0,1
65190,-100,4,2,61,70,0,1
65303,-100,4,2,3,70,0,1
65644,-100,4,2,4,70,0,1
65758,-100,4,2,3,70,0,1
76553,-100,4,2,60,70,0,1
76667,-100,4,2,3,70,0,1
77462,-100,4,2,61,70,0,1
77576,-100,4,2,3,70,0,1
78371,-100,4,2,62,70,0,1
78485,-100,4,2,3,70,0,1
79280,-100,4,2,4,70,0,1
79735,-100,4,2,65,70,0,1
80190,-100,4,2,5,70,0,1
80417,-100,4,2,65,70,0,1
80530,-100,4,2,4,70,0,1
82008,-100,4,2,10,70,0,0
82462,-100,4,2,3,60,0,0
98371,-100,4,2,6,60,0,0
109280,-100,4,2,3,40,0,0
109735,-100,4,2,6,60,0,0
110190,-100,4,2,3,40,0,0
110644,-100,4,2,6,60,0,0
111099,-100,4,2,3,60,0,0
112917,-90.9090909090909,4,2,3,60,0,0
114507,-100,4,2,3,60,0,0
127462,-100,4,2,3,70,0,1
134735,-100,4,2,60,70,0,1
134849,-100,4,2,3,70,0,1
135644,-100,4,2,61,70,0,1
135758,-100,4,2,3,70,0,1
136553,-100,4,2,62,70,0,1
136667,-100,4,2,3,70,0,1
137462,-100,4,2,63,70,0,1
137576,-100,4,2,3,70,0,1
137917,-100,4,2,61,70,0,1
138030,-100,4,2,3,70,0,1
138371,-100,4,2,4,70,0,1
138485,-100,4,2,3,70,0,1
149280,-100,4,2,60,70,0,1
149394,-100,4,2,3,70,0,1
150190,-100,4,2,61,70,0,1
150303,-100,4,2,3,70,0,1
151099,-100,4,2,62,70,0,1
151212,-100,4,2,3,70,0,1
152008,-100,4,2,4,70,0,1
152462,-100,4,2,65,70,0,1
152917,-100,4,2,5,70,0,1
153144,-100,4,2,65,70,0,1
153258,-100,4,2,4,70,0,1
154735,-100,4,2,10,70,0,0
155190,-100,4,2,3,60,0,0
156553,-100,4,2,73,60,0,0
156780,-100,4,2,2,60,0,0
162008,-100,4,2,71,60,0,0
163371,-100,4,2,72,60,0,0
163826,-100,4,2,73,60,0,0
165644,-100,4,2,74,60,0,0
166553,-100,4,2,72,60,0,0
167462,-100,4,2,73,60,0,0
171099,-100,4,2,10,60,0,0
178371,-100,4,2,73,60,0,0
179280,-100,4,2,72,60,0,0
180190,-100,4,2,71,60,0,0
181099,-100,4,2,74,60,0,0
181553,-100,4,2,72,60,0,0
182008,-100,4,2,75,60,0,0
183826,-100,4,2,2,60,0,0
187462,-100,4,2,3,70,0,1
194735,-100,4,2,66,70,0,1
194849,-100,4,2,3,70,0,1
195644,-100,4,2,62,70,0,1
195758,-100,4,2,3,70,0,1
196553,-100,4,2,67,70,0,1
196667,-100,4,2,3,70,0,1
197462,-100,4,2,68,70,0,1
197576,-100,4,2,3,70,0,1
197917,-100,4,2,62,70,0,1
198030,-100,4,2,3,70,0,1
198371,-100,4,2,7,70,0,1
198485,-100,4,2,3,70,0,1
209280,-100,4,2,66,70,0,1
209394,-100,4,2,3,70,0,1
210190,-100,4,2,62,70,0,1
210303,-100,4,2,3,70,0,1
211099,-100,4,2,67,70,0,1
211212,-100,4,2,3,70,0,1
212008,-100,4,2,7,70,0,1
212462,-100,4,2,99,70,0,1
212917,-100,4,2,8,70,0,1
213144,-100,4,2,99,70,0,1
213258,-100,4,2,7,70,0,1
214735,-100,4,2,10,70,0,0
215190,-100,4,2,3,60,0,0
216553,-100,4,2,2,60,0,0
223826,-100,4,2,3,60,0,0
229792,-100,4,2,3,40,0,0
230644,-100,4,2,3,60,0,0
231099,-100,4,2,10,60,0,0
231553,-100,4,2,2,60,0,0
245644,-100,4,2,10,60,0,0
245871,-100,4,2,2,60,0,0
247462,-100,4,2,2,50,0,0
249280,-100,4,2,2,40,0,0
251099,-100,4,2,2,30,0,0
252917,-100,4,2,2,20,0,0

[Colours]
Combo1 : 254,56,160
Combo2 : 19,79,168
Combo3 : 253,185,70
Combo4 : 135,125,255

[HitObjects]
235,1,25644,6,0,L|242:75,1,60,6|0,0:0|0:0,0:0:0:0:
277,60,25985,2,0,L|271:0,1,60,2|0,0:0|0:0,0:0:0:0:
271,0,26326,1,0,0:0:0:0:
271,0,26440,1,0,0:0:0:0:
307,16,26553,5,2,0:0:0:0:
204,24,26780,1,0,0:0:0:0:
196,25,26894,1,2,0:0:0:0:
305,78,27235,1,0,0:0:0:0:
316,83,27349,1,0,0:0:0:0:
327,87,27462,6,0,P|349:74|384:77,1,60,2|0,0:0|0:0,0:0:0:0:
392,115,27803,2,0,P|370:128|335:125,1,60,2|0,0:0|0:0,0:0:0:0:
336,125,28144,1,0,0:0:0:0:
336,125,28258,1,0,0:0:0:0:
327,87,28371,5,2,0:0:0:0:
314,166,28599,1,0,0:0:0:0:
349,211,28826,1,8,0:0:0:0:
270,198,29054,1,2,0:0:0:0:
225,236,29280,6,0,P|195:231|166:233,1,60,6|0,0:0|0:0,0:0:0:0:
164,269,29621,2,0,P|193:266|223:271,1,60,2|0,0:0|0:0,0:0:0:0:
223,271,29962,1,0,0:0:0:0:
223,271,30076,1,0,0:0:0:0:
250,300,30190,5,2,0:0:0:0:
141,294,30417,1,0,0:0:0:0:
131,293,30531,1,2,0:0:0:0:
255,254,30871,1,0,0:0:0:0:
261,251,30985,1,0,0:0:0:0:
268,247,31099,6,0,B|278:265|278:265|273:311,1,60,2|0,0:0|0:0,0:0:0:0:
308,308,31440,2,0,B|311:268|311:268|324:252,1,60,2|0,0:0|0:0,0:0:0:0:
324,252,31780,1,0,0:0:0:0:
324,252,31894,1,0,0:0:0:0:
345,286,32008,5,2,0:0:0:0:
451,268,32235,1,0,0:0:0:0:
401,291,32462,1,8,0:0:0:0:
507,273,32689,1,2,0:0:0:0:
459,303,32917,6,0,L|456:362,1,60,6|0,0:0|0:0,0:0:0:0:
456,362,33258,1,2,0:0:0:0:
461,255,33599,1,0,0:0:0:0:
461,255,33712,1,0,0:0:0:0:
461,255,33826,2,0,L|463:195,1,60,2|0,0:0|0:0,0:0:0:0:
463,195,34167,1,2,0:0:0:0:
459,303,34508,1,0,0:0:0:0:
459,303,34621,1,0,0:0:0:0:
459,303,34735,2,0,L|456:362,1,60,2|0,0:0|0:0,0:0:0:0:
456,362,35076,1,2,0:0:0:0:
461,255,35417,1,0,0:0:0:0:
461,255,35530,1,0,0:0:0:0:
495,279,35644,5,2,0:0:0:0:
459,334,35871,1,0,0:0:0:0:
427,277,36099,1,8,0:0:0:0:
462,218,36326,1,2,0:0:0:0:
389,186,36553,6,0,B|394:182|378:181|374:185|378:190|381:195|384:203|439:202|437:161|486:184,1,120,0|8,3:0|0:0,3:0:0:0:
388,252,37235,1,2,0:0:0:0:
388,252,37349,1,0,3:0:0:0:
361,229,37462,2,0,B|329:225|329:225|311:204|311:204|274:199,1,90,0|0,3:0|3:0,3:0:0:0:
281,199,37917,1,8,0:0:0:0:
215,239,38144,1,6,0:0:0:0:
142,191,38371,5,6,3:2:0:0:
142,191,38485,1,8,0:0:0:0:
177,185,38599,5,0,0:0:0:0:
177,185,38713,1,2,3:2:0:0:
202,163,38826,5,8,0:0:0:0:
233,180,38940,5,0,3:2:0:0:
233,180,39054,1,6,0:0:0:0:
198,81,39280,5,6,3:2:0:0:
180,82,39394,5,0,0:0:0:0:
163,78,39508,1,2,3:2:0:0:
164,96,39622,5,0,0:0:0:0:
160,116,39735,1,12,0:0:0:0:
177,111,39849,1,0,0:0:0:0:
196,120,39962,5,2,3:2:0:0:
193,99,40076,1,0,0:0:0:0:
205,77,40190,6,0,B|222:48|216:24|218:7|171:20|234:59,1,99.0000030212403,6|0,3:2|0:0,0:0:0:0:
178,52,40644,6,0,B|159:56|148:43|148:43|123:51|92:49|100:22|126:27,1,99.0000030212403,8|0,0:0|0:0,0:0:0:0:
73,7,41099,6,0,B|57:40|78:67|78:67|74:65|74:65|93:96|75:124,1,132.00000402832,2|8,3:2|0:0,0:0:0:0:
20,100,41780,1,0,0:0:0:0:
20,100,41894,1,0,0:0:0:0:
39,71,42008,5,2,3:2:0:0:
9,29,42235,1,0,0:0:0:0:
52,2,42462,1,8,0:0:0:0:
82,44,42690,2,0,B|124:53|127:12|167:19,1,90,2|0,0:0|0:0,0:0:0:0:
165,19,43144,1,2,0:0:0:0:
135,68,43371,1,8,0:0:0:0:
95,9,43599,1,0,0:0:0:0:
95,9,43712,1,0,0:0:0:0:
95,9,43826,5,6,3:2:0:0:
295,216,44508,1,0,0:0:0:0:
295,216,44621,1,0,0:0:0:0:
295,216,44735,1,6,3:2:0:0:
65,378,45417,1,0,0:0:0:0:
65,378,45530,1,0,0:0:0:0:
65,378,45644,1,6,3:2:0:0:
65,378,46099,6,0,L|68:345,1,30,8|0,0:0|0:0,0:0:0:0:
71,315,46326,1,0,0:0:0:0:
71,315,46440,1,0,0:0:0:0:
101,332,46553,5,6,3:2:0:0:
39,328,46780,1,2,0:0:0:0:
65,378,47008,1,8,0:0:0:0:
71,315,47235,1,2,0:0:0:0:
132,354,47462,6,0,P|140:325|129:298,1,60,6|0,3:2|0:0,0:0:0:0:
107,267,47803,2,0,P|96:239|105:211,1,60,2|0,0:0|0:0,0:0:0:0:
122,177,48144,2,0,P|128:164|129:147,1,30,2|0,0:0|0:0,0:0:0:0:
115,114,48371,2,0,P|86:42|157:101,1,240,2|2,3:2|3:2,0:0:0:0:
160,97,49508,5,0,0:0:0:0:
230,106,49735,1,8,0:0:0:0:
299,71,49962,2,0,B|257:80|254:39|214:46,1,90,2|0,0:0|0:0,0:0:0:0:
217,46,50417,1,2,0:0:0:0:
286,31,50644,1,8,0:0:0:0:
337,80,50871,1,2,3:2:0:0:
337,80,50985,1,2,3:2:0:0:
363,63,51099,5,6,3:2:0:0:
257,134,51326,1,0,0:0:0:0:
248,141,51440,1,2,0:0:0:0:
382,168,51780,1,0,0:0:0:0:
393,171,51894,1,0,0:0:0:0:
404,174,52008,5,2,3:2:0:0:
376,132,52235,1,2,0:0:0:0:
305,162,52462,1,8,0:0:0:0:
296,240,52690,1,6,3:2:0:0:
202,382,54508,5,0,3:0:0:0:
202,382,54621,1,0,3:0:0:0:
168,377,54735,2,0,P|177:356|232:368,1,90,6|0,3:2|0:0,0:0:0:0:
232,368,55190,1,8,0:0:0:0:
196,315,55417,2,0,L|191:244,1,60,2|0,0:0|3:2,0:0:0:0:
158,297,55871,1,2,0:0:0:0:
226,260,56099,1,8,0:0:0:0:
160,212,56326,1,0,0:0:0:0:
146,202,56440,6,0,P|130:179|120:143,1,60
121,149,56780,1,0,0:0:0:0:
76,205,57008,1,8,0:0:0:0:
120,265,57235,5,0,0:0:0:0:
120,265,57349,1,0,0:0:0:0:
154,259,57462,1,2,3:2:0:0:
223,305,57690,1,2,0:0:0:0:
199,227,57917,1,8,0:0:0:0:
171,305,58144,1,0,0:0:0:0:
166,317,58258,6,0,P|145:340|115:354,1,60
120,353,58599,1,0,0:0:0:0:
72,311,58826,1,8,0:0:0:0:
6,378,59053,1,0,0:0:0:0:
6,378,59167,1,0,0:0:0:0:
38,372,59280,1,2,3:2:0:0:
110,353,59508,1,2,0:0:0:0:
93,283,59735,1,8,0:0:0:0:
162,263,59962,1,0,0:0:0:0:
175,259,60076,6,0,P|207:259|235:265,1,60
235,265,60417,1,0,0:0:0:0:
292,247,60644,1,8,0:0:0:0:
280,302,60871,1,2,0:0:0:0:
238,202,61099,6,0,L|231:94,1,90,2|0,3:2|0:0,0:0:0:0:
271,108,61553,2,0,L|276:197,1,90,8|0,0:0|0:0,0:0:0:0:
317,149,62008,5,6,3:2:0:0:
271,108,62235,1,0,0:0:0:0:
260,99,62349,1,2,0:0:0:0:
319,179,62690,5,0,0:0:0:0:
318,164,62803,1,0,0:0:0:0:
317,149,62917,1,2,3:2:0:0:
313,87,63144,1,0,0:0:0:0:
312,70,63258,1,2,0:0:0:0:
293,177,63599,5,0,0:0:0:0:
305,163,63712,1,0,0:0:0:0:
317,149,63826,1,2,3:2:0:0:
358,102,64053,1,0,0:0:0:0:
371,85,64167,1,2,0:0:0:0:
269,151,64508,5,0,0:0:0:0:
293,150,64621,1,0,0:0:0:0:
317,149,64735,1,2,3:2:0:0:
415,144,64962,1,0,0:0:0:0:
421,241,65190,1,8,3:2:0:0:
323,246,65417,1,2,0:0:0:0:
317,149,65644,5,6,3:2:0:0:
317,149,65758,1,0,0:0:0:0:
352,156,65871,1,0,0:0:0:0:
280,215,66099,1,8,0:0:0:0:
329,283,66326,1,4,0:0:0:0:
329,283,66440,1,0,0:0:0:0:
364,276,66553,1,6,3:2:0:0:
405,211,66780,1,2,0:0:0:0:
424,210,66893,1,0,0:0:0:0:
444,209,67007,1,8,0:0:0:0:
464,208,67120,1,0,0:0:0:0:
497,187,67235,5,2,3:2:0:0:
497,187,67349,1,2,0:0:0:0:
498,222,67462,1,2,3:2:0:0:
498,222,67917,5,8,3:2:0:0:
494,141,68144,1,6,3:2:0:0:
493,121,68258,2,0,L|490:54,1,60,2|0,0:3|0:0,0:0:0:0:
491,62,68599,1,4,3:2:0:0:
427,103,68826,1,8,3:2:0:0:
385,39,69053,1,2,3:2:0:0:
379,121,69280,6,0,P|345:107|297:131,1,90,6|0,0:0|0:0,0:0:0:0:
300,129,69735,1,8,0:0:0:0:
344,156,69962,2,0,L|350:215,1,60,2|0,0:0|3:2,0:0:0:0:
388,200,70417,1,2,0:0:0:0:
312,187,70644,1,8,0:0:0:0:
374,247,70871,1,0,0:0:0:0:
386,258,70985,2,0,P|397:279|395:334,1,60
401,315,71326,1,0,0:0:0:0:
339,295,71553,1,8,0:0:0:0:
300,232,71780,5,0,0:0:0:0:
300,232,71894,1,0,0:0:0:0:
334,230,72008,1,2,3:2:0:0:
418,226,72235,1,2,0:0:0:0:
373,186,72462,1,8,0:0:0:0:
377,269,72689,1,0,0:0:0:0:
378,287,72803,6,0,L|384:367,1,60
383,347,73144,1,0,0:0:0:0:
428,330,73371,1,8,0:0:0:0:
386,384,73599,1,0,0:0:0:0:
386,384,73713,1,0,0:0:0:0:
352,382,73827,1,2,3:2:0:0:
312,311,74053,1,2,0:0:0:0:
383,347,74280,1,8,0:0:0:0:
298,349,74508,1,0,0:0:0:0:
282,352,74621,6,0,P|251:353|214:330,1,60
225,340,74962,1,0,0:0:0:0:
176,382,75190,1,8,0:0:0:0:
188,313,75417,1,0,0:0:0:0:
212,378,75644,6,0,L|116:371,1,90,2|0,3:2|0:0,0:0:0:0:
122,333,76099,2,0,L|211:339,1,90,8|0,0:0|0:0,0:0:0:0:
232,297,76553,5,6,3:2:0:0:
278,338,76780,1,0,0:0:0:0:
289,347,76894,1,2,0:0:0:0:
224,269,77235,5,0,0:0:0:0:
228,283,77348,1,0,0:0:0:0:
232,297,77462,1,2,3:2:0:0:
248,357,77689,1,0,0:0:0:0:
253,374,77803,1,2,0:0:0:0:
243,262,78144,5,0,0:0:0:0:
237,279,78257,1,0,0:0:0:0:
232,297,78371,1,2,3:2:0:0:
214,356,78598,1,0,0:0:0:0:
209,377,78712,1,2,0:0:0:0:
270,268,79053,5,0,0:0:0:0:
251,282,79166,1,0,0:0:0:0:
232,297,79280,2,0,P|201:303|164:254,1,90,2|0,3:2|0:0,0:0:0:0:
164,263,79735,1,8,3:2:0:0:
217,211,79962,1,0,0:0:0:0:
217,211,80076,1,0,0:0:0:0:
233,245,80190,6,0,P|218:248|203:248,1,30,6|0,3:2|0:0,0:0:0:0:
181,218,80417,1,0,3:0:0:0:
147,234,80530,2,0,B|123:248|90:242|67:213|80:169|108:155|108:155|79:150|55:126|52:102|56:67|86:34|139:42|155:58|164:85|165:104|160:124|155:135|135:149,1,390,2|4,3:2|0:0,0:0:0:0:
146,138,82462,6,0,B|165:135|165:135|184:142|184:142|205:140,1,60,2|0,0:0|0:0,0:0:0:0:
235,108,82803,2,0,P|251:137|244:162,1,60,2|0,0:0|0:0,0:0:0:0:
244,161,83144,1,2,0:0:0:0:
204,140,83371,1,8,3:2:0:0:
235,108,83599,1,2,3:2:0:0:
276,126,83826,1,6,3:2:0:0:
316,83,84053,5,2,0:3:0:0:
285,53,84280,1,8,0:0:0:0:
277,48,84394,2,0,B|261:40|261:40|263:58,1,30
266,87,84621,2,0,L|271:149,1,60
272,181,84962,1,2,0:3:0:0:
239,142,85189,1,8,0:0:0:0:
231,137,85303,2,0,B|215:129|215:129|217:148,1,30
220,176,85530,2,0,L|225:238,1,60
228,270,85871,5,2,0:3:0:0:
276,293,86099,1,8,0:0:0:0:
282,299,86212,2,0,B|285:313|299:308|294:300|282:299,1,30
242,302,86440,2,0,L|176:313,1,60
149,319,86780,5,2,0:3:0:0:
101,342,87008,1,8,0:0:0:0:
95,348,87121,2,0,B|92:362|78:357|83:349|95:348,1,30
135,351,87349,2,0,L|201:362,1,60
222,384,87690,5,2,0:3:0:0:
225,337,87917,1,8,0:0:0:0:
227,323,88030,2,0,B|227:313|227:313|213:298,1,30
194,328,88258,2,0,L|261:301,1,60
283,291,88599,1,2,0:3:0:0:
286,244,88826,1,8,0:0:0:0:
288,230,88940,1,0,0:0:0:0:
290,216,89054,1,0,0:0:0:0:
292,202,89167,2,0,B|292:192|292:192|252:156,1,60
228,136,89508,5,2,0:3:0:0:
226,196,89735,1,8,0:0:0:0:
221,205,89849,2,0,B|225:219|225:219|232:205,1,30
204,169,90076,2,0,P|179:153|146:162,1,60
123,181,90417,1,2,0:3:0:0:
138,211,90644,1,8,0:0:0:0:
140,225,90758,1,0,0:0:0:0:
142,239,90872,1,0,0:0:0:0:
144,253,90985,1,0,0:0:0:0:
123,278,91099,5,2,3:2:0:0:
120,278,91212,1,0,3:0:0:0:
117,278,91326,1,0,3:0:0:0:
114,278,91440,1,0,3:0:0:0:
111,278,91553,1,8,3:2:0:0:
108,278,91667,1,0,3:0:0:0:
105,278,91780,1,0,3:0:0:0:
102,278,91894,1,0,3:0:0:0:
99,278,92008,1,2,3:2:0:0:
96,278,92121,1,0,3:0:0:0:
93,278,92235,1,0,3:0:0:0:
90,278,92349,1,0,3:0:0:0:
87,278,92462,1,8,3:2:0:0:
84,278,92576,1,0,3:0:0:0:
81,278,92690,1,0,3:0:0:0:
78,278,92803,1,0,3:0:0:0:
48,305,92917,5,2,3:2:0:0:
40,292,93030,1,0,3:0:0:0:
37,277,93144,1,0,3:0:0:0:
39,263,93257,1,0,3:0:0:0:
46,250,93371,1,8,3:2:0:0:
53,237,93485,1,0,3:0:0:0:
55,222,93598,1,0,3:0:0:0:
52,207,93712,1,0,3:0:0:0:
43,194,93825,1,2,3:2:0:0:
29,189,93939,1,0,3:0:0:0:
15,192,94052,1,0,3:0:0:0:
5,203,94166,1,0,3:0:0:0:
3,217,94280,1,8,3:2:0:0:
9,231,94393,1,0,3:0:0:0:
21,238,94507,1,0,3:0:0:0:
36,237,94621,1,0,3:0:0:0:
67,218,94735,5,2,3:2:0:0:
85,218,94849,1,0,3:0:0:0:
103,218,94962,1,0,3:2:0:0:
121,218,95076,1,0,3:0:0:0:
139,218,95190,1,8,3:2:0:0:
157,218,95304,1,0,3:2:0:0:
175,218,95417,1,0,3:2:0:0:
193,218,95531,1,0,3:2:0:0:
211,218,95644,5,2,3:2:0:0:
202,202,95758,1,0,3:0:0:0:
193,186,95871,1,0,3:0:0:0:
184,171,95985,1,0,3:0:0:0:
175,155,96099,1,8,3:2:0:0:
165,140,96213,1,0,3:0:0:0:
157,124,96326,1,0,3:0:0:0:
147,108,96440,1,0,3:0:0:0:
139,93,96553,5,2,3:2:0:0:
129,108,96667,1,0,0:0:0:0:
120,124,96780,1,2,3:2:0:0:
111,139,96894,1,0,0:0:0:0:
102,155,97008,1,8,3:2:0:0:
94,171,97122,1,2,3:0:0:0:
84,186,97235,1,2,3:0:0:0:
75,203,97349,1,2,3:0:0:0:
120,124,97690,5,0,3:0:0:0:
129,108,97804,1,0,3:0:0:0:
211,31,98144,5,0,3:0:0:0:
220,47,98258,1,0,3:0:0:0:
254,58,98371,6,0,B|263:67|263:67|325:58,1,60,6|0,0:0|0:0,0:0:0:0:
263,110,98712,2,0,B|269:98|269:98|331:90,1,60
342,72,99053,1,0,0:0:0:0:
342,72,99167,1,0,0:0:0:0:
373,66,99280,1,2,0:0:0:0:
452,54,99508,1,0,0:0:0:0:
433,57,99621,2,0,L|371:67,1,60
373,66,99962,1,0,0:0:0:0:
385,98,100076,1,0,0:0:0:0:
418,93,100190,6,0,P|442:81|473:96,1,60,2|0,0:0|0:0,0:0:0:0:
469,130,100530,2,0,P|445:142|414:127,1,60
388,110,100871,1,0,0:0:0:0:
388,110,100985,1,0,0:0:0:0:
418,93,101099,5,2,0:0:0:0:
439,60,101326,1,0,0:0:0:0:
411,17,101553,1,8,0:0:0:0:
346,5,101780,1,2,0:0:0:0:
311,36,102008,6,0,B|293:40|293:40|248:30,1,60,2|0,0:0|0:0,0:0:0:0:
219,20,102349,2,0,L|158:7,1,60
129,0,102690,1,0,0:0:0:0:
129,0,102803,1,0,0:0:0:0:
136,34,102917,1,2,0:0:0:0:
87,51,103144,1,0,0:0:0:0:
102,61,103258,1,0,0:0:0:0:
49,101,103485,1,0,0:0:0:0:
68,100,103599,1,0,0:0:0:0:
86,99,103712,1,0,0:0:0:0:
121,91,103826,6,0,P|133:118|127:146,1,60,2|0,0:0|0:0,0:0:0:0:
88,146,104167,2,0,P|75:173|81:202,1,60
120,210,104508,1,0,0:0:0:0:
120,210,104621,1,0,0:0:0:0:
94,236,104735,5,2,0:0:0:0:
51,219,104962,1,0,0:0:0:0:
20,165,105190,1,8,0:0:0:0:
32,88,105417,1,2,0:0:0:0:
9,47,105644,6,0,B|2:17|2:17|30:27,1,60,6|0,0:0|0:0,0:0:0:0:
69,26,105985,2,0,B|62:56|62:56|90:46,1,60
116,17,106326,1,0,0:0:0:0:
116,17,106440,1,0,0:0:0:0:
150,29,106553,1,2,0:0:0:0:
120,80,106780,1,0,0:0:0:0:
112,95,106894,2,0,L|178:90,1,60
188,89,107235,1,0,0:0:0:0:
204,88,107349,1,0,0:0:0:0:
235,107,107462,6,0,P|244:136|237:166,1,60,2|0,0:0|0:0,0:0:0:0:
227,199,107803,2,0,P|220:227|228:256,1,60
248,285,108144,1,0,0:0:0:0:
248,285,108258,1,0,0:0:0:0:
264,255,108371,5,2,0:0:0:0:
228,256,108599,1,0,0:0:0:0:
208,313,108826,1,8,0:0:0:0:
244,376,109053,1,2,0:0:0:0:
324,374,109280,6,0,B|359:372|359:372|372:361|372:361|412:359,1,90,0|0,3:0|3:0,3:0:0:0:
409,359,109735,1,8,0:0:0:0:
342,341,109962,1,2,0:0:0:0:
327,336,110076,1,0,0:0:0:0:
312,331,110190,2,0,B|291:303|292:265|312:250|312:250|311:269|317:280,1,120,0|8,3:0|0:0,3:0:0:0:
369,255,110871,1,6,0:0:0:0:
446,268,111099,5,6,3:2:0:0:
446,268,111212,1,8,0:0:0:0:
472,291,111326,5,0,0:0:0:0:
472,291,111440,1,2,3:2:0:0:
465,325,111553,5,8,0:0:0:0:
432,335,111667,5,0,0:0:0:0:
432,335,111780,1,6,0:0:0:0:
372,372,112008,5,6,3:2:0:0:
390,366,112121,1,8,0:0:0:0:
407,375,112235,5,0,0:0:0:0:
423,369,112348,1,2,3:2:0:0:
442,377,112462,5,12,0:0:0:0:
459,371,112575,1,0,0:0:0:0:
478,379,112690,5,2,3:2:0:0:
494,369,112803,1,0,0:0:0:0:
503,349,112917,6,0,B|519:318|492:290|492:290|492:289|492:289|492:291|492:291|464:313|480:338,1,99.0000030212403,6|2,3:2|0:0,0:0:0:0:
507,253,113371,6,0,B|489:247|465:260|465:260|450:253|435:264|435:264|421:260|410:268,1,99.0000030212403,8|0,0:0|0:0,0:0:0:0:
426,322,113826,6,0,B|438:304|438:304|374:247|374:247|391:227,1,132.00000402832,2|8,3:2|0:0,0:0:0:0:
376,316,114508,1,0,0:0:0:0:
376,316,114621,1,0,0:0:0:0:
400,345,114735,5,2,3:2:0:0:
460,330,114962,1,0,0:0:0:0:
441,261,115190,1,8,0:0:0:0:
504,243,115417,2,0,B|462:252|459:211|419:218,1,90,2|0,0:0|0:0,0:0:0:0:
421,217,115871,1,2,0:0:0:0:
500,200,116099,1,8,0:0:0:0:
440,129,116326,5,0,0:0:0:0:
452,119,116440,1,0,0:0:0:0:
469,115,116553,1,6,3:2:0:0:
256,349,117235,1,0,0:0:0:0:
256,367,117348,1,0,0:0:0:0:
256,384,117462,1,6,3:2:0:0:
72,129,118144,1,0,0:0:0:0:
60,119,118258,1,0,0:0:0:0:
43,115,118371,1,6,3:2:0:0:
43,115,118826,1,8,0:0:0:0:
70,79,119053,5,0,0:0:0:0:
82,69,119167,1,0,0:0:0:0:
99,65,119280,1,6,3:2:0:0:
137,104,119508,1,2,0:0:0:0:
168,32,119735,1,8,0:0:0:0:
216,94,119962,1,2,0:0:0:0:
245,48,120190,6,0,P|272:37|305:46,1,60,6|0,3:2|0:0,0:0:0:0:
334,58,120530,2,0,P|362:64|390:53,1,60,2|0,0:0|0:0,0:0:0:0:
417,27,120871,2,0,P|431:19|447:17,1,30,2|0,0:0|0:0,0:0:0:0:
479,26,121099,2,0,B|509:57|509:100|468:117|443:108|448:78|396:60|384:132|391:141|414:172|442:173|466:157|473:136,1,240,2|2,3:2|3:2,0:0:0:0:
461,152,122235,5,0,0:0:0:0:
505,127,122462,1,8,0:0:0:0:
461,86,122690,2,0,B|423:89|423:89|404:82|404:82|370:85,1,90,2|0,0:0|0:0,0:0:0:0:
372,84,123144,1,2,0:0:0:0:
340,49,123371,1,8,0:0:0:0:
377,13,123599,1,2,3:2:0:0:
377,13,123712,1,2,3:2:0:0:
410,12,123826,5,6,3:2:0:0:
475,9,124053,1,0,0:0:0:0:
472,20,124167,1,2,0:0:0:0:
458,75,124394,1,0,0:0:0:0:
461,86,124508,1,0,0:0:0:0:
466,100,124621,1,0,0:0:0:0:
469,111,124735,5,2,3:2:0:0:
493,74,124962,1,2,0:0:0:0:
447,29,125190,1,8,0:0:0:0:
356,23,125417,1,6,3:2:0:0:
231,151,127235,5,0,3:0:0:0:
231,151,127349,1,0,3:0:0:0:
200,127,127462,2,0,B|191:153|191:153|205:186,1,60,6|0,3:2|0:0,0:0:0:0:
220,216,127803,1,0,0:0:0:0:
226,227,127917,1,8,0:0:0:0:
220,283,128144,2,0,P|193:297|165:289,1,60,2|0,0:0|3:2,0:0:0:0:
123,333,128599,1,2,0:0:0:0:
83,289,128826,1,8,0:0:0:0:
58,350,129053,1,0,0:0:0:0:
47,381,129167,6,0,P|26:358|62:318,1,90
59,318,129621,1,0,0:0:0:0:
59,318,129735,1,8,0:0:0:0:
123,369,129962,1,0,0:0:0:0:
123,369,130076,1,0,0:0:0:0:
154,353,130190,5,2,3:2:0:0:
213,384,130417,1,2,0:0:0:0:
247,326,130644,1,8,0:0:0:0:
191,300,130871,1,0,0:0:0:0:
206,330,130985,6,0,P|265:318|301:315,1,90
294,315,131440,1,0,0:0:0:0:
294,315,131553,1,8,0:0:0:0:
332,368,131780,1,0,0:0:0:0:
332,368,131894,1,0,0:0:0:0:
365,379,132008,5,2,3:2:0:0:
444,370,132235,1,2,0:0:0:0:
434,292,132462,1,8,0:0:0:0:
355,301,132689,1,0,0:0:0:0:
362,335,132803,2,0,P|384:323|467:307,1,90
446,307,133258,1,0,0:0:0:0:
446,307,133371,1,8,0:0:0:0:
440,375,133599,1,2,0:0:0:0:
395,307,133826,6,0,P|396:272|410:204,1,90,2|0,3:2|0:0,0:0:0:0:
359,301,134280,2,0,P|360:266|374:198,1,90,8|0,0:0|0:0,0:0:0:0:
332,214,134735,5,6,3:2:0:0:
275,264,134962,1,0,0:0:0:0:
286,255,135076,1,2,0:0:0:0:
334,184,135417,5,0,0:0:0:0:
333,199,135530,1,0,0:0:0:0:
332,214,135644,1,2,3:2:0:0:
327,293,135871,1,0,0:0:0:0:
328,276,135985,1,2,0:0:0:0:
308,186,136326,5,0,0:0:0:0:
320,200,136439,1,0,0:0:0:0:
332,214,136553,1,2,3:2:0:0:
386,278,136780,1,0,0:0:0:0:
373,261,136894,1,2,0:0:0:0:
284,212,137235,5,0,0:0:0:0:
308,213,137348,1,0,0:0:0:0:
332,214,137462,1,2,3:2:0:0:
249,211,137690,1,0,0:0:0:0:
296,136,137917,1,8,3:2:0:0:
213,133,138144,1,2,0:0:0:0:
256,56,138371,5,6,3:2:0:0:
256,56,138485,1,2,3:2:0:0:
254,97,138599,1,2,3:2:0:0:
203,132,138826,1,8,3:2:0:0:
249,211,139053,1,6,3:2:0:0:
249,211,139167,1,0,3:2:0:0:
250,174,139281,1,6,3:2:0:0:
254,90,139508,1,2,3:2:0:0:
256,56,139621,1,2,3:2:0:0:
203,132,139849,1,2,3:2:0:0:
203,132,139962,1,2,3:2:0:0:
174,154,140076,1,0,0:0:0:0:
168,117,140190,1,2,3:2:0:0:
168,117,140644,5,8,3:2:0:0:
219,98,140871,1,6,3:2:0:0:
233,91,140985,2,0,L|296:63,1,60,2|0,0:3|0:0,0:0:0:0:
287,66,141326,1,4,3:2:0:0:
377,86,141553,1,8,3:2:0:0:
396,0,141780,1,2,3:2:0:0:
471,55,142008,6,0,P|497:91|472:127,1,90,6|0,3:2|0:0,0:0:0:0:
455,91,142462,1,8,0:0:0:0:
459,161,142690,2,0,P|433:125|458:89,1,90,2|0,0:0|0:0,0:0:0:0:
475,125,143144,1,2,0:0:0:0:
496,195,143371,1,8,0:0:0:0:
417,175,143599,1,0,0:0:0:0:
406,171,143712,2,0,B|391:164|391:164|405:256,1,90
402,236,144167,1,0,0:0:0:0:
402,236,144280,1,8,0:0:0:0:
491,263,144508,1,0,0:0:0:0:
491,263,144621,1,0,0:0:0:0:
505,230,144735,5,2,3:2:0:0:
432,270,144962,1,2,0:0:0:0:
499,315,145190,1,8,0:0:0:0:
433,359,145417,1,0,0:0:0:0:
409,379,145530,6,0,P|371:381|362:325,1,90
354,338,145985,1,0,0:0:0:0:
354,338,146099,1,8,0:0:0:0:
412,299,146326,1,0,0:0:0:0:
412,299,146440,1,0,0:0:0:0:
384,269,146553,5,2,3:2:0:0:
389,352,146780,1,2,0:0:0:0:
316,308,147008,1,8,0:0:0:0:
323,383,147235,1,0,0:0:0:0:
296,358,147349,2,0,P|264:328|264:285,1,90
264,284,147803,1,0,0:0:0:0:
264,284,147917,1,8,0:0:0:0:
322,307,148144,1,0,0:0:0:0:
267,381,148371,6,0,P|228:373|163:373,1,90,2|0,3:2|0:0,0:0:0:0:
271,348,148826,2,0,P|232:340|167:340,1,90,8|0,0:0|0:0,0:0:0:0:
214,298,149280,5,6,3:2:0:0:
271,348,149507,1,0,0:0:0:0:
260,339,149621,1,2,0:0:0:0:
212,268,149962,5,0,0:0:0:0:
213,283,150075,1,0,0:0:0:0:
214,298,150189,1,2,3:2:0:0:
219,377,150416,1,0,0:0:0:0:
218,360,150530,1,2,0:0:0:0:
238,270,150871,5,0,0:0:0:0:
226,284,150984,1,0,0:0:0:0:
214,298,151098,1,2,3:2:0:0:
160,362,151325,1,0,0:0:0:0:
173,345,151439,1,2,0:0:0:0:
262,296,151780,5,0,0:0:0:0:
238,297,151893,1,0,0:0:0:0:
214,298,152007,1,2,3:2:0:0:
129,300,152235,1,0,0:0:0:0:
214,298,152462,1,8,3:2:0:0:
214,298,152576,1,0,0:0:0:0:
229,267,152690,1,0,0:0:0:0:
229,267,152804,1,0,0:0:0:0:
244,237,152917,6,0,P|247:228|246:206,1,30,6|0,3:2|0:0,0:0:0:0:
229,177,153144,1,0,3:0:0:0:
246,207,153258,2,0,B|283:223|297:230|360:231|451:180|459:86|379:30|304:30|293:77|288:147|352:143,1,390,2|4,3:2|0:0,0:0:0:0:
338,142,156099,2,0,L|359:140,8,15,8|0|0|0|2|0|0|0|2,3:2|0:0|0:0|0:0|3:2|0:0|0:0|0:0|3:2,0:0:0:0:
70,196,171099,6,0,B|35:219|16:276|65:331|148:334|224:285|282:157|164:50|54:82|-9:96|-76:152|-97:224|-64:395|81:439|199:420|252:282|274:213|274:213|287:164|287:164|286:157|286:157|298:123|298:123|340:-4|387:-87|658:-19|652:215|438:289|297:276|202:118|361:-98|564:64|434:138,1,1800,4|0,0:0|0:0,0:0:0:0:
441,133,178371,1,2,0:0:0:0:
441,133,180190,5,2,0:0:0:0:
438,133,180303,1,0,0:0:0:0:
435,133,180417,1,0,0:0:0:0:
432,133,180531,1,0,0:0:0:0:
429,133,180644,1,0,0:0:0:0:
426,133,180758,1,0,0:0:0:0:
423,133,180871,1,0,0:0:0:0:
420,133,180985,1,0,0:0:0:0:
417,133,181099,1,2,0:0:0:0:
414,133,181212,1,0,0:0:0:0:
411,133,181326,1,0,0:0:0:0:
408,133,181440,1,0,0:0:0:0:
405,133,181553,1,2,0:0:0:0:
402,133,181667,1,0,0:0:0:0:
399,133,181781,1,0,0:0:0:0:
396,133,181894,1,0,0:0:0:0:
362,133,182008,5,6,0:0:0:0:
350,133,182121,1,0,0:0:0:0:
338,133,182235,1,0,0:0:0:0:
326,133,182349,1,0,0:0:0:0:
314,133,182462,1,0,0:0:0:0:
302,133,182576,1,0,0:0:0:0:
290,133,182689,1,4,0:0:0:0:
278,133,182803,1,0,0:0:0:0:
266,133,182917,1,4,0:0:0:0:
254,133,183030,1,0,0:0:0:0:
242,133,183144,1,0,0:0:0:0:
230,133,183258,1,0,0:0:0:0:
218,133,183371,1,0,0:0:0:0:
206,133,183485,1,0,0:0:0:0:
194,133,183599,1,4,0:0:0:0:
182,133,183712,1,0,0:0:0:0:
189,100,183826,5,6,0:0:0:0:
165,102,183939,1,0,3:2:0:0:
149,120,184053,1,4,3:2:0:0:
149,143,184166,1,0,3:2:0:0:
164,162,184280,1,0,3:2:0:0:
186,172,184394,1,0,3:2:0:0:
208,175,184508,1,4,3:2:0:0:
223,193,184622,1,0,3:2:0:0:
222,216,184735,1,0,3:2:0:0:
206,234,184849,1,0,3:2:0:0:
184,241,184963,5,0,3:2:0:0:
160,243,185076,1,0,3:2:0:0:
144,261,185190,1,0,3:2:0:0:
144,284,185303,1,0,3:2:0:0:
159,303,185417,1,0,3:2:0:0:
181,313,185531,1,0,3:2:0:0:
203,316,185645,1,0,3:2:0:0:
218,334,185759,1,0,3:2:0:0:
217,357,185872,1,4,3:2:0:0:
201,375,185986,1,0,3:2:0:0:
178,378,186099,6,0,L|158:375,7,15,0|0|4|0|0|0|0|0,3:2|0:0|3:2|0:0|3:2|0:0|3:2|0:0,0:0:0:0:
154,373,186553,2,0,L|130:376,15,15,0|0|0|0|2|0|0|0|2|0|0|0|2|0|0|0,3:2|0:0|3:2|0:0|3:2|0:0|0:0|0:0|3:2|0:0|0:0|0:0|3:2|0:0|0:0|0:0,0:0:0:0:
131,381,187462,6,0,B|97:377|97:377|76:357|76:357|46:354,1,90,6|0,3:2|0:0,0:0:0:0:
0,352,187917,1,8,0:0:0:0:
16,352,188030,1,0,0:0:0:0:
34,324,188144,2,0,B|34:259|34:259|20:283,1,90,2|0,0:0|0:0,0:0:0:0:
70,284,188599,2,0,L|99:285,1,30,2|0,0:0|0:0,0:0:0:0:
135,286,188826,1,8,0:0:0:0:
87,249,189053,1,0,0:0:0:0:
122,232,189167,6,0,P|86:209|51:234,1,90
84,158,189621,1,0,0:0:0:0:
85,192,189735,1,8,0:0:0:0:
82,90,189962,1,0,0:0:0:0:
83,124,190076,1,0,0:0:0:0:
84,158,190190,1,2,3:2:0:0:
120,89,190417,1,2,0:0:0:0:
43,91,190644,1,8,0:0:0:0:
84,158,190871,1,0,0:0:0:0:
114,175,190985,1,0,0:0:0:0:
114,175,191099,1,2,3:2:0:0:
54,142,191326,5,0,0:0:0:0:
32,131,191439,1,0,0:0:0:0:
22,110,191553,1,8,0:0:0:0:
25,87,191666,1,0,0:0:0:0:
42,70,191780,1,0,0:0:0:0:
42,70,191894,1,0,0:0:0:0:
63,42,192008,6,0,P|72:22|46:-1,1,60,2|2,3:2|0:0,0:0:0:0:
63,42,192349,1,0,0:0:0:0:
63,42,192462,2,0,L|116:31,1,30,8|0,0:0|0:0,0:0:0:0:
131,23,192690,1,0,0:0:0:0:
119,58,192803,2,0,B|113:77|113:77|127:126,1,60
135,147,193144,1,0,0:0:0:0:
139,156,193258,1,0,0:0:0:0:
143,165,193371,1,8,0:0:0:0:
175,133,193599,5,0,0:0:0:0:
177,147,193712,1,0,0:0:0:0:
180,162,193826,1,2,3:2:0:0:
223,121,194053,5,0,0:0:0:0:
221,145,194167,1,0,0:0:0:0:
219,169,194280,1,8,0:0:0:0:
286,122,194508,5,0,0:0:0:0:
272,153,194621,1,0,0:0:0:0:
258,184,194735,1,6,3:2:0:0:
300,89,194962,1,0,0:0:0:0:
315,59,195076,1,2,0:0:0:0:
258,184,195417,5,0,0:0:0:0:
277,211,195530,1,0,0:0:0:0:
297,239,195644,1,2,3:2:0:0:
236,155,195871,1,0,0:0:0:0:
217,127,195985,1,2,0:0:0:0:
297,239,196326,5,0,0:0:0:0:
329,236,196439,1,0,0:0:0:0:
364,232,196553,1,2,3:2:0:0:
263,242,196780,1,0,0:0:0:0:
230,245,196894,1,0,0:0:0:0:
364,232,197235,5,0,0:0:0:0:
377,202,197348,1,0,0:0:0:0:
391,170,197462,1,2,3:2:0:0:
351,267,197690,1,0,0:0:0:0:
327,166,197917,1,8,3:2:0:0:
406,234,198144,1,0,0:0:0:0:
303,226,198371,5,6,3:2:0:0:
303,226,198485,1,2,3:2:0:0:
315,256,198599,2,0,B|319:270|319:270|313:289,1,30,2|0,3:2|0:0,0:0:0:0:
303,321,198826,2,0,B|298:335|298:335|302:349,1,30,8|0,3:2|0:0,0:0:0:0:
316,382,199053,1,6,3:2:0:0:
316,382,199167,1,0,3:2:0:0:
336,355,199280,5,6,3:2:0:0:
347,345,199393,1,0,0:0:0:0:
360,338,199507,1,2,3:2:0:0:
375,336,199620,1,0,0:0:0:0:
409,347,199735,5,8,3:2:0:0:
409,347,199849,1,0,0:0:0:0:
434,325,199962,5,6,3:2:0:0:
463,344,200076,1,2,3:2:0:0:
486,317,200190,5,6,3:2:0:0:
480,284,200303,1,0,0:0:0:0:
455,258,200417,1,0,3:2:0:0:
449,225,200530,1,0,0:0:0:0:
470,198,200644,6,0,P|482:212|485:229,1,30,8|0,0:0|0:0,0:0:0:0:
455,258,200871,1,2,3:2:0:0:
443,256,200985,2,0,L|387:248,1,30,2|0,0:3|3:2,0:0:0:0:
374,232,201212,1,0,0:0:0:0:
362,234,201326,2,0,L|306:242,1,30,4|0,3:2|0:0,0:0:0:0:
405,166,201553,6,0,P|412:179|411:199,1,30,8|0,3:2|3:2,0:0:0:0:
344,180,201780,2,0,P|337:167|338:147,1,30,0|0,3:2|3:2,0:0:0:0:
401,107,202008,6,0,B|446:99|446:99|437:112,1,60,6|0,3:2|0:0,0:0:0:0:
472,127,202349,1,0,0:0:0:0:
474,135,202462,2,0,L|479:164,1,30,8|0,0:0|0:0,0:0:0:0:
463,199,202690,1,2,0:0:0:0:
486,204,202804,1,0,0:0:0:0:
506,192,202917,1,0,3:2:0:0:
474,135,203144,1,2,0:0:0:0:
412,193,203371,1,8,0:0:0:0:
401,107,203599,1,0,0:0:0:0:
421,77,203712,6,0,B|425:65|425:65|360:77|360:77|370:90,1,90
389,57,204167,1,0,0:0:0:0:
386,46,204280,1,8,0:0:0:0:
457,59,204508,1,0,0:0:0:0:
457,59,204621,1,0,0:0:0:0:
472,89,204735,5,2,3:2:0:0:
366,85,204962,1,2,0:0:0:0:
260,81,205190,1,8,0:0:0:0:
154,77,205417,1,0,0:0:0:0:
122,77,205530,1,0,0:0:0:0:
122,77,205644,1,2,3:2:0:0:
187,77,205871,5,0,0:0:0:0:
208,71,205984,1,0,0:0:0:0:
224,55,206098,1,8,0:0:0:0:
231,34,206211,1,0,0:0:0:0:
226,12,206325,1,0,0:0:0:0:
226,12,206440,1,0,0:0:0:0:
197,32,206553,6,0,P|182:36|148:7,1,60,2|2,3:2|0:0,0:0:0:0:
197,32,206894,1,0,0:0:0:0:
197,32,207008,2,0,P|205:53|204:64,1,30,8|0,0:0|0:0,0:0:0:0:
184,110,207235,1,0,0:0:0:0:
200,140,207349,6,0,B|181:163|181:163|164:139,1,60
140,167,207690,1,0,0:0:0:0:
128,166,207803,1,0,0:0:0:0:
116,170,207917,1,8,0:0:0:0:
169,212,208144,5,0,0:0:0:0:
153,203,208258,1,0,0:0:0:0:
133,201,208371,1,2,3:2:0:0:
183,268,208599,5,0,0:0:0:0:
167,247,208712,1,0,0:0:0:0:
143,237,208826,1,8,0:0:0:0:
178,329,209053,5,0,0:0:0:0:
172,297,209167,1,0,0:0:0:0:
149,275,209280,1,6,3:2:0:0:
138,375,209508,1,0,0:0:0:0:
165,358,209621,1,2,0:0:0:0:
90,264,209962,5,0,0:0:0:0:
65,285,210076,1,0,0:0:0:0:
57,316,210189,1,2,3:2:0:0:
149,275,210417,1,0,0:0:0:0:
121,260,210530,1,2,0:0:0:0:
77,374,210871,5,0,0:0:0:0:
107,384,210985,1,0,0:0:0:0:
138,375,211098,1,2,3:2:0:0:
57,317,211326,1,0,0:0:0:0:
58,348,211439,1,2,0:0:0:0:
179,328,211780,5,0,0:0:0:0:
205,308,211894,5,0,0:0:0:0:
234,327,212008,5,2,3:2:0:0:
234,327,212121,1,0,0:0:0:0:
260,309,212235,5,0,0:0:0:0:
260,309,212348,1,0,0:0:0:0:
288,326,212462,5,8,3:2:0:0:
314,308,212576,5,0,0:0:0:0:
344,326,212690,5,0,0:0:0:0:
344,326,212803,1,0,0:0:0:0:
369,305,212917,5,6,3:2:0:0:
456,359,213144,1,0,3:0:0:0:
493,348,213258,2,0,B|530:313|497:267|464:283|498:210|498:210|488:235|450:260|407:252|375:216|376:147|447:120|490:171,1,390,2|4,3:2|0:0,0:0:0:0:
479,160,216099,2,0,L|458:158,8,15,8|0|0|0|2|0|0|0|6,0:0|0:0|0:0|0:0|0:0|0:0|0:0|0:0|0:0,0:0:0:0:
389,64,217008,5,8,0:0:0:0:
403,125,217235,1,2,0:2:0:0:
389,64,217462,1,2,0:2:0:0:
403,125,217690,1,2,0:2:0:0:
349,329,218144,1,2,0:2:0:0:
349,329,218826,5,8,0:0:0:0:
355,267,219053,1,2,0:2:0:0:
349,329,219280,1,2,0:2:0:0:
355,267,219507,1,2,0:2:0:0:
28,365,219962,1,2,0:2:0:0:
28,365,220644,5,8,0:0:0:0:
23,299,220871,1,2,0:2:0:0:
28,365,221099,1,2,0:2:0:0:
23,299,221326,1,2,0:2:0:0:
130,41,221780,1,2,0:2:0:0:
130,41,222462,1,8,0:0:0:0:
367,115,222917,1,2,0:0:0:0:
186,270,223371,1,2,0:0:0:0:
186,270,223826,5,2,3:2:0:0:
189,270,223939,1,0,3:2:0:0:
192,270,224053,1,0,3:2:0:0:
195,270,224167,1,0,3:2:0:0:
198,270,224280,1,8,3:2:0:0:
201,270,224394,1,0,3:0:0:0:
204,270,224507,1,0,3:0:0:0:
207,270,224621,1,0,3:0:0:0:
210,270,224735,1,2,3:2:0:0:
213,270,224848,1,0,3:0:0:0:
216,270,224962,1,0,3:0:0:0:
219,270,225076,1,0,3:0:0:0:
222,270,225189,1,8,3:2:0:0:
225,270,225303,1,0,3:0:0:0:
228,270,225417,1,0,3:0:0:0:
231,270,225530,1,0,3:0:0:0:
263,256,225644,5,2,3:2:0:0:
277,250,225757,1,0,3:0:0:0:
291,245,225871,1,0,3:0:0:0:
305,240,225984,1,0,3:0:0:0:
319,235,226099,1,8,3:2:0:0:
304,229,226212,1,0,3:0:0:0:
290,224,226326,1,0,3:0:0:0:
276,219,226439,1,0,3:0:0:0:
262,214,226553,1,2,3:2:0:0:
276,208,226666,1,0,3:0:0:0:
290,203,226780,1,0,3:0:0:0:
304,198,226893,1,0,3:0:0:0:
318,193,227008,1,8,3:2:0:0:
303,187,227121,1,0,3:0:0:0:
289,182,227235,1,0,3:0:0:0:
275,177,227348,1,0,3:0:0:0:
262,146,227462,5,2,3:2:0:0:
252,130,227576,1,0,3:0:0:0:
238,119,227690,1,0,3:0:0:0:
220,114,227803,1,0,3:0:0:0:
202,116,227917,1,8,3:2:0:0:
186,124,228030,1,0,3:0:0:0:
174,137,228144,1,0,3:0:0:0:
168,154,228258,1,0,3:0:0:0:
168,172,228371,1,2,3:2:0:0:
174,189,228485,1,0,3:0:0:0:
186,202,228599,1,0,3:0:0:0:
202,210,228712,1,0,3:0:0:0:
220,212,228826,1,8,3:2:0:0:
238,207,228940,1,0,3:0:0:0:
252,196,229053,1,0,3:0:0:0:
262,181,229167,1,0,3:0:0:0:
265,163,229280,6,0,P|264:159|245:138,3,30,2|0|0|0,3:2|3:2|0:0|3:2,0:0:0:0:
227,172,229735,2,0,P|221:182|220:197,6,15,8|0|0|0|0|0|0,3:2|3:0|3:0|3:0|3:0|3:0|3:0,3:0:0:0:
256,200,230190,2,0,P|267:200|281:193,6,15,0|0|0|0|0|0|0,3:0|3:0|3:0|3:0|3:0|3:0|3:0,0:0:0:0:
263,165,230644,2,0,P|257:154|244:146,6,15,8|0|0|0|0|0|0,3:2|0:0|0:0|0:0|3:0|0:0|3:0,0:0:0:0:
229,175,231099,5,4,0:0:0:0:
