osu file format v14

[General]
AudioFilename: audio.mp3
AudioLeadIn: 0
PreviewTime: 54394
Countdown: 0
SampleSet: Soft
StackLeniency: 0.4
Mode: 0
LetterboxInBreaks: 0
WidescreenStoryboard: 1

[Editor]
Bookmarks: 3826,25644,40190,54735,69280,83826,98371,112917,127462,142008,156553,183826,184735,185644,186553,186667,186780,186894,187008,187121,187235,187349,187462,202008,216553,231099,245644,252917
DistanceSpacing: 1
BeatDivisor: 4
GridSize: 16
TimelineZoom: 2

[Metadata]
Title:agony
TitleUnicode:agony
Artist:KOTOKO
ArtistUnicode:KOTOKO
Creator:Apo11o
Version:Collab Hard
Source:神無月の巫女
Tags:jpop pop j-pop 中沢伴行 Tomoyuki Nakazawa Kannazuki no Miko Destiny of Shrine Maiden Japanese Anime ED -kemsyt aranel flux3on bluirre mildly accurate silent rock fluxie ending apollo
BeatmapID:3486007
BeatmapSetID:1697454

[Difficulty]
HPDrainRate:4
CircleSize:7.5
OverallDifficulty:6
ApproachRate:6.5
SliderMultiplier:1.1
SliderTickRate:1

[Events]
//Background and Video events
0,0,"Pokejie.jpg",0,0
//Break Periods
2,156753,170124
//Storyboard Layer 0 (Background)
//Storyboard Layer 1 (Fail)
//Storyboard Layer 2 (Pass)
//Storyboard Layer 3 (Foreground)
//Storyboard Layer 4 (Overlay)
//Storyboard Sound Samples

[TimingPoints]
190,454.545454545455,4,2,1,60,1,0
18371,-100,4,2,1,63,0,0
20190,-100,4,2,1,66,0,0
22008,-100,4,2,1,69,0,0
23826,-100,4,2,1,45,0,0
24053,-100,4,2,1,55,0,0
24280,-100,4,2,1,65,0,0
24508,-100,4,2,1,75,0,0
24735,-100,4,2,1,85,0,0
24962,-100,4,2,1,70,0,0
25644,-100,4,2,2,60,0,0
36553,-100,4,2,3,40,0,0
37008,-100,4,2,3,60,0,0
37462,-100,4,2,3,40,0,0
37917,-100,4,2,3,60,0,0
54735,-100,4,2,3,70,0,1
62008,-100,4,2,60,70,0,1
62121,-100,4,2,3,70,0,1
62917,-100,4,2,61,70,0,1
63030,-100,4,2,3,70,0,1
63826,-100,4,2,62,70,0,1
63940,-100,4,2,3,70,0,1
64735,-100,4,2,63,70,0,1
64849,-100,4,2,3,70,0,1
65190,-100,4,2,61,70,0,1
65303,-100,4,2,3,70,0,1
65644,-100,4,2,4,70,0,1
65758,-100,4,2,3,70,0,1
76553,-100,4,2,60,70,0,1
76667,-100,4,2,3,70,0,1
77462,-100,4,2,61,70,0,1
77576,-100,4,2,3,70,0,1
78371,-100,4,2,62,70,0,1
78485,-100,4,2,3,70,0,1
79280,-100,4,2,4,70,0,1
79735,-100,4,2,65,70,0,1
80190,-100,4,2,5,70,0,1
80417,-100,4,2,65,70,0,1
80530,-100,4,2,4,70,0,1
82008,-100,4,2,10,70,0,0
82462,-100,4,2,3,60,0,0
83826,-100,4,2,3,60,0,0
98371,-100,4,2,6,60,0,0
109280,-100,4,2,3,40,0,0
109735,-100,4,2,6,60,0,0
110190,-100,4,2,3,40,0,0
110644,-100,4,2,6,60,0,0
111099,-100,4,2,3,60,0,0
127462,-100,4,2,3,70,0,1
134735,-100,4,2,60,70,0,1
134849,-100,4,2,3,70,0,1
135644,-100,4,2,61,70,0,1
135758,-100,4,2,3,70,0,1
136553,-100,4,2,62,70,0,1
136667,-100,4,2,3,70,0,1
137462,-100,4,2,63,70,0,1
137576,-100,4,2,3,70,0,1
137917,-100,4,2,61,70,0,1
138030,-100,4,2,3,70,0,1
138371,-100,4,2,4,70,0,1
138485,-100,4,2,3,70,0,1
149280,-100,4,2,60,70,0,1
149394,-100,4,2,3,70,0,1
150190,-100,4,2,61,70,0,1
150303,-100,4,2,3,70,0,1
151099,-100,4,2,62,70,0,1
151212,-100,4,2,3,70,0,1
152008,-100,4,2,4,70,0,1
152462,-100,4,2,65,70,0,1
152917,-100,4,2,5,70,0,1
153144,-100,4,2,65,70,0,1
153258,-100,4,2,4,70,0,1
154735,-100,4,2,10,70,0,0
155190,-100,4,2,3,60,0,0
156553,-100,4,2,73,60,0,0
156780,-100,4,2,2,60,0,0
162008,-100,4,2,71,60,0,0
163371,-100,4,2,72,60,0,0
163826,-100,4,2,73,60,0,0
165644,-100,4,2,74,60,0,0
166553,-100,4,2,72,60,0,0
167462,-100,4,2,73,60,0,0
171099,-133.333333333333,4,2,10,60,0,0
178371,-100,4,2,73,60,0,0
179280,-100,4,2,72,60,0,0
180190,-100,4,2,71,60,0,0
181099,-100,4,2,74,60,0,0
181553,-100,4,2,72,60,0,0
182008,-100,4,2,75,60,0,0
183826,-100,4,2,2,60,0,0
187462,-100,4,2,3,70,0,1
194735,-100,4,2,66,70,0,1
194849,-100,4,2,3,70,0,1
195644,-100,4,2,62,70,0,1
195758,-100,4,2,3,70,0,1
196553,-100,4,2,67,70,0,1
196667,-100,4,2,3,70,0,1
197462,-100,4,2,68,70,0,1
197576,-100,4,2,3,70,0,1
197917,-100,4,2,62,70,0,1
198030,-100,4,2,3,70,0,1
198371,-100,4,2,7,70,0,1
198485,-100,4,2,3,70,0,1
209280,-100,4,2,66,70,0,1
209394,-100,4,2,3,70,0,1
210190,-100,4,2,62,70,0,1
210303,-100,4,2,3,70,0,1
211099,-100,4,2,67,70,0,1
211212,-100,4,2,3,70,0,1
212008,-100,4,2,7,70,0,1
212462,-100,4,2,99,70,0,1
212917,-100,4,2,8,70,0,1
213144,-100,4,2,99,70,0,1
213258,-100,4,2,7,70,0,1
214735,-100,4,2,10,70,0,0
215190,-100,4,2,3,60,0,0
216553,-100,4,2,2,60,0,0
217008,-100,4,2,2,60,0,0
223826,-100,4,2,3,60,0,0
229792,-100,4,2,3,40,0,0
230644,-100,4,2,3,60,0,0
231099,-100,4,2,10,60,0,0
231553,-100,4,2,2,60,0,0
245644,-100,4,2,10,60,0,0
245871,-100,4,2,2,60,0,0
247462,-100,4,2,2,50,0,0
249280,-100,4,2,2,40,0,0
251099,-100,4,2,2,30,0,0
252917,-100,4,2,2,20,0,0

[Colours]
Combo1 : 254,56,160
Combo2 : 19,79,168
Combo3 : 253,185,70
Combo4 : 135,125,255

[HitObjects]
256,192,22008,12,0,24735,3:0:0:0:
412,381,25644,6,0,B|427:365|427:365|407:275,1,110,6|8,0:0|0:0,0:0:0:0:
397,224,26326,1,0,0:0:0:0:
397,224,26440,1,0,0:0:0:0:
397,224,26553,2,0,P|433:204|448:168,2,82.5,2|2|0,0:0|0:0|0:0,0:0:0:0:
355,260,27462,2,0,L|242:251,1,110,2|8,0:0|0:0,0:0:0:0:
194,250,28144,1,0,0:0:0:0:
194,250,28258,1,0,0:0:0:0:
194,250,28371,5,2,0:0:0:0:
220,201,28599,1,0,0:0:0:0:
181,161,28826,1,8,0:0:0:0:
131,186,29053,1,2,0:0:0:0:
139,241,29280,6,0,L|152:364,1,110,6|8,0:0|0:0,0:0:0:0:
96,342,29962,1,0,0:0:0:0:
96,342,30076,1,0,0:0:0:0:
95,341,30190,2,0,P|63:317|23:317,2,82.5,2|2|0,0:0|0:0|0:0,0:0:0:0:
150,350,31099,2,0,L|270:335,1,110,2|8,0:0|0:0,0:0:0:0:
300,299,31780,1,0,0:0:0:0:
300,299,31894,1,0,0:0:0:0:
300,299,32008,5,2,0:0:0:0:
311,245,32235,1,0,0:0:0:0:
257,234,32462,1,8,0:0:0:0:
268,180,32689,1,2,0:0:0:0:
214,165,32917,6,0,P|181:147|169:101,1,82.5,6|2,0:0|0:0,0:0:0:0:
237,58,33599,1,0,0:0:0:0:
237,58,33712,1,0,0:0:0:0:
237,58,33826,2,0,P|270:76|282:122,2,82.5,2|2|0,0:0|0:0|0:0,0:0:0:0:
181,55,34735,6,0,L|56:73,1,110,2|8,0:0|0:0,0:0:0:0:
25,52,35417,1,0,0:0:0:0:
25,52,35530,1,0,0:0:0:0:
25,52,35644,5,2,0:0:0:0:
36,105,35871,1,0,0:0:0:0:
12,154,36099,1,8,0:0:0:0:
23,207,36326,1,2,0:0:0:0:
5,259,36553,6,0,P|16:299|60:320,1,82.5,0|0,3:0|3:0,3:0:0:0:
49,319,37008,1,8,0:0:0:0:
88,280,37235,2,0,P|109:258|140:252,1,55,2|0,0:0|3:0,0:0:0:0:
186,241,37690,1,0,3:0:0:0:
213,193,37917,1,8,0:0:0:0:
243,147,38144,1,6,0:0:0:0:
271,100,38371,5,6,3:2:0:0:
271,100,38485,1,8,0:0:0:0:
271,100,38599,2,0,L|265:65,2,27.5,0|2|8,0:0|3:2|0:0,0:0:0:0:
327,120,39053,1,6,0:0:0:0:
327,120,39167,1,0,0:0:0:0:
327,120,39281,2,0,L|333:155,2,27.5,6|0|2,3:2|0:0|3:2,0:0:0:0:
367,83,39735,1,12,0:0:0:0:
415,107,39962,1,2,3:2:0:0:
454,68,40190,6,0,P|469:30|504:11,2,82.5,6|2|0,3:2|0:0|0:0,0:0:0:0:
415,107,41099,2,0,L|437:234,1,110,2|8,3:2|0:0,0:0:0:0:
473,261,41780,1,0,0:0:0:0:
473,261,41894,1,0,0:0:0:0:
473,261,42008,5,2,3:2:0:0:
448,310,42234,1,0,0:0:0:0:
393,319,42462,1,8,0:0:0:0:
358,276,42690,2,0,P|305:262|260:291,1,110,2|2,0:0|0:0,0:0:0:0:
245,343,43371,1,8,0:0:0:0:
194,356,43599,1,0,0:0:0:0:
194,356,43712,1,0,0:0:0:0:
194,356,43826,6,0,L|83:337,1,110,6|8,3:2|0:0,0:0:0:0:
86,286,44508,1,0,0:0:0:0:
86,286,44621,1,0,0:0:0:0:
86,286,44735,2,0,L|213:264,1,110,6|8,3:2|0:0,0:0:0:0:
196,216,45417,1,0,0:0:0:0:
196,216,45530,1,0,0:0:0:0:
196,216,45644,6,0,L|86:197,1,110,6|8,3:2|0:0,0:0:0:0:
60,155,46326,1,0,0:0:0:0:
60,155,46440,1,0,0:0:0:0:
60,155,46553,5,6,3:2:0:0:
70,100,46780,1,2,0:0:0:0:
116,70,47008,1,8,0:0:0:0:
170,82,47235,1,2,0:0:0:0:
195,130,47462,6,0,P|230:139|271:114,2,82.5,6|2|2,3:2|0:0|0:0,0:0:0:0:
225,83,48371,1,2,3:2:0:0:
311,150,48826,1,8,0:0:0:0:
329,41,49280,5,2,3:2:0:0:
382,53,49507,1,0,0:0:0:0:
424,17,49735,1,8,0:0:0:0:
477,30,49962,2,0,L|496:141,1,110,2|2,0:0|0:0,0:0:0:0:
443,157,50644,1,8,0:0:0:0:
432,212,50871,1,2,3:2:0:0:
473,248,51099,6,0,P|501:278|504:317,2,82.5,6|2|0,3:2|0:0|0:0,0:0:0:0:
421,267,52008,1,2,3:2:0:0:
366,277,52235,1,2,0:0:0:0:
311,287,52462,1,8,0:0:0:0:
256,297,52690,1,6,3:2:0:0:
174,29,54508,5,0,3:0:0:0:
174,29,54621,1,0,3:0:0:0:
174,29,54735,2,0,B|232:17|206:78|268:66,1,110,6|8,3:2|0:0,0:0:0:0:
322,57,55417,2,0,P|289:59|284:132,1,110,2|2,0:0|0:0,0:0:0:0:
321,154,56099,1,8,0:0:0:0:
313,102,56326,1,0,0:0:0:0:
313,102,56440,2,0,P|247:86|221:83,1,82.5,2|0,0:0|0:0,0:0:0:0:
127,79,57235,1,0,0:0:0:0:
127,79,57349,1,0,0:0:0:0:
127,79,57462,6,0,P|102:71|62:66,1,55,2|2,3:2|0:0,0:0:0:0:
18,73,57917,1,8,0:0:0:0:
49,121,58144,1,0,0:0:0:0:
49,121,58258,2,0,P|81:142|128:139,1,82.5,2|0,0:0|0:0,0:0:0:0:
233,113,59053,1,0,0:0:0:0:
233,113,59167,1,0,0:0:0:0:
233,113,59280,6,0,P|258:105|298:100,1,55,2|2,3:2|0:0,0:0:0:0:
342,107,59735,1,8,0:0:0:0:
310,152,59962,1,0,0:0:0:0:
310,152,60076,2,0,P|278:173|231:170,1,82.5,2|0,0:0|0:0,0:0:0:0:
250,62,60871,1,2,0:0:0:0:
292,26,61099,2,0,P|317:35|339:58,1,55,2|0,3:2|3:0,3:0:0:0:
390,69,61553,2,0,P|400:93|399:125,1,55,8|0,0:0|0:0,0:0:0:0:
429,168,62008,5,6,3:2:0:0:
378,180,62235,1,0,0:0:0:0:
378,180,62349,1,2,0:0:0:0:
378,180,62462,2,0,P|354:195|330:219,1,55,8|0,0:0|0:0,0:0:0:0:
299,255,62917,5,2,3:2:0:0:
350,267,63144,1,0,0:0:0:0:
350,267,63258,1,2,0:0:0:0:
350,267,63371,2,0,P|374:282|398:306,1,55,8|0,0:0|0:0,0:0:0:0:
432,339,63826,5,2,3:2:0:0:
381,351,64053,1,0,0:0:0:0:
381,351,64167,1,2,0:0:0:0:
381,351,64280,2,0,P|357:366|333:390,1,55,8|0,0:0|0:0,0:0:0:0:
287,362,64735,5,2,3:2:0:0:
234,344,64962,1,0,0:0:0:0:
236,288,65190,1,8,3:2:0:0:
289,275,65417,1,2,0:0:0:0:
317,320,65644,6,0,P|348:277|323:232,1,110,6|8,3:2|0:0,0:0:0:0:
289,275,66326,1,4,0:0:0:0:
289,275,66440,1,0,0:0:0:0:
289,275,66553,2,0,L|293:151,1,110,6|8,3:2|0:0,0:0:0:0:
295,109,67235,1,2,3:2:0:0:
295,109,67349,1,2,3:2:0:0:
295,109,67462,1,2,3:2:0:0:
376,35,67917,5,8,3:2:0:0:
329,6,68144,1,6,3:2:0:0:
329,6,68258,2,0,P|289:-1|249:4,1,82.5,2|4,0:3|3:2,0:0:0:0:
204,37,68826,1,8,3:2:0:0:
157,65,69053,1,2,3:2:0:0:
105,47,69280,6,0,B|132:66|132:66|146:145,1,110,6|8,0:0|0:0,0:0:0:0:
92,158,69962,2,0,L|72:268,1,110,2|2,0:0|0:0,0:0:0:0:
94,316,70644,1,8,0:0:0:0:
149,304,70871,1,0,0:0:0:0:
149,304,70985,2,0,P|189:303|220:329,1,82.5,2|0,0:0|0:0,0:0:0:0:
315,270,71780,1,0,0:0:0:0:
315,270,71894,1,0,0:0:0:0:
315,270,72008,5,2,3:2:0:0:
369,283,72234,2,0,P|387:299|398:332,1,55,2|8,0:0|0:0,0:0:0:0:
443,355,72689,1,0,0:0:0:0:
443,355,72803,2,0,P|461:320|499:305,1,82.5,2|0,0:0|0:0,0:0:0:0:
491,199,73599,1,0,0:0:0:0:
491,199,73713,1,0,0:0:0:0:
491,199,73827,5,2,3:2:0:0:
437,186,74053,2,0,P|419:170|408:137,1,55,2|8,0:0|0:0,0:0:0:0:
363,114,74508,1,0,0:0:0:0:
363,114,74622,2,0,P|345:149|307:164,1,82.5,2|0,0:0|0:0,0:0:0:0:
207,116,75417,1,0,0:0:0:0:
217,169,75644,2,0,L|228:232,1,55,2|0,3:2|0:0,0:0:0:0:
275,249,76099,2,0,L|263:312,1,55,8|0,0:0|0:0,0:0:0:0:
251,356,76553,5,6,3:2:0:0:
216,321,76780,1,0,0:0:0:0:
216,321,76894,1,2,0:0:0:0:
216,321,77008,2,0,P|193:316|159:327,1,55,8|0,0:0|0:0,0:0:0:0:
110,339,77462,5,2,3:2:0:0:
125,289,77689,1,0,0:0:0:0:
125,289,77803,1,2,0:0:0:0:
125,289,77917,2,0,P|117:266|91:242,1,55,8|0,0:0|0:0,0:0:0:0:
49,215,78371,5,2,3:2:0:0:
102,194,78598,1,0,0:0:0:0:
102,194,78712,1,2,0:0:0:0:
102,194,78826,2,0,P|117:176|125:141,1,55,8|0,0:0|0:0,0:0:0:0:
113,92,79280,6,0,L|239:69,1,110,2|8,3:2|3:2,0:0:0:0:
329,48,80190,1,6,3:2:0:0:
294,7,80417,1,0,3:0:0:0:
294,7,80530,2,0,P|275:54|370:15,1,247.5,2|0,3:2|0:0,0:0:0:0:
331,51,81780,1,0,0:0:0:0:
331,51,81894,1,0,0:0:0:0:
331,51,82008,5,4,0:0:0:0:
432,93,82462,1,2,0:0:0:0:
403,140,82690,1,0,0:0:0:0:
403,140,82803,2,0,L|419:234,1,82.5,2|2,0:0|0:0,0:0:0:0:
470,230,83371,1,8,3:2:0:0:
478,284,83599,1,2,3:2:0:0:
429,308,83826,1,6,3:2:0:0:
472,342,84053,5,2,0:3:0:0:
422,364,84280,1,8,0:0:0:0:
422,364,84394,2,0,P|399:348|372:341,1,55,2|0,0:0|0:0,0:0:0:0:
293,365,84962,1,2,0:3:0:0:
257,324,85189,1,8,0:0:0:0:
257,324,85303,2,0,P|264:297|262:270,1,55,2|0,0:0|0:0,0:0:0:0:
231,194,85871,5,2,0:3:0:0:
259,147,86098,1,8,0:0:0:0:
259,147,86212,2,0,P|286:146|311:136,1,55,2|0,0:0|0:0,0:0:0:0:
365,73,86780,1,2,0:3:0:0:
418,85,87007,1,8,0:0:0:0:
418,85,87121,2,0,P|427:110|444:131,1,55,2|0,0:0|0:0,0:0:0:0:
505,187,87690,5,2,0:3:0:0:
510,241,87917,1,8,0:0:0:0:
510,241,88031,2,0,P|484:231|457:231,1,55,2|0,0:0|0:0,0:0:0:0:
377,254,88599,1,2,0:3:0:0:
382,200,88826,1,8,0:0:0:0:
382,200,88940,2,0,P|398:177|413:169,2,27.5,2|0|0,0:0|0:0|0:0,0:0:0:0:
307,235,89508,5,2,0:3:0:0:
312,181,89735,1,8,0:0:0:0:
312,181,89849,2,0,P|286:190|259:190,1,55,2|0,0:0|0:0,0:0:0:0:
177,203,90417,1,2,0:3:0:0:
182,257,90644,1,8,0:0:0:0:
182,257,90758,2,0,P|198:279|213:287,2,27.5,2|0|0,0:0|0:0|0:0,0:0:0:0:
161,239,91099,5,2,3:2:0:0:
188,191,91326,1,0,3:0:0:0:
149,149,91553,2,0,P|143:138|141:124,1,27.5,8|0,3:2|3:0,3:0:0:0:
153,100,91780,1,0,3:0:0:0:
153,100,91894,2,0,P|177:94|200:143,1,82.5,0|0,3:0|3:0,0:0:0:0:
254,155,92462,2,0,P|247:166|245:180,1,27.5,8|0,3:2|3:0,3:0:0:0:
257,205,92689,1,0,3:0:0:0:
257,205,92803,2,0,P|281:211|304:162,1,82.5,0|0,3:0|3:0,0:0:0:0:
354,141,93371,2,0,P|347:129|345:115,1,27.5,8|0,3:2|3:0,3:0:0:0:
357,91,93598,1,0,3:0:0:0:
357,91,93712,2,0,P|381:85|404:134,1,82.5,0|0,3:0|3:0,0:0:0:0:
386,179,94280,5,8,3:2:0:0:
381,192,94394,1,0,3:0:0:0:
376,205,94508,1,0,3:0:0:0:
372,218,94621,1,0,3:0:0:0:
301,261,94962,5,0,3:2:0:0:
264,219,95190,1,8,3:2:0:0:
264,219,95303,2,0,P|252:216|231:211,1,27.5,0|0,3:2|3:2,0:0:0:0:
219,233,95530,2,0,P|182:220|133:229,1,82.5,0|0,3:2|3:0,0:0:0:0:
168,276,96099,1,8,3:2:0:0:
168,276,96212,2,0,P|180:273|201:268,1,27.5,0|0,3:0|3:0,0:0:0:0:
213,290,96439,2,0,P|250:277|299:286,1,82.5,0|2,3:0|3:2,0:0:0:0:
336,321,97008,1,8,3:2:0:0:
336,321,97121,1,2,3:0:0:0:
199,342,97690,5,0,3:0:0:0:
114,276,98144,5,0,3:0:0:0:
114,276,98371,2,0,L|91:402,1,110,6|8,0:0|0:0,0:0:0:0:
45,365,99053,1,0,0:0:0:0:
45,365,99167,1,0,0:0:0:0:
45,365,99280,2,0,L|28:270,2,82.5,2|2|0,0:0|0:3|0:0,0:0:0:0:
95,384,100190,2,0,P|140:355|192:370,1,110,2|8,0:0|0:0,0:0:0:0:
241,343,100871,1,0,0:0:0:0:
241,343,100985,1,0,0:0:0:0:
241,343,101098,5,2,0:0:0:0:
287,373,101326,1,0,0:0:0:0:
331,340,101553,1,8,0:0:0:0:
375,372,101780,1,2,0:0:0:0:
419,340,102007,6,0,L|438:231,1,110,2|8,0:0|0:0,0:0:0:0:
450,181,102689,1,0,0:0:0:0:
450,181,102803,1,0,0:0:0:0:
450,181,102917,2,0,P|487:166|508:132,2,82.5,2|2|0,0:0|0:3|0:0,0:0:0:0:
397,198,103826,2,0,L|286:178,1,110,2|8,0:0|0:0,0:0:0:0:
239,168,104507,1,0,0:0:0:0:
239,168,104621,1,0,0:0:0:0:
239,168,104735,5,2,0:0:0:0:
231,113,104962,1,0,0:0:0:0:
280,88,105190,1,8,0:0:0:0:
315,129,105417,1,2,0:0:0:0:
289,178,105644,6,0,P|278:214|297:250,1,82.5,6|0,0:0|0:0,0:0:0:0:
378,289,106326,1,0,0:0:0:0:
378,289,106440,1,0,0:0:0:0:
378,289,106553,2,0,P|398:323|388:362,2,82.5,2|2|0,0:0|0:3|0:0,0:0:0:0:
342,331,107462,6,0,L|232:350,1,110,2|8,0:0|0:0,0:0:0:0:
190,324,108144,1,0,0:0:0:0:
190,324,108257,1,0,0:0:0:0:
190,324,108371,5,2,0:0:0:0:
135,331,108598,1,0,0:0:0:0:
100,374,108826,1,8,0:0:0:0:
46,383,109053,1,2,0:0:0:0:
1,351,109280,6,0,L|17:256,1,82.5,0|0,3:0|3:0,3:0:0:0:
14,269,109735,1,8,0:0:0:0:
58,236,109962,2,0,L|46:172,1,55,2|0,0:0|3:0,0:0:0:0:
43,126,110417,1,0,3:0:0:0:
53,72,110644,1,8,0:0:0:0:
98,41,110871,1,6,0:0:0:0:
156,54,111099,5,6,3:2:0:0:
156,54,111213,1,8,0:0:0:0:
156,54,111327,2,0,L|162:19,2,27.5,0|2|8,0:0|3:2|0:0,0:0:0:0:
194,101,111780,1,6,0:0:0:0:
194,101,111894,1,0,0:0:0:0:
194,101,112008,2,0,L|188:136,2,27.5,6|8|0,3:2|0:0|0:0,0:0:0:0:
240,71,112462,1,12,0:0:0:0:
272,115,112689,1,2,3:2:0:0:
316,82,112917,6,0,P|341:111|349:155,2,82.5,6|2|2,3:2|0:0|0:0,0:0:0:0:
276,43,113826,2,0,L|154:53,1,110,2|8,3:2|0:0,0:0:0:0:
129,19,114508,1,0,0:0:0:0:
129,19,114621,1,0,0:0:0:0:
129,19,114735,5,2,3:2:0:0:
74,9,114962,1,0,0:0:0:0:
30,43,115190,1,8,0:0:0:0:
33,97,115417,2,0,P|64:112|86:187,1,110,2|2,0:0|0:0,0:0:0:0:
78,234,116099,1,8,0:0:0:0:
131,247,116326,1,0,0:0:0:0:
131,247,116440,1,0,0:0:0:0:
131,247,116553,6,0,L|122:356,1,110,6|8,3:2|0:0,0:0:0:0:
179,348,117235,1,0,0:0:0:0:
179,348,117349,1,0,0:0:0:0:
179,348,117462,2,0,L|188:239,1,110,6|8,3:2|0:0,0:0:0:0:
242,264,118144,1,0,0:0:0:0:
242,264,118258,1,0,0:0:0:0:
242,264,118371,6,0,L|233:373,1,110,6|8,3:2|0:0,0:0:0:0:
187,354,119053,1,0,0:0:0:0:
187,354,119167,1,0,0:0:0:0:
187,354,119280,1,6,3:2:0:0:
163,303,119508,1,2,0:0:0:0:
194,258,119735,1,8,0:0:0:0:
175,206,119962,1,2,0:0:0:0:
139,164,120190,6,0,P|118:180|63:170,2,82.5,6|2|2,3:2|0:0|0:0,0:0:0:0:
167,117,121099,1,2,3:2:0:0:
256,181,121553,1,8,0:0:0:0:
345,245,122008,5,2,3:2:0:0:
392,217,122235,1,0,0:0:0:0:
395,271,122462,1,8,0:0:0:0:
399,325,122690,2,0,P|436:351|486:308,1,110,2|2,0:0|0:0,0:0:0:0:
474,264,123371,1,8,0:0:0:0:
474,208,123599,1,2,3:2:0:0:
440,164,123826,6,0,P|473:151|499:112,2,82.5,6|2|0,3:2|0:0|0:0,0:0:0:0:
395,131,124735,1,2,3:2:0:0:
375,79,124962,1,2,0:0:0:0:
418,45,125190,1,8,0:0:0:0:
462,77,125417,1,6,3:2:0:0:
24,91,127235,5,0,3:0:0:0:
24,91,127349,1,0,3:0:0:0:
24,91,127462,2,0,B|30:126|30:126|51:155|51:155|59:202,1,110,6|8,3:2|0:0,0:0:0:0:
19,232,128144,2,0,P|71:217|117:245,1,110,2|2,0:0|0:0,0:0:0:0:
145,291,128826,1,8,0:0:0:0:
177,338,129053,1,0,0:0:0:0:
177,338,129167,2,0,P|215:344|251:326,1,82.5,2|0,0:0|0:0,0:0:0:0:
335,251,129962,1,0,0:0:0:0:
335,251,130076,1,0,0:0:0:0:
335,251,130190,6,0,P|342:276|345:316,1,55,2|2,3:2|0:0,0:0:0:0:
383,343,130644,1,10,0:0:0:0:
424,306,130871,1,0,0:0:0:0:
424,306,130985,2,0,P|428:264|443:216,1,82.5,2|0,0:0|0:0,0:0:0:0:
449,119,131780,1,0,0:0:0:0:
449,119,131894,1,0,0:0:0:0:
449,119,132008,6,0,P|442:94|439:54,1,55,2|2,3:2|0:0,0:0:0:0:
401,27,132462,1,8,0:0:0:0:
360,64,132689,1,0,0:0:0:0:
360,64,132803,2,0,P|356:106|341:154,1,82.5,2|0,0:0|0:0,0:0:0:0:
256,78,133598,1,2,0:0:0:0:
222,122,133826,2,0,L|233:185,1,55,2|0,3:2|0:0,0:0:0:0:
281,199,134280,2,0,L|269:262,1,55,8|0,0:0|0:0,0:0:0:0:
235,295,134735,5,6,3:2:0:0:
228,246,134962,1,0,0:0:0:0:
228,246,135076,2,0,P|215:225|160:198,1,82.5,2|0,0:0|0:0,0:0:0:0:
105,208,135644,5,2,3:2:0:0:
66,246,135871,1,0,0:0:0:0:
66,246,135985,2,0,P|55:266|66:324,1,82.5,2|0,0:0|0:0,0:0:0:0:
97,369,136553,5,2,3:2:0:0:
154,384,136780,1,0,0:0:0:0:
154,384,136894,2,0,P|176:381|221:341,1,82.5,2|0,0:0|0:0,0:0:0:0:
234,293,137462,5,2,3:2:0:0:
276,327,137689,1,0,0:0:0:0:
328,311,137917,1,8,3:2:0:0:
370,345,138144,1,2,0:0:0:0:
421,326,138371,6,0,L|443:199,1,110,6|8,3:2|3:2,0:0:0:0:
397,193,139053,1,6,3:2:0:0:
397,193,139167,1,0,3:2:0:0:
397,193,139280,2,0,L|377:82,1,110,6|8,3:2|3:2,0:0:0:0:
417,46,139962,1,2,3:2:0:0:
417,46,140076,1,2,3:2:0:0:
417,46,140189,1,2,3:2:0:0:
342,126,140644,5,8,3:2:0:0:
306,167,140871,1,6,3:2:0:0:
306,167,140985,2,0,P|267:173|231:155,1,82.5,2|4,0:3|3:2,0:0:0:0:
213,101,141553,1,8,3:2:0:0:
159,89,141780,1,2,3:2:0:0:
122,130,142008,6,0,B|95:110|95:110|69:34,1,110,6|8,3:2|0:0,0:0:0:0:
27,2,142690,2,0,L|14:122,1,110,2|2,0:0|0:0,0:0:0:0:
58,144,143371,1,8,0:0:0:0:
87,97,143599,1,0,0:0:0:0:
87,97,143712,2,0,P|109:71|165:62,1,82.5,2|0,0:0|0:0,0:0:0:0:
255,15,144508,5,0,0:0:0:0:
255,15,144621,1,0,0:0:0:0:
255,15,144735,1,2,3:2:0:0:
301,44,144962,2,0,L|361:37,1,55,2|8,0:0|0:0,0:0:0:0:
399,3,145417,1,0,0:0:0:0:
399,3,145530,2,0,L|494:15,1,82.5,2|0,0:0|0:0,0:0:0:0:
454,123,146326,5,0,0:0:0:0:
454,123,146439,1,0,0:0:0:0:
454,123,146553,1,2,3:2:0:0:
408,152,146780,2,0,L|348:145,1,55,2|8,0:0|0:0,0:0:0:0:
310,111,147235,1,0,0:0:0:0:
310,111,147349,2,0,L|215:123,1,82.5,2|0,0:0|0:0,0:0:0:0:
264,225,148144,5,0,0:0:0:0:
318,217,148371,2,0,P|308:191|318:165,1,55,2|0,3:2|0:0,0:0:0:0:
373,168,148826,2,0,P|382:193|372:219,1,55,8|0,0:0|0:0,0:0:0:0:
342,263,149280,5,6,3:2:0:0:
397,266,149508,1,0,0:0:0:0:
397,266,149621,2,0,L|499:268,1,82.5,2|0,0:0|0:0,0:0:0:0:
484,223,150190,5,2,3:2:0:0:
459,174,150418,1,0,0:0:0:0:
459,174,150530,2,0,L|419:92,1,82.5,2|0,0:0|0:0,0:0:0:0:
378,130,151099,5,2,3:2:0:0:
348,177,151327,1,0,0:0:0:0:
348,177,151440,2,0,L|301:247,1,82.5,2|0,0:0|0:0,0:0:0:0:
271,196,152008,6,0,P|229:166|173:164,1,110,2|8,3:2|3:2,0:0:0:0:
95,242,152917,1,6,3:2:0:0:
144,271,153144,1,0,3:0:0:0:
144,271,153258,2,0,P|127:199|82:296,1,247.5,2|0,3:2|0:0,0:0:0:0:
117,317,154508,1,0,0:0:0:0:
117,317,154621,1,0,0:0:0:0:
117,317,154735,1,4,0:0:0:0:
208,378,155190,6,0,L|293:370,1,82.5,2|2,0:0|0:0,0:0:0:0:
360,326,155871,1,2,0:0:0:0:
401,362,156099,1,8,3:2:0:0:
436,320,156326,1,2,3:2:0:0:
395,283,156553,1,2,3:2:0:0:
395,283,171099,6,0,B|455:240|433:126|296:144|292:216|309:253|309:253|365:234|352:171|352:171|342:115|342:115|274:125|195:182|188:322|290:384|375:405|468:386|548:295|512:165|437:124|391:118,1,1113.75004248619,4|0,0:0|0:0,0:0:0:0:
377,66,177462,1,0,0:0:0:0:
377,66,178371,6,0,L|266:46,1,110,2|0,0:0|0:0,0:0:0:0:
230,86,179053,1,0,0:0:0:0:
230,86,179280,2,0,L|119:66,1,110,2|0,0:0|0:0,0:0:0:0:
83,106,179962,1,0,0:0:0:0:
83,106,180190,6,0,L|-11:89,2,82.5,2|0|0,0:0|0:0|0:0,0:0:0:0:
136,120,181099,2,0,P|151:138|159:172,1,55,2|0,0:0|0:0,0:0:0:0:
203,201,181553,2,0,P|195:224|168:248,1,55,2|0,0:0|0:0,0:0:0:0:
166,299,182008,6,0,B|133:276|133:276|432:223|432:223|404:265,1,385,6|4,0:0|0:0,0:0:0:0:
382,208,183826,6,0,P|385:180|400:158,1,55,6|4,0:0|3:2,0:0:0:0:
406,103,184280,2,0,P|431:92|458:94,1,55,0|4,3:2|3:2,0:0:0:0:
496,54,184735,2,0,L|432:42,1,55,0|0,3:2|3:2,0:0:0:0:
431,21,185076,1,0,3:2:0:0:
431,21,185190,2,0,L|367:10,1,55,0|0,3:2|3:2,0:0:0:0:
349,59,185644,6,0,L|301:65,7,27.5,0|0|4|0|0|4|0|0,3:2|3:2|3:2|3:2|3:2|3:2|3:2|3:2,0:0:0:0:
304,83,186553,1,0,3:2:0:0:
248,73,186781,1,2,3:2:0:0:
195,64,187008,1,2,3:2:0:0:
143,57,187235,1,2,3:2:0:0:
143,57,187349,1,0,0:0:0:0:
143,57,187462,6,0,B|94:62|94:62|69:47|69:47|17:54,1,110,6|8,3:2|0:0,0:0:0:0:
10,99,188144,2,0,P|0:133|69:157,1,110,2|2,0:0|0:0,0:0:0:0:
85,118,188826,1,8,0:0:0:0:
131,146,189053,1,0,0:0:0:0:
131,146,189167,2,0,B|147:175|147:175|134:225,1,82.5,2|0,0:0|0:0,0:0:0:0:
192,316,189962,1,0,0:0:0:0:
192,316,190076,1,0,0:0:0:0:
192,316,190190,5,2,3:2:0:0:
161,361,190417,2,0,P|135:371|108:368,1,55,2|8,0:0|0:0,0:0:0:0:
65,334,190871,1,0,0:0:0:0:
65,334,190985,2,0,L|57:244,1,82.5,2|0,0:0|0:0,0:0:0:0:
4,161,191780,1,0,0:0:0:0:
4,161,191894,1,0,0:0:0:0:
4,161,192008,5,2,3:2:0:0:
35,206,192235,2,0,P|60:216|87:213,1,55,2|8,0:0|0:0,0:0:0:0:
131,179,192689,1,0,0:0:0:0:
131,179,192803,2,0,L|139:89,1,82.5,2|0,0:0|0:0,0:0:0:0:
208,11,193599,1,0,0:0:0:0:
253,42,193826,2,0,L|247:100,1,55,2|0,3:2|0:0,0:0:0:0:
204,131,194280,2,0,L|210:189,1,55,8|0,0:0|0:0,0:0:0:0:
240,231,194735,5,6,3:2:0:0:
279,193,194962,1,0,0:0:0:0:
279,193,195076,2,0,P|295:220|291:250,1,55,2|0,0:0|0:0,0:0:0:0:
293,242,195417,1,0,0:0:0:0:
253,280,195644,5,2,3:2:0:0:
301,306,195871,1,0,0:0:0:0:
301,306,195985,2,0,P|280:329|250:335,1,55,2|0,0:0|0:0,0:0:0:0:
257,335,196326,1,0,0:0:0:0:
207,314,196553,5,2,3:2:0:0:
197,367,196780,1,0,0:0:0:0:
197,367,196894,2,0,P|168:354|153:327,1,55,2|0,0:0|0:0,0:0:0:0:
155,335,197235,1,0,0:0:0:0:
166,281,197462,5,2,3:2:0:0:
186,229,197690,1,0,0:0:0:0:
240,231,197917,1,8,3:2:0:0:
254,283,198144,1,0,0:0:0:0:
294,246,198371,6,0,P|342:237|406:227,1,110,6|8,3:2|3:2,0:0:0:0:
399,176,199053,1,6,3:2:0:0:
399,176,199167,1,0,3:2:0:0:
399,176,199280,2,0,P|351:185|287:195,1,110,6|8,3:2|3:2,0:0:0:0:
284,144,199962,1,6,3:2:0:0:
284,144,200076,1,2,3:2:0:0:
284,144,200190,1,6,3:2:0:0:
391,121,200644,5,8,0:0:0:0:
356,78,200871,1,2,3:2:0:0:
356,78,200985,2,0,B|343:50|343:50|352:0,1,82.5,2|4,0:3|3:2,0:0:0:0:
407,4,201553,1,8,3:2:0:0:
451,35,201780,1,0,3:2:0:0:
472,85,202008,6,0,B|455:136|455:136|492:181,1,110,6|8,3:2|0:0,0:0:0:0:
450,215,202690,2,0,B|413:174|413:174|356:184,1,110,2|2,0:0|0:0,0:0:0:0:
338,235,203371,1,8,0:0:0:0:
318,287,203599,1,0,0:0:0:0:
318,287,203712,2,0,L|223:270,1,82.5,2|0,0:0|0:0,0:0:0:0:
133,258,204508,1,0,0:0:0:0:
133,258,204622,1,0,0:0:0:0:
133,258,204735,6,0,P|138:281|126:315,1,55,2|2,3:2|0:0,0:0:0:0:
79,334,205190,1,8,0:0:0:0:
30,314,205417,1,0,0:0:0:0:
30,314,205530,2,0,P|17:279|39:236,1,82.5,2|0,0:0|0:0,0:0:0:0:
106,155,206326,1,0,0:0:0:0:
106,155,206440,1,0,0:0:0:0:
106,155,206553,6,0,P|120:135|122:99,1,55,2|2,3:2|0:0,0:0:0:0:
87,64,207008,1,8,0:0:0:0:
34,63,207235,1,0,0:0:0:0:
34,63,207348,2,0,P|9:90|12:138,1,82.5,2|0,0:0|0:0,0:0:0:0:
36,239,208145,1,0,0:0:0:0:
82,210,208371,2,0,P|106:208|138:225,1,55,2|0,3:2|0:0,0:0:0:0:
188,217,208826,2,0,P|201:236|203:272,1,55,8|0,0:0|0:0,0:0:0:0:
230,315,209281,5,6,3:2:0:0:
287,305,209508,1,0,0:0:0:0:
287,305,209621,2,0,L|350:293,1,55,2|0,0:0|0:0,0:0:0:0:
341,294,209962,1,0,0:0:0:0:
395,285,210190,5,2,3:2:0:0:
387,235,210417,1,0,0:0:0:0:
387,235,210530,2,0,L|375:171,1,55,2|0,0:0|0:0,0:0:0:0:
376,180,210871,1,0,0:0:0:0:
370,126,211099,5,2,3:2:0:0:
319,135,211326,1,0,0:0:0:0:
319,135,211440,2,0,L|255:146,1,55,2|0,0:0|0:0,0:0:0:0:
264,144,211780,1,0,0:0:0:0:
233,189,212008,6,0,L|107:166,1,110,2|8,3:2|3:2,0:0:0:0:
53,84,212918,1,6,3:2:0:0:
5,109,213145,1,0,3:0:0:0:
5,109,213258,2,0,P|102:100|29:34,1,247.5,2|0,3:2|0:0,0:0:0:0:
56,86,214508,1,0,0:0:0:0:
56,86,214622,1,0,0:0:0:0:
56,86,214736,5,4,0:0:0:0:
161,60,215190,1,2,0:0:0:0:
197,104,215417,1,0,0:0:0:0:
197,104,215530,2,0,P|236:112|270:91,1,82.5,2|2,0:0|0:0,0:0:0:0:
294,41,216099,1,8,0:0:0:0:
348,35,216325,1,2,0:0:0:0:
382,77,216552,1,6,0:0:0:0:
475,18,217008,5,8,0:0:0:0:
505,63,217235,1,2,0:2:0:0:
450,67,217462,1,2,0:2:0:0:
483,110,217690,1,2,0:2:0:0:
428,205,218144,2,0,P|387:186|311:163,1,110,2|0,0:2|0:0,0:0:0:0:
270,164,218826,5,8,0:0:0:0:
295,213,219053,1,2,0:2:0:0:
240,209,219280,1,2,0:2:0:0:
265,257,219508,1,2,0:2:0:0:
325,166,219962,2,0,P|366:147|442:124,1,110,2|0,0:2|0:0,0:0:0:0:
419,181,220644,5,8,0:0:0:0:
449,226,220871,1,2,0:2:0:0:
394,230,221098,1,2,0:2:0:0:
427,273,221326,1,2,0:2:0:0:
386,375,221780,2,0,P|345:356|269:333,1,110,2|0,0:2|0:0,0:0:0:0:
238,304,222462,6,0,P|241:283|224:253,1,55,8|0,0:0|0:0,0:0:0:0:
171,241,222917,2,0,P|151:248|133:278,1,55,2|0,0:0|0:0,0:0:0:0:
151,329,223371,2,0,P|167:342|202:342,1,55,2|0,0:0|0:0,0:0:0:0:
238,304,223826,5,2,3:2:0:0:
238,304,223940,1,0,3:2:0:0:
238,304,224053,1,0,3:2:0:0:
280,269,224280,1,8,3:2:0:0:
253,220,224508,1,0,3:0:0:0:
253,220,224621,1,0,3:0:0:0:
253,220,224735,2,0,L|191:228,1,55,2|0,3:2|3:0,3:0:0:0:
143,235,225190,1,8,3:2:0:0:
167,186,225417,1,0,3:0:0:0:
116,193,225644,5,2,3:2:0:0:
116,193,225758,1,0,3:0:0:0:
116,193,225871,1,0,3:0:0:0:
136,141,226099,2,0,P|139:122|121:91,1,55,8|0,3:2|3:0,3:0:0:0:
85,132,226553,1,2,3:2:0:0:
85,132,226667,1,0,3:0:0:0:
85,132,226780,1,0,3:0:0:0:
35,108,227008,1,8,3:2:0:0:
40,162,227235,2,0,L|24:290,1,110,0|0,3:0|3:0,0:0:0:0:
20,329,227917,5,8,3:2:0:0:
20,329,228030,1,0,3:0:0:0:
20,329,228144,1,0,3:0:0:0:
67,301,228371,1,2,3:2:0:0:
67,360,228599,1,0,3:0:0:0:
67,360,228712,1,0,3:0:0:0:
67,360,228826,1,8,3:2:0:0:
114,333,229053,1,0,3:0:0:0:
157,299,229280,6,0,P|180:294|212:307,1,55,2|0,3:2|0:0,0:0:0:0:
256,333,229735,2,0,P|279:338|311:325,1,55,8|0,3:2|3:0,3:0:0:0:
337,281,230190,2,0,P|360:276|392:289,1,55,0|0,3:0|3:0,0:0:0:0:
436,315,230645,2,0,P|459:320|491:307,1,55,8|0,3:2|3:0,0:0:0:0:
510,293,230985,1,0,3:0:0:0:
510,293,231099,1,4,0:0:0:0:
