osu file format v14

[General]
AudioFilename: audio.mp3
AudioLeadIn: 0
PreviewTime: 54394
Countdown: 0
SampleSet: Soft
StackLeniency: 0.4
Mode: 0
LetterboxInBreaks: 0
WidescreenStoryboard: 1

[Editor]
Bookmarks: 3826,25644,40190,54735,83826,98371,112917,127462,156553,171099,183826,184735,185644,186553,186667,186780,186894,187008,187121,187235,187349,187462,216553,231099,245644,252917
DistanceSpacing: 1
BeatDivisor: 2
GridSize: 8
TimelineZoom: 1.8

[Metadata]
Title:agony
TitleUnicode:agony
Artist:KOTOKO
ArtistUnicode:KOTOKO
Creator:Apo11o
Version:Aranel's Easy
Source:神無月の巫女
Tags:jpop pop j-pop 中沢伴行 Tomoyuki Nakazawa Kannazuki no Miko Destiny of Shrine Maiden Japanese Anime ED -kemsyt aranel flux3on bluirre mildly accurate silent rock fluxie ending apollo
BeatmapID:3474673
BeatmapSetID:1697454

[Difficulty]
HPDrainRate:3
CircleSize:6
OverallDifficulty:3
ApproachRate:3
SliderMultiplier:0.64
SliderTickRate:2

[Events]
//Background and Video events
0,0,"Pokejie.jpg",0,0
//Break Periods
2,84026,96931
2,156753,169659
//Storyboard Layer 0 (Background)
//Storyboard Layer 1 (Fail)
//Storyboard Layer 2 (Pass)
//Storyboard Layer 3 (Foreground)
//Storyboard Layer 4 (Overlay)
//Storyboard Sound Samples

[TimingPoints]
190,454.545454545455,4,2,1,60,1,0
18371,-100,4,2,1,63,0,0
20190,-100,4,2,1,66,0,0
22008,-100,4,2,1,69,0,0
23826,-100,4,2,1,45,0,0
24053,-100,4,2,1,55,0,0
24280,-100,4,2,1,65,0,0
24508,-100,4,2,1,75,0,0
24735,-100,4,2,1,85,0,0
24962,-100,4,2,1,70,0,0
25644,-100,4,2,2,60,0,0
36553,-100,4,2,3,40,0,0
37008,-100,4,2,3,60,0,0
37462,-100,4,2,3,40,0,0
37917,-100,4,2,3,60,0,0
54735,-100,4,2,3,70,0,1
62008,-100,4,2,60,70,0,1
62121,-100,4,2,3,70,0,1
62917,-100,4,2,61,70,0,1
63030,-100,4,2,3,70,0,1
63826,-100,4,2,62,70,0,1
63940,-100,4,2,3,70,0,1
64735,-100,4,2,63,70,0,1
64849,-100,4,2,3,70,0,1
65190,-100,4,2,61,70,0,1
65303,-100,4,2,3,70,0,1
65644,-100,4,2,4,70,0,1
65758,-100,4,2,3,70,0,1
76553,-100,4,2,60,70,0,1
76667,-100,4,2,3,70,0,1
77462,-100,4,2,61,70,0,1
77576,-100,4,2,3,70,0,1
78371,-100,4,2,62,70,0,1
78485,-100,4,2,3,70,0,1
79280,-100,4,2,4,70,0,1
79735,-100,4,2,65,70,0,1
80190,-100,4,2,5,70,0,1
80417,-100,4,2,65,70,0,1
80530,-100,4,2,4,70,0,1
82008,-100,4,2,10,70,0,1
82462,-100,4,2,3,60,0,1
83826,-100,4,2,3,60,0,0
98371,-100,4,2,6,60,0,0
109280,-100,4,2,3,40,0,0
109735,-100,4,2,6,60,0,0
110190,-100,4,2,3,40,0,0
110644,-100,4,2,6,60,0,0
111099,-100,4,2,3,60,0,0
127462,-100,4,2,3,70,0,1
134735,-100,4,2,60,70,0,1
134849,-100,4,2,3,70,0,1
135644,-100,4,2,61,70,0,1
135758,-100,4,2,3,70,0,1
136553,-100,4,2,62,70,0,1
136667,-100,4,2,3,70,0,1
137462,-100,4,2,63,70,0,1
137576,-100,4,2,3,70,0,1
137917,-100,4,2,61,70,0,1
138030,-100,4,2,3,70,0,1
138371,-100,4,2,4,70,0,1
138485,-100,4,2,3,70,0,1
149280,-100,4,2,60,70,0,1
149394,-100,4,2,3,70,0,1
150190,-100,4,2,61,70,0,1
150303,-100,4,2,3,70,0,1
151099,-100,4,2,62,70,0,1
151212,-100,4,2,3,70,0,1
152008,-100,4,2,4,70,0,1
152462,-100,4,2,65,70,0,1
152917,-100,4,2,5,70,0,1
153144,-100,4,2,65,70,0,1
153258,-100,4,2,4,70,0,1
154735,-100,4,2,10,70,0,0
155190,-100,4,2,3,60,0,0
156553,-100,4,2,73,60,0,0
156780,-100,4,2,2,60,0,0
162008,-100,4,2,71,60,0,0
163371,-100,4,2,72,60,0,0
163826,-100,4,2,73,60,0,0
165644,-100,4,2,74,60,0,0
166553,-100,4,2,72,60,0,0
167462,-100,4,2,73,60,0,0
171099,-100,4,2,10,60,0,0
178371,-100,4,2,73,60,0,0
179280,-100,4,2,72,60,0,0
180190,-100,4,2,71,60,0,0
181099,-100,4,2,74,60,0,0
181553,-100,4,2,72,60,0,0
182008,-100,4,2,75,60,0,0
183826,-100,4,2,2,60,0,0
187462,-88.8888888888889,4,2,3,70,0,1
194735,-88.8888888888889,4,2,66,70,0,1
194849,-88.8888888888889,4,2,3,70,0,1
195644,-88.8888888888889,4,2,62,70,0,1
195758,-88.8888888888889,4,2,3,70,0,1
196553,-88.8888888888889,4,2,67,70,0,1
196667,-88.8888888888889,4,2,3,70,0,1
197462,-88.8888888888889,4,2,68,70,0,1
197576,-88.8888888888889,4,2,3,70,0,1
197917,-88.8888888888889,4,2,62,70,0,1
198030,-88.8888888888889,4,2,3,70,0,1
198371,-88.8888888888889,4,2,7,70,0,1
198485,-88.8888888888889,4,2,3,70,0,1
209280,-88.8888888888889,4,2,66,70,0,1
209394,-88.8888888888889,4,2,3,70,0,1
210190,-88.8888888888889,4,2,62,70,0,1
210303,-88.8888888888889,4,2,3,70,0,1
211099,-88.8888888888889,4,2,67,70,0,1
211212,-88.8888888888889,4,2,3,70,0,1
212008,-88.8888888888889,4,2,7,70,0,1
212462,-88.8888888888889,4,2,99,70,0,1
212917,-88.8888888888889,4,2,8,70,0,1
213144,-88.8888888888889,4,2,99,70,0,1
213258,-88.8888888888889,4,2,7,70,0,1
214735,-88.8888888888889,4,2,10,70,0,0
215190,-88.8888888888889,4,2,3,60,0,0
216553,-88.8888888888889,4,2,2,60,0,0
217008,-88.8888888888889,4,2,2,60,0,0
223826,-88.8888888888889,4,2,3,60,0,0
229792,-88.8888888888889,4,2,3,40,0,0
230644,-88.8888888888889,4,2,3,60,0,0
231099,-88.8888888888889,4,2,10,60,0,0
231553,-88.8888888888889,4,2,2,60,0,0
245644,-88.8888888888889,4,2,10,60,0,0
245871,-88.8888888888889,4,2,2,60,0,0
247462,-88.8888888888889,4,2,2,50,0,0
249280,-88.8888888888889,4,2,2,40,0,0
251099,-88.8888888888889,4,2,2,30,0,0
252917,-88.8888888888889,4,2,2,20,0,0

[Colours]
Combo1 : 254,56,160
Combo2 : 19,79,168
Combo3 : 253,185,70
Combo4 : 135,125,255

[HitObjects]
128,64,25644,6,0,L|256:64,1,128,6|2,0:0|0:0,0:0:0:0:
384,64,27462,1,2,0:0:0:0:
384,192,28371,1,2,0:0:0:0:
384,256,28826,1,8,0:0:0:0:
384,320,29280,6,0,L|256:320,1,128,6|2,0:0|0:0,0:0:0:0:
128,320,31099,1,2,0:0:0:0:
128,192,32008,1,2,0:0:0:0:
192,192,32462,1,8,0:0:0:0:
256,192,32917,6,0,L|256:64,1,128,6|2,0:0|0:0,0:0:0:0:
128,64,34735,1,2,0:0:0:0:
128,192,35644,1,2,0:0:0:0:
192,192,36099,1,8,0:0:0:0:
256,192,36553,5,0,3:0:0:0:
384,192,37462,1,0,3:0:0:0:
384,64,38371,1,6,3:2:0:0:
256,64,39280,1,6,3:2:0:0:
192,64,39735,1,12,0:0:0:0:
128,64,40190,6,0,B|128:320,1,256,6|2,3:2|3:2,0:0:0:0:
256,320,42917,1,0,3:2:0:0:
384,320,43826,2,0,L|384:256,1,64,6|8,3:2|0:0,0:0:0:0:
384,192,44735,1,6,3:2:0:0:
256,192,45644,2,0,L|256:128,1,64,6|8,3:2|0:0,0:0:0:0:
256,64,46553,2,0,L|320:64,1,64,6|8,3:2|0:0,0:0:0:0:
384,64,47462,6,0,B|384:320,1,256,6|2,3:2|3:2,0:0:0:0:
256,320,50189,1,0,3:2:0:0:
128,320,51098,2,0,L|128:256,1,64,6|0,3:2|0:0,0:0:0:0:
128,192,52008,2,0,L|224:192,1,96,2|6,3:2|3:2,0:0:0:0:
288,192,53144,2,0,L|384:192,1,96,6|2,3:2|3:2,0:0:0:0:
256,64,54735,5,6,3:2:0:0:
192,64,55190,1,8,0:0:0:0:
128,64,55644,2,0,L|128:160,1,64,0|8,3:2|0:0,0:0:0:0:
128,192,56553,1,2,3:2:0:0:
256,192,57462,5,2,3:2:0:0:
320,192,57917,1,8,0:0:0:0:
384,192,58371,1,2,3:2:0:0:
384,320,59280,5,2,3:2:0:0:
320,320,59735,1,8,0:0:0:0:
256,320,60190,2,0,L|256:192,1,128,2|2,3:2|3:2,0:0:0:0:
256,128,61553,1,8,0:0:0:0:
256,64,62008,6,0,L|352:64,1,64,6|8,3:2|0:0,0:0:0:0:
384,64,62917,2,0,L|384:160,1,64,2|8,3:2|0:0,0:0:0:0:
384,192,63826,2,0,L|288:192,1,64,2|8,3:2|0:0,0:0:0:0:
256,192,64735,2,0,L|160:192,1,64,2|8,3:2|3:2,0:0:0:0:
128,192,65644,6,0,L|128:320,2,128,6|6|2,3:2|3:2|3:2,0:0:0:0:
256,192,68371,2,0,L|256:256,1,64,0|8,3:2|3:2,0:0:0:0:
256,320,69280,5,6,0:0:0:0:
320,320,69735,1,8,0:0:0:0:
384,320,70189,2,0,L|384:256,1,64,0|8,3:2|0:0,0:0:0:0:
384,192,71099,1,2,3:2:0:0:
256,192,72007,5,2,3:2:0:0:
192,192,72462,1,8,0:0:0:0:
128,192,72916,1,6,3:2:0:0:
128,64,73825,5,2,3:2:0:0:
192,64,74280,1,8,0:0:0:0:
256,64,74735,2,0,L|256:192,1,128,2|2,3:2|3:2,0:0:0:0:
256,256,76098,1,8,0:0:0:0:
256,320,76553,6,0,L|160:320,1,64,6|8,3:2|0:0,0:0:0:0:
128,320,77462,2,0,L|128:224,1,64,2|8,3:2|0:0,0:0:0:0:
128,192,78371,2,0,L|224:192,1,64,2|8,3:2|0:0,0:0:0:0:
256,192,79280,2,0,L|352:192,1,64,2|8,3:2|3:2,0:0:0:0:
384,192,80189,6,0,B|384:64|384:64|256:64,1,256,6|4,3:2|0:0,0:0:0:0:
256,320,83826,1,6,3:2:0:0:
384,320,98371,6,0,L|256:320,1,128,6|2,0:0|0:0,0:0:0:0:
128,320,100189,1,2,0:0:0:0:
128,192,101098,1,2,0:0:0:0:
128,128,101553,1,8,0:0:0:0:
128,64,102007,6,0,L|256:64,1,128,2|2,0:0|0:0,0:0:0:0:
384,64,103826,1,2,0:0:0:0:
384,192,104735,1,2,0:0:0:0:
320,192,105189,1,8,0:0:0:0:
256,192,105644,6,0,L|256:320,1,128,6|2,0:0|0:0,0:0:0:0:
384,320,107462,1,2,0:0:0:0:
384,192,108371,1,2,0:0:0:0:
320,192,108826,1,8,0:0:0:0:
256,192,109280,5,0,3:0:0:0:
128,192,110189,1,0,3:0:0:0:
128,320,111098,1,6,3:2:0:0:
256,320,112007,1,6,3:2:0:0:
320,320,112462,1,12,0:0:0:0:
384,320,112917,6,0,B|384:64,1,256,6|2,3:2|3:2,0:0:0:0:
256,64,115644,1,0,3:2:0:0:
128,64,116553,2,0,L|128:128,1,64,6|8,3:2|0:0,0:0:0:0:
128,192,117462,1,6,3:2:0:0:
256,192,118371,2,0,L|256:256,1,64,6|8,3:2|0:0,0:0:0:0:
256,320,119280,2,0,L|192:320,1,64,6|8,3:2|0:0,0:0:0:0:
128,320,120189,6,0,B|128:64,1,256,6|2,3:2|3:2,0:0:0:0:
256,64,122916,1,0,0:0:0:0:
384,64,123825,2,0,L|384:128,1,64,6|8,3:2|0:0,0:0:0:0:
384,192,124735,2,0,L|288:192,1,96,2|6,3:2|3:2,0:0:0:0:
224,192,125871,2,0,L|128:192,1,96,6|2,3:2|3:2,0:0:0:0:
256,320,127462,5,6,3:2:0:0:
320,320,127917,1,8,0:0:0:0:
384,320,128371,2,0,L|384:224,1,64,0|8,3:2|0:0,0:0:0:0:
384,192,129280,1,2,3:2:0:0:
256,192,130189,5,2,3:2:0:0:
192,192,130644,1,8,0:0:0:0:
128,192,131098,1,2,3:2:0:0:
128,64,132007,5,2,3:2:0:0:
192,64,132462,1,8,0:0:0:0:
256,64,132917,2,0,L|256:192,1,128,2|2,3:2|3:2,0:0:0:0:
256,256,134280,1,8,0:0:0:0:
256,320,134735,6,0,L|160:320,1,64,6|8,3:2|0:0,0:0:0:0:
128,320,135644,2,0,L|128:224,1,64,2|8,3:2|0:0,0:0:0:0:
128,192,136553,2,0,L|224:192,1,64,2|8,3:2|0:0,0:0:0:0:
256,192,137462,2,0,L|352:192,1,64,2|8,3:2|3:2,0:0:0:0:
384,192,138371,6,0,L|384:64,2,128,6|6|2,3:2|3:2|3:2,0:0:0:0:
256,192,141098,2,0,L|256:128,1,64,0|8,3:2|3:2,0:0:0:0:
256,64,142007,5,6,3:2:0:0:
192,64,142462,1,8,0:0:0:0:
128,64,142916,2,0,L|128:128,1,64,0|8,3:2|0:0,0:0:0:0:
128,192,143826,1,2,3:2:0:0:
256,192,144734,5,2,3:2:0:0:
320,192,145189,1,8,0:0:0:0:
384,192,145643,1,2,3:2:0:0:
384,320,146552,5,2,3:2:0:0:
320,320,147007,1,8,0:0:0:0:
256,320,147462,2,0,L|256:192,1,128,2|2,3:2|3:2,0:0:0:0:
256,128,148825,1,8,0:0:0:0:
256,64,149280,6,0,L|352:64,1,64,6|8,3:2|0:0,0:0:0:0:
384,64,150189,2,0,L|384:160,1,64,2|8,3:2|0:0,0:0:0:0:
384,192,151098,2,0,L|288:192,1,64,2|8,3:2|0:0,0:0:0:0:
256,192,152007,2,0,L|160:192,1,64,2|8,3:2|3:2,0:0:0:0:
128,192,152916,6,0,B|128:320|128:320|256:320,1,256,6|4,3:2|0:0,0:0:0:0:
256,64,156553,1,2,3:2:0:0:
128,192,171099,6,0,B|128:64|128:64|256:64|256:64,1,256,4|0,0:0|0:0,0:0:0:0:
256,320,174735,2,0,B|384:320|384:320|384:192,1,256
128,192,178371,6,0,B|128:64|128:64|256:64,1,256,2|2,0:0|0:0,0:0:0:0:
256,192,181099,1,2,0:0:0:0:
256,320,182008,2,0,B|384:320|384:320|384:192,1,256,6|6,0:0|0:0,0:0:0:0:
384,128,184280,2,0,L|384:64,1,64,0|0,3:2|3:2,0:0:0:0:
128,64,185644,2,0,L|128:128,1,64,0|0,3:2|3:2,0:0:0:0:
128,192,186553,1,0,3:2:0:0:
256,192,187462,5,6,3:2:0:0:
256,264,187917,1,8,0:0:0:0:
256,336,188371,2,0,L|184:336,1,72.0000027465821,0|8,3:2|0:0,0:0:0:0:
112,336,189280,1,2,3:2:0:0:
112,192,190189,5,2,3:2:0:0:
112,120,190644,1,8,0:0:0:0:
112,48,191098,1,2,3:2:0:0:
256,48,192008,1,2,3:2:0:0:
328,48,192462,1,8,0:0:0:0:
400,48,192917,2,0,L|400:192,1,144.000005493164,2|2,3:2|3:2,0:0:0:0:
400,264,194280,1,8,0:0:0:0:
400,336,194735,6,0,L|328:336,1,72.0000027465821,6|8,3:2|0:0,0:0:0:0:
256,336,195644,2,0,L|256:250,1,72.0000027465821,2|8,3:2|0:0,0:0:0:0:
256,192,196553,2,0,L|327:192,1,72.0000027465821,2|8,3:2|0:0,0:0:0:0:
400,192,197462,2,0,L|400:291,1,72.0000027465821,2|8,3:2|3:2,0:0:0:0:
400,336,198371,6,0,B|472:336|472:336|472:256,2,144.000005493164,6|6|6,3:2|3:2|3:2,0:0:0:0:
256,336,201099,2,0,L|256:256,1,72.0000027465821,0|8,3:2|3:2,0:0:0:0:
256,192,202008,5,6,3:2:0:0:
256,120,202463,1,8,0:0:0:0:
256,48,202917,2,0,L|327:48,1,72.0000027465821,0|8,3:2|0:0,0:0:0:0:
400,48,203826,1,2,3:2:0:0:
400,192,204735,5,2,3:2:0:0:
400,264,205190,1,8,0:0:0:0:
400,336,205644,1,2,3:2:0:0:
256,336,206554,1,2,3:2:0:0:
184,336,207008,1,8,0:0:0:0:
112,336,207463,2,0,L|112:184,1,144.000005493164,2|2,3:2|3:2,0:0:0:0:
112,120,208826,1,8,0:0:0:0:
112,48,209281,6,0,L|197:48,1,72.0000027465821,6|8,3:2|0:0,0:0:0:0:
256,48,210190,2,0,L|256:119,1,72.0000027465821,2|8,3:2|0:0,0:0:0:0:
256,192,211099,2,0,L|184:192,1,72.0000027465821,2|8,3:2|0:0,0:0:0:0:
112,192,212008,2,0,L|112:92,1,72.0000027465821,2|8,3:2|3:2,0:0:0:0:
112,48,212917,6,0,B|40:48|40:48|40:144,2,144.000005493164,6|0|4,3:2|0:0|0:0,0:0:0:0:
255,192,216553,5,6,0:0:0:0:
256,192,217008,12,0,220190,0:0:0:0:
