osu file format v14

[General]
AudioFilename: audio.mp3
AudioLeadIn: 0
PreviewTime: 61067
Countdown: 0
SampleSet: Soft
StackLeniency: 0.7
Mode: 0
LetterboxInBreaks: 0
WidescreenStoryboard: 1

[Editor]
Bookmarks: 7775,18442,29442,39775,50442,55942,56025,56108,61108,93108,114775,125108,135775,146442,178442,189108,199775,210442,218442,221108
DistanceSpacing: 1.1
BeatDivisor: 4
GridSize: 32
TimelineZoom: 1.7

[Metadata]
Title:U
TitleUnicode:U
Artist:KOTOKO
ArtistUnicode:KOTOKO
Creator:Lasse
Version:Insane
Source:マテリアルブレイブ イグニッション
Tags:you Material Brave Ignition japanese rock full version visual novel eroge
BeatmapID:2976155
BeatmapSetID:1440106

[Difficulty]
HPDrainRate:6
CircleSize:4
OverallDifficulty:7.8
ApproachRate:8.7
SliderMultiplier:1.6
SliderTickRate:1

[Events]
//Background and Video events
0,0,"cg.jpg",0,0
//Break Periods
2,210635,215123
//Storyboard Layer 0 (Background)
//Storyboard Layer 1 (Fail)
//Storyboard Layer 2 (Pass)
//Storyboard Layer 3 (Foreground)
//Storyboard Layer 4 (Overlay)
//Storyboard Sound Samples

[TimingPoints]
1102,333.333333333333,4,2,1,70,1,0
7268,-80,4,2,1,70,0,0
7435,-100,4,2,1,60,0,0
7768,-100,4,2,1,70,0,0
18435,-133.333333333333,4,2,1,60,0,0
18768,-133.333333333333,4,2,1,50,0,0
28268,-133.333333333333,4,2,1,55,0,0
29435,-111.111111111111,4,2,1,60,0,0
39768,-133.333333333333,4,2,1,55,0,0
49601,-133.333333333333,4,2,1,60,0,0
50435,-111.111111111111,4,2,1,65,0,0
55768,-100,4,2,1,70,0,0
58685,-100,4,2,1,35,0,0
58768,-100,4,2,1,70,0,0
60601,-100,4,2,1,60,0,0
61101,-90.9090909090909,4,1,1,70,0,0
82351,-90.9090909090909,4,1,1,35,0,0
82435,-90.9090909090909,4,1,1,70,0,0
92601,-90.9090909090909,4,1,1,65,0,0
93101,-100,4,2,1,70,0,0
103768,-133.333333333333,4,2,1,60,0,0
105768,-133.333333333333,4,2,1,45,0,0
109101,-133.333333333333,4,2,1,50,0,0
111268,-111.111111111111,4,2,1,55,0,0
114435,-111.111111111111,4,2,1,60,0,0
125101,-111.111111111111,4,2,1,60,0,0
135768,-111.111111111111,4,2,1,65,0,0
141101,-99.9999999999999,4,2,1,70,0,0
144018,-99.9999999999999,4,2,1,35,0,0
144101,-99.9999999999999,4,2,1,70,0,0
145935,-99.9999999999999,4,2,1,60,0,0
146435,-90.9090909090909,4,1,1,70,0,0
167685,-90.9090909090909,4,1,1,35,0,0
167768,-90.9090909090909,4,1,1,70,0,0
178435,-125,4,2,1,60,0,0
182268,-100,4,2,1,60,0,0
183768,-125,4,2,1,60,0,0
187601,-111.111111111111,4,2,1,65,0,0
189101,-90.9090909090909,4,2,1,70,0,0
196935,-71.4285714285714,4,2,1,70,0,0
197268,-90.9090909090909,4,2,1,70,0,0
198268,-71.4285714285714,4,2,1,70,0,0
198518,-71.4285714285714,4,2,1,35,0,0
198601,-90.9090909090909,4,2,1,70,0,0
202268,-76.9230769230769,4,2,1,70,0,0
202601,-90.9090909090909,4,2,1,70,0,0
203601,-76.9230769230769,4,2,1,70,0,0
203851,-76.9230769230769,4,2,1,35,0,0
203935,-76.9230769230769,4,2,1,70,0,0
204935,-71.4285714285714,4,2,1,70,0,0
207601,-66.6666666666667,4,2,1,70,0,0
208935,-66.6666666666667,4,2,1,75,0,0
210435,-66.6666666666667,4,2,1,60,0,0
215268,-166.666666666667,4,2,1,40,0,0
215768,-166.666666666667,4,2,1,45,0,0
216935,-153.846153846154,4,2,1,50,0,0
218435,-100,4,2,1,55,0,0
219685,-100,4,2,1,60,0,0
220601,-100,4,2,1,65,0,0
221101,-83.3333333333333,4,1,1,75,0,0
241935,-83.3333333333333,4,1,1,70,0,0
242435,-99.9999999999999,4,2,1,65,0,0
246601,-99.9999999999999,4,2,1,60,0,0
247101,-99.9999999999999,4,2,1,65,0,0
247435,-99.9999999999999,4,2,1,70,0,0
247768,-76.9230769230769,4,1,1,75,0,1
250435,-71.4285714285714,4,1,1,80,0,1
253018,-83.3333333333333,4,1,1,70,0,0

[Colours]
Combo1 : 250,180,240
Combo2 : 120,200,230
Combo3 : 255,230,130
Combo4 : 160,230,150

[HitObjects]
0,42,7268,5,10,3:2:0:0:
63,131,7435,1,8,3:2:0:0:
63,131,7518,1,0,3:2:0:0:
63,131,7601,1,0,3:2:0:0:
63,131,7685,1,0,3:2:0:0:
63,131,7768,2,0,P|136:112|230:108,1,160,6|8,1:1|0:2,0:1:0:0:
296,152,8268,2,0,P|301:108|296:67,1,80,2|0,0:1|1:2,0:2:0:0:
147,68,8601,2,2,P|141:111|147:153,1,80,2|8,1:1|0:2,0:2:0:0:
225,16,8935,5,2,1:1:0:0:
225,16,9268,1,2,1:1:0:0:
297,72,9435,1,8,0:2:0:0:
374,24,9601,2,0,P|420:25|458:134,1,160,2|0,0:1|1:2,0:2:0:0:
347,221,10101,5,8,3:2:0:0:
347,221,10185,1,0,3:2:0:0:
347,221,10268,1,0,3:2:0:0:
347,221,10351,1,0,3:2:0:0:
347,221,10435,2,0,P|406:211|506:209,1,160,2|8,1:1|0:2,0:2:0:0:
400,293,10935,2,0,P|433:292|482:285,1,80,2|0,0:1|1:2,0:2:0:0:
300,361,11268,2,0,P|339:366|379:368,1,80,2|8,1:1|0:2,0:2:0:0:
255,287,11601,5,2,1:1:0:0:
255,287,11935,1,2,1:1:0:0:
180,358,12101,1,8,0:2:0:0:
109,280,12268,2,0,P|114:218|149:122,1,160,2|0,0:1|1:2,0:2:0:0:
262,47,12768,5,8,3:2:0:0:
262,47,12851,1,0,3:2:0:0:
262,47,12935,1,0,3:2:0:0:
262,47,13018,1,0,3:2:0:0:
262,47,13101,2,0,P|341:47|426:14,2,160,6|8|0,1:2|0:2|1:2,0:2:0:0:
215,173,13935,2,0,P|203:122|189:84,1,80,0|8,1:2|0:2,0:2:0:0:
34,42,14268,6,0,P|109:15|188:15,1,160,2|0,1:2|1:2,0:2:0:0:
263,47,14768,1,10,0:2:0:0:
129,193,15101,1,2,1:2:0:0:
215,173,15268,1,0,1:2:0:0:
249,253,15435,1,10,0:2:0:0:
163,273,15601,2,0,P|148:319|147:365,1,80,2|0,1:1|1:2,0:0:0:0:
348,379,15935,5,2,0:2:0:0:
276,343,16101,1,10,0:1:0:0:
343,298,16268,1,0,0:2:0:0:
263,244,16435,5,2,1:1:0:0:
351,206,16601,1,0,1:2:0:0:
275,149,16768,1,10,0:1:0:0:
354,80,16935,5,8,3:3:0:0:
354,80,17018,1,8,3:3:0:0:
354,80,17101,2,2,P|398:83|445:66,1,80,2|0,1:2|0:2,0:1:0:0:
271,10,17435,2,2,P|195:25|168:97,1,160,10|0,0:2|0:2,0:1:0:0:
81,176,17935,5,8,3:3:0:0:
194,251,18101,1,8,3:2:0:0:
105,333,18268,1,8,3:2:0:0:
112,254,18435,1,4,1:1:0:0:
260,364,18768,6,0,P|287:363|322:359,1,60.0000022888184,10|0,0:2|0:2,0:2:0:0:
429,384,19101,2,0,P|423:338|424:256,1,120.000004577637,0|8,1:2|0:2,0:0:0:0:
505,187,19601,2,0,P|511:233|510:315,1,120.000004577637,2|0,0:2|0:2,0:2:0:0:
420,181,20101,1,8,0:2:0:0:
420,181,20268,2,0,P|385:176|355:176,1,60.0000022888184,2|0,0:2|1:2,0:2:0:0:
298,222,20601,2,0,P|263:217|233:217,1,60.0000022888184,2|8,1:2|0:2,0:2:0:0:
176,263,20935,2,0,P|141:258|111:258,1,60.0000022888184,2|0,0:2|1:2,0:2:0:0:
116,257,21435,6,0,L|123:181,1,60.0000022888184,10|0,0:2|0:2,0:2:0:0:
59,142,21768,2,0,P|103:148|176:112,1,120.000004577637,0|8,1:2|0:2,0:0:0:0:
296,47,22268,2,0,P|252:53|179:17,1,120.000004577637,2|0,0:2|0:2,0:2:0:0:
257,141,22768,1,8,0:2:0:0:
257,141,22935,2,0,P|264:175|265:212,1,60.0000022888184,2|0,0:2|1:2,0:2:0:0:
216,264,23268,2,0,P|191:280|168:300,1,60.0000022888184,2|8,1:2|0:2,0:2:0:0:
295,274,23601,1,2,1:2:0:0:
295,274,23768,2,0,P|321:287|416:288,1,120.000004577637,0|8,1:2|0:2,0:2:0:0:
411,289,24435,6,0,P|424:263|425:168,1,120.000004577637,2|8,1:2|0:2,0:2:0:0:
512,108,24935,2,0,P|482:106|452:99,1,60.0000022888184,2|0,0:2|1:2,0:2:0:0:
377,114,25268,2,0,P|347:112|317:105,1,60.0000022888184,2|8,0:2|0:2,0:2:0:0:
236,40,25601,2,0,P|265:38|295:31,1,60.0000022888184,2|0,2:2|1:2,0:2:0:0:
187,138,25935,2,0,P|216:144|246:146,1,60.0000022888184,2|8,1:2|0:2,0:2:0:0:
144,62,26268,1,2,1:2:0:0:
144,62,26435,2,0,P|94:48|20:61,1,120.000004577637,0|8,1:2|0:2,0:2:0:0:
106,162,26935,5,2,0:2:0:0:
106,162,27101,2,0,P|67:207|51:265,1,120.000004577637,0|8,1:2|0:2,0:2:0:0:
106,365,27601,1,2,0:2:0:0:
184,357,27768,2,0,P|222:311|238:253,1,120.000004577637,0|8,1:2|0:2,0:2:0:0:
216,158,28268,5,8,3:3:0:0:
216,158,28351,1,8,3:2:0:0:
216,158,28435,1,8,3:2:0:0:
106,162,28601,1,8,3:3:0:0:
102,52,28768,1,4,3:3:0:0:
212,48,28935,1,8,3:2:0:0:
212,48,29018,1,8,3:2:0:0:
212,48,29101,1,4,1:2:0:0:
314,209,29435,6,0,P|317:169|324:132,1,71.9999978027344,10|0,0:2|0:2,0:0:0:0:
398,109,29768,1,0,1:1:0:0:
468,209,29935,2,0,P|465:249|458:286,1,71.9999978027344,2|0,0:2|0:2,0:2:0:0:
363,350,30268,5,2,1:1:0:0:
363,350,30435,2,0,P|307:340|230:387,1,143.999995605469,0|8,1:1|0:2,0:1:0:0:
135,302,30935,2,0,P|170:298|205:290,1,71.9999978027344,2|0,0:1|1:2,0:2:0:0:
96,190,31268,2,0,P|131:193|166:201,1,71.9999978027344,2|8,1:1|0:2,0:2:0:0:
49,266,31601,1,2,1:1:0:0:
49,266,31685,1,0,1:2:0:0:
49,266,31768,1,0,1:2:0:0:
240,151,32101,6,0,P|236:110|222:74,1,71.9999978027344,10|0,0:2|0:2,0:2:0:0:
261,12,32435,1,0,1:2:0:0:
341,143,32601,2,0,P|337:183|323:220,1,71.9999978027344,2|8,0:2|0:2,0:2:0:0:
401,329,32935,5,2,1:1:0:0:
401,329,33101,2,0,P|459:335|502:261,1,143.999995605469,0|8,1:1|0:2,0:2:0:0:
424,188,33601,2,0,P|462:181|503:178,1,71.9999978027344,2|0,0:1|1:2,0:2:0:0:
341,143,33935,2,0,P|305:139|269:133,1,71.9999978027344,2|8,1:1|0:2,0:2:0:0:
208,68,34268,1,2,1:2:0:0:
219,202,34435,1,6,1:2:0:0:
27,52,34768,6,0,P|18:84|12:150,1,71.9999978027344,10|0,0:2|0:2,0:2:0:0:
78,164,35101,1,0,1:2:0:0:
219,202,35268,2,0,P|228:234|234:300,1,71.9999978027344,2|8,0:2|0:2,0:2:0:0:
218,369,35601,5,2,1:1:0:0:
218,369,35685,1,0,1:2:0:0:
218,369,35768,1,0,1:2:0:0:
158,301,35935,1,0,1:2:0:0:
290,332,36101,1,8,0:2:0:0:
347,281,36268,2,0,P|347:233|339:180,1,71.9999978027344,2|0,0:1|1:2,0:2:0:0:
296,125,36601,2,0,P|344:125|397:117,1,71.9999978027344,2|8,1:1|0:2,0:2:0:0:
426,57,36935,5,2,0:2:0:0:
488,196,37101,2,0,P|497:255|475:357,1,143.999995605469,6|8,1:2|0:2,0:1:0:0:
388,384,37601,2,0,L|382:309,1,71.9999978027344,2|0,0:1|1:2,0:2:0:0:
246,256,37935,2,0,L|240:327,1,71.9999978027344,2|8,1:1|0:2,0:2:0:0:
327,186,38268,6,2,P|365:178|410:175,1,71.9999978027344,6|0,0:2|0:2,0:1:0:0:
232,113,38601,2,2,P|194:105|149:102,1,71.9999978027344,2|8,1:2|0:2,0:1:0:0:
307,14,38935,1,2,0:2:0:0:
378,47,39101,2,2,P|413:43|449:36,1,71.9999978027344,8|0,0:2|1:2,0:1:0:0:
436,178,39435,5,8,0:2:0:0:
457,179,39518,1,8,0:2:0:0:
476,187,39601,1,8,0:2:0:0:
491,201,39685,1,8,0:2:0:0:
502,219,39768,2,0,B|506:282|462:302|462:302|430:286,1,120.000004577637,6|0,1:2|0:2,0:2:0:0:
443,292,40268,1,0,1:2:0:0:
376,381,40435,2,0,P|372:335|348:259,1,120.000004577637,10|0,0:2|0:2,0:2:0:0:
252,211,40935,2,0,P|285:206|314:189,1,60.0000022888184,2|0,0:1|1:2,0:2:0:0:
394,134,41268,2,0,P|361:129|332:112,1,60.0000022888184,10|0,2:1|1:2,0:2:0:0:
337,116,41768,6,0,P|330:63|299:3,1,120.000004577637,10|8,0:2|0:2,0:2:0:0:
251,98,42268,1,8,0:2:0:0:
188,55,42435,2,0,P|132:36|69:34,1,120.000004577637,2|0,1:2|0:2,0:2:0:0:
71,33,42935,1,0,1:2:0:0:
148,125,43101,2,0,P|88:127|31:146,1,120.000004577637,8|0,0:2|0:2,0:2:0:0:
120,210,43601,2,0,P|111:226|97:275,1,60.0000022888184,2|0,0:1|1:2,0:2:0:0:
162,331,43935,2,0,P|193:321|224:318,1,60.0000022888184,2|0,0:1|1:2,0:2:0:0:
220,318,44435,6,0,P|261:341|337:324,1,120.000004577637,8|8,0:2|0:2,0:2:0:0:
423,380,44935,1,8,0:2:0:0:
483,327,45101,2,0,P|492:270|455:202,1,120.000004577637,6|0,1:2|0:2,0:2:0:0:
505,148,45601,1,0,1:2:0:0:
451,92,45768,2,0,P|403:88|347:47,1,120.000004577637,10|0,0:2|0:2,0:2:0:0:
267,98,46268,5,2,0:2:0:0:
229,29,46435,1,0,1:2:0:0:
189,94,46601,1,8,0:2:0:0:
265,116,46768,2,0,P|281:151|287:192,1,60.0000022888184,0|2,1:2|0:2,0:0:0:0:
242,238,47101,2,0,P|188:247|103:217,1,120.000004577637,8|8,0:2|0:2,0:2:0:0:
50,268,47601,5,8,0:2:0:0:
8,162,47768,2,0,P|11:120|64:47,1,120.000004577637,2|0,1:2|0:2,0:2:0:0:
121,17,48268,2,2,P|131:51|151:79,1,60.0000022888184,2|8,1:2|0:2,0:1:0:0:
213,133,48601,2,2,P|223:99|243:71,1,60.0000022888184,2|0,0:2|0:2,0:1:0:0:
332,25,48935,2,2,P|369:19|412:-5,1,60.0000022888184,6|0,1:2|0:2,0:1:0:0:
455,119,49268,2,2,P|492:125|535:149,1,60.0000022888184,2|8,1:2|0:2,0:1:0:0:
459,241,49601,5,8,0:2:0:0:
459,241,49685,1,8,0:2:0:0:
459,241,49768,2,0,P|470:281|471:316,1,60.0000022888184,8|8,0:3|0:2,0:0:0:0:
392,361,50101,1,8,0:3:0:0:
371,351,50185,1,8,0:3:0:0:
350,343,50268,1,4,0:3:0:0:
328,338,50351,1,4,0:3:0:0:
306,335,50435,6,0,P|230:368|151:347,1,143.999995605469,6|8,1:1|0:2,0:2:0:0:
290,247,50935,2,0,P|219:238|155:270,1,143.999995605469,2|0,0:2|1:2,0:2:0:0:
101,326,51435,1,10,0:2:0:0:
101,326,51601,1,0,1:2:0:0:
9,250,51768,2,0,P|-1:178|21:111,1,143.999995605469,2|8,0:1|0:2,0:2:0:0:
20,111,52268,1,0,0:2:0:0:
141,79,52435,6,0,L|125:3,1,71.9999978027344,2|0,1:2|1:2,0:2:0:0:
252,103,52768,2,0,L|236:27,1,71.9999978027344,10|0,0:2|0:2,0:2:0:0:
178,167,53101,2,0,P|161:215|173:310,1,143.999995605469,2|8,1:1|0:2,0:2:0:0:
318,331,53601,2,0,P|335:283|323:188,1,143.999995605469,2|0,0:2|1:2,0:2:0:0:
252,103,54101,5,10,0:2:0:0:
313,43,54268,2,0,P|357:37|397:36,1,71.9999978027344,2|0,1:1|0:2,0:2:0:0:
441,129,54601,2,0,P|476:127|512:121,1,71.9999978027344,2|8,1:1|0:2,0:2:0:0:
406,250,54935,2,0,P|441:244|477:242,1,71.9999978027344,2|0,3:1|3:2,0:0:0:0:
343,163,55268,5,2,1:2:0:0:
315,288,55435,1,8,0:2:0:0:
190,260,55601,1,8,0:2:0:0:
162,179,55768,6,0,P|172:129|74:75,1,160,6|8,1:1|0:2,0:2:0:0:
0,160,56268,2,0,L|6:240,1,80,2|0,0:1|1:2,0:2:0:0:
97,298,56601,2,0,L|103:378,1,80,2|8,1:1|0:2,0:2:0:0:
212,293,56935,2,0,B|305:296|264:247|364:242,1,160,2|0,1:1|1:2,0:2:0:0:
458,298,57435,1,8,0:2:0:0:
371,87,57768,5,2,1:2:0:0:
371,87,57935,1,0,1:2:0:0:
442,124,58101,1,10,0:2:0:0:
368,7,58268,1,8,0:2:0:0:
304,130,58435,2,2,P|243:148|184:121,1,120,2|0,1:1|0:2,0:1:0:0:
175,114,58768,2,0,P|172:67|146:18,1,80,12|0,0:2|0:2,0:2:0:0:
89,0,59101,5,2,1:2:0:0:
14,111,59268,2,2,P|17:158|43:207,1,80,12|0,0:2|0:2,0:1:0:0:
178,248,59601,6,0,P|228:227|345:217,1,160,6|0,1:1|1:2,0:2:0:0:
383,308,60101,2,0,P|409:314|466:344,1,80,8|0,0:2|0:2,0:2:0:0:
456,337,60351,1,8,0:2:0:0:
456,337,60435,1,8,0:2:0:0:
508,240,60601,5,8,3:3:0:0:
505,220,60685,1,8,3:3:0:0:
503,200,60768,1,4,3:3:0:0:
500,180,60851,1,4,3:3:0:0:
498,160,60935,1,8,3:3:0:0:
495,140,61018,1,8,3:3:0:0:
492,120,61101,2,0,P|452:67|331:63,1,176.000005371094,6|10,1:1|0:2,0:2:0:0:
263,86,61601,5,2,0:1:0:0:
263,86,61935,1,2,1:2:0:0:
367,136,62101,1,8,0:2:0:0:
265,206,62268,2,0,P|246:276|243:387,1,176.000005371094,2|2,0:1|0:2,0:2:0:0:
328,276,62768,1,8,0:2:0:0:
156,262,62935,2,2,P|134:176|133:89,1,176.000005371094,2|0,0:1|0:2,0:1:0:0:
172,22,63435,1,8,0:2:0:0:
212,89,63601,5,2,0:2:0:0:
347,87,63768,2,0,P|347:51|343:-4,1,88.000002685547,2|0,0:1|0:2,0:2:0:0:
279,155,64101,2,0,P|279:191|283:246,1,88.000002685547,10|0,0:2|0:2,0:2:0:0:
414,306,64435,1,2,0:2:0:0:
500,273,64601,2,0,P|503:316|503:360,1,88.000002685547,2|0,0:1|0:2,0:2:0:0:
359,226,64935,5,2,0:2:0:0:
276,270,65101,2,0,P|213:282|107:248,2,176.000005371094,2|10|0,0:1|0:2|0:2,0:0:0:0:
359,226,65935,1,0,0:2:0:0:
315,143,66101,1,8,2:2:0:0:
309,121,66185,1,0,2:2:0:0:
306,99,66268,1,0,2:2:0:0:
308,78,66351,1,0,2:2:0:0:
313,56,66435,1,4,1:2:0:0:
131,4,66768,5,10,0:2:0:0:
115,90,66935,1,0,0:2:0:0:
49,34,67101,1,2,0:2:0:0:
197,60,67268,2,0,P|205:120|203:154,1,88.000002685547,2|0,0:1|0:2,0:2:0:0:
26,181,67601,6,0,P|14:235|14:371,1,176.000005371094,2|0,0:1|0:2,0:2:0:0:
124,384,68101,2,0,L|133:276,1,88.000002685547,10|0,0:1|0:2,0:2:0:0:
316,240,68435,2,0,L|323:327,1,88.000002685547,2|0,0:1|0:2,0:2:0:0:
389,375,68768,1,2,0:2:0:0:
495,296,68935,2,0,P|496:208|480:121,1,176.000005371094,2|0,0:1|0:2,0:1:0:0:
512,40,69435,1,8,0:2:0:0:
512,40,69601,1,0,0:2:0:0:
396,134,69768,6,0,B|298:133|345:85|228:79,1,176.000005371094,2|0,0:2|0:2,0:2:0:0:
76,237,70268,2,2,B|174:236|127:188|244:182,1,176.000005371094,6|8,0:2|3:2,0:1:0:0:
387,233,70768,5,8,3:3:0:0:
271,307,70935,1,8,3:3:0:0:
355,378,71101,1,4,3:3:0:0:
431,309,71268,5,8,3:2:0:0:
425,280,71351,1,8,3:2:0:0:
422,251,71435,1,8,3:2:0:0:
422,221,71518,1,8,3:2:0:0:
424,192,71601,1,8,3:2:0:0:
429,163,71685,1,8,3:2:0:0:
437,135,71768,2,0,B|477:101|477:101|477:22|405:2,1,176.000005371094,6|10,0:1|0:2,0:2:0:0:
309,60,72268,5,2,0:1:0:0:
309,60,72601,1,2,0:2:0:0:
237,125,72768,1,8,0:2:0:0:
167,56,72935,2,0,P|116:42|33:121,1,176.000005371094,0|2,0:1|0:2,0:2:0:0:
79,203,73435,1,8,0:2:0:0:
237,125,73601,2,2,P|288:111|371:190,1,176.000005371094,2|0,0:1|0:2,0:1:0:0:
436,226,74101,1,8,0:2:0:0:
370,267,74268,5,2,0:2:0:0:
490,286,74435,2,0,P|494:305|498:391,1,88.000002685547,2|0,0:1|0:2,0:2:0:0:
290,294,74768,2,0,P|282:338|281:382,1,88.000002685547,10|0,0:2|0:2,0:2:0:0:
370,267,75101,1,2,0:2:0:0:
243,217,75268,2,0,P|239:198|235:112,1,88.000002685547,2|8,0:1|0:2,0:2:0:0:
351,33,75601,5,2,0:2:0:0:
374,125,75768,2,0,P|488:123|513:46,2,176.000005371094,2|10|0,0:1|0:2|0:2,0:0:0:0:
351,33,76601,1,0,0:2:0:0:
259,5,76768,1,8,2:2:0:0:
239,26,76851,1,0,2:2:0:0:
213,39,76935,1,0,2:2:0:0:
184,40,77018,1,0,2:2:0:0:
158,29,77101,1,4,1:2:0:0:
10,128,77435,5,10,0:2:0:0:
10,128,77601,1,0,0:2:0:0:
103,109,77768,1,2,0:2:0:0:
74,197,77935,2,0,P|82:252|93:290,1,88.000002685547,2|8,0:1|0:2,0:2:0:0:
219,374,78268,6,0,P|225:285|236:195,1,176.000005371094,2|0,0:1|0:2,0:2:0:0:
329,251,78768,1,10,0:2:0:0:
423,199,78935,2,0,P|429:242|426:286,1,88.000002685547,2|0,0:1|0:2,0:2:0:0:
336,155,79268,1,2,0:2:0:0:
415,102,79435,1,8,0:2:0:0:
322,34,79601,6,0,B|240:6|241:66|149:36,1,176.000005371094,6|0,0:1|0:2,0:2:0:0:
182,153,80101,1,8,0:2:0:0:
182,153,80268,1,0,0:2:0:0:
61,171,80435,1,0,0:2:0:0:
263,241,80768,5,8,0:2:0:0:
368,214,80935,2,2,P|383:257|359:406,1,176.000005371094,6|0,0:2|0:2,0:1:0:0:
196,305,81435,1,8,0:2:0:0:
89,374,81601,1,0,0:1:0:0:
89,374,81685,1,0,0:2:0:0:
89,374,81768,2,0,P|71:288|91:203,1,176.000005371094,2|12,0:2|0:2,0:0:0:0:
91,203,82435,6,0,L|188:196,1,88.000002685547,6|0,0:2|0:2,0:2:0:0:
305,67,82768,2,0,L|208:60,1,88.000002685547,10|0,0:2|0:2,0:2:0:0:
217,60,83018,1,0,0:2:0:0:
217,60,83101,1,0,0:2:0:0:
280,159,83268,5,2,0:2:0:0:
178,196,83435,1,8,0:2:0:0:
263,268,83601,2,0,P|277:310|275:369,1,88.000002685547,2|0,0:1|0:2,0:2:0:0:
86,384,83935,2,0,P|86:340|100:298,1,88.000002685547,2|8,0:1|0:2,0:2:0:0:
186,203,84268,1,2,0:1:0:0:
186,203,84351,1,0,0:2:0:0:
186,203,84435,1,0,0:2:0:0:
63,144,84601,5,2,0:2:0:0:
20,236,84768,1,8,0:2:0:0:
100,298,84935,2,0,P|198:291|291:288,1,176.000005371094,2|0,0:1|0:2,0:2:0:0:
400,296,85435,2,0,P|403:335|402:399,1,88.000002685547,10|0,0:2|0:2,0:2:0:0:
275,288,85768,1,2,0:2:0:0:
342,218,85935,2,0,P|342:174|339:130,1,88.000002685547,2|8,0:1|0:2,0:2:0:0:
278,57,86268,5,2,0:2:0:0:
278,57,86351,1,0,0:2:0:0:
278,57,86435,1,2,0:1:0:0:
244,149,86601,1,0,0:2:0:0:
339,130,86768,1,8,0:2:0:0:
175,79,86935,1,2,0:1:0:0:
0,182,87268,5,2,0:1:0:0:
112,175,87435,1,8,0:2:0:0:
67,270,87601,1,0,0:2:0:0:
67,270,87685,1,0,0:2:0:0:
67,270,87768,2,0,P|56:325|64:360,1,88.000002685547,4|0,0:2|0:2,0:2:0:0:
189,293,88101,5,10,0:2:0:0:
274,338,88268,1,0,0:2:0:0:
338,265,88435,1,2,0:2:0:0:
253,220,88601,2,0,P|245:169|250:95,1,88.000002685547,2|8,0:1|0:2,0:2:0:0:
334,32,88935,1,2,0:1:0:0:
419,76,89101,2,0,P|439:136|416:262,1,176.000005371094,0|8,0:2|0:2,0:1:0:0:
352,312,89601,5,2,0:2:0:0:
426,367,89768,2,0,P|483:359|519:350,1,88.000002685547,2|0,0:1|0:2,0:0:0:0:
352,312,90101,1,10,0:2:0:0:
424,245,90268,2,0,P|431:198|431:137,1,88.000002685547,2|0,0:1|0:2,0:2:0:0:
290,159,90601,2,0,P|288:115|281:71,1,88.000002685547,2|8,0:1|0:2,0:2:0:0:
196,13,90935,5,2,0:2:0:0:
196,13,91018,1,0,0:2:0:0:
196,13,91101,1,0,0:2:0:0:
106,70,91268,1,0,0:2:0:0:
13,22,91435,1,8,0:2:0:0:
120,85,91601,6,2,P|157:189|143:282,1,176.000005371094,6|0,0:2|0:2,0:1:0:0:
106,360,92101,1,12,0:2:0:0:
106,360,92268,1,0,0:2:0:0:
38,267,92435,1,2,0:2:0:0:
153,253,92601,5,8,3:2:0:0:
171,264,92685,1,8,3:2:0:0:
192,270,92768,1,8,3:2:0:0:
214,271,92851,1,8,3:2:0:0:
236,267,92935,1,8,3:2:0:0:
256,259,93018,1,8,3:2:0:0:
273,245,93101,2,0,L|288:56,1,160,6|8,1:1|0:2,0:1:0:0:
368,148,93601,2,0,L|447:153,1,80,2|0,0:1|1:2,0:2:0:0:
285,85,93935,2,2,L|205:79,1,80,2|8,1:1|0:2,0:2:0:0:
114,7,94268,5,2,1:1:0:0:
114,7,94601,1,2,1:1:0:0:
50,75,94768,1,8,0:2:0:0:
112,142,94935,2,0,P|203:130|279:124,1,160,2|0,0:1|1:2,0:2:0:0:
396,209,95435,5,8,3:2:0:0:
396,209,95518,1,0,3:2:0:0:
396,209,95601,1,0,3:2:0:0:
396,209,95685,1,0,3:2:0:0:
396,209,95768,2,0,P|406:268|411:368,1,160,2|8,1:1|0:2,0:2:0:0:
303,251,96268,2,0,P|263:252|223:258,1,80,2|0,0:1|1:2,0:2:0:0:
172,364,96601,2,0,P|132:369|92:371,1,80,2|8,1:1|0:2,0:2:0:0:
11,290,96935,5,2,1:1:0:0:
11,290,97268,1,2,1:1:0:0:
100,266,97435,1,8,0:2:0:0:
40,194,97601,2,0,P|39:127|114:66,1,160,2|0,0:1|1:2,0:2:0:0:
271,42,98101,5,8,3:2:0:0:
271,42,98185,1,0,3:2:0:0:
271,42,98268,1,0,3:2:0:0:
271,42,98351,1,0,3:2:0:0:
271,42,98435,2,0,B|345:62|345:62|435:9,2,160,6|8|0,1:2|0:2|1:2,0:2:0:0:
193,155,99268,2,0,P|238:142|271:135,1,80,0|8,1:2|0:2,0:2:0:0:
423,216,99601,6,0,P|420:144|351:83,1,160,2|0,1:2|1:2,0:2:0:0:
271,42,100101,1,10,0:2:0:0:
312,267,100435,1,2,1:2:0:0:
232,306,100601,1,0,1:2:0:0:
167,247,100768,1,10,0:2:0:0:
247,208,100935,2,0,P|245:165|236:126,1,80,2|0,1:1|1:2,0:0:0:0:
173,17,101268,5,2,0:2:0:0:
110,75,101435,1,10,0:1:0:0:
54,0,101601,1,0,0:2:0:0:
110,75,101768,1,2,1:1:0:0:
17,109,101935,1,0,1:2:0:0:
110,75,102101,1,10,0:1:0:0:
125,180,102268,5,8,3:3:0:0:
125,180,102351,1,8,3:3:0:0:
125,180,102435,2,2,L|112:265,1,80,2|0,1:2|0:2,0:1:0:0:
294,169,102768,2,2,L|318:10,1,160,10|0,0:2|0:2,0:1:0:0:
401,158,103268,5,8,3:3:0:0:
508,119,103435,1,8,3:2:0:0:
431,58,103601,1,8,3:2:0:0:
480,221,103768,1,4,1:1:0:0:
428,314,105768,5,0,3:2:0:0:
350,307,106101,1,0,0:2:0:0:
272,300,106435,1,2,0:2:0:0:
86,377,109101,5,4,1:2:0:0:
86,377,110435,6,0,P|85:322|104:245,1,120.000004577637,2|0,0:2|0:2,0:2:0:0:
59,191,110935,2,0,P|34:195|-23:194,1,60.0000022888184,2|0,0:2|3:2,0:2:0:0:
100,123,111268,2,0,P|134:112|169:106,1,71.9999978027344,2|0,0:1|0:2,0:2:0:0:
262,128,111601,6,0,L|274:176,2,35.9999989013672,2|0|0,1:2|1:2|1:2,0:0:0:0:
285,53,111935,2,0,L|273:5,2,35.9999989013672,0|0|0,1:2|1:2|1:2,0:0:0:0:
357,146,112268,6,0,L|369:194,2,35.9999989013672,2|0|0,1:2|1:2|1:2,0:0:0:0:
380,71,112601,2,0,L|368:23,2,35.9999989013672,0|0|0,1:2|1:2|1:2,0:0:0:0:
452,164,112935,6,0,L|464:212,2,35.9999989013672,2|0|0,1:2|1:2|1:2,0:0:0:0:
475,89,113268,2,0,L|463:41,2,35.9999989013672,0|0|0,1:2|1:2|1:2,0:0:0:0:
373,200,113601,5,8,3:3:0:0:
373,200,113685,1,8,3:3:0:0:
373,200,113768,1,8,3:3:0:0:
288,121,113935,1,8,3:3:0:0:
195,188,114101,1,4,3:3:0:0:
280,267,114268,1,8,3:2:0:0:
280,267,114351,1,8,3:2:0:0:
280,267,114435,1,6,1:2:0:0:
117,384,114768,6,0,L|115:293,1,71.9999978027344,10|0,0:2|0:2,0:0:0:0:
12,340,115101,1,0,1:1:0:0:
45,233,115268,2,0,L|43:142,1,71.9999978027344,2|0,0:2|0:2,0:2:0:0:
173,123,115601,5,2,1:1:0:0:
173,123,115768,2,0,P|233:121|322:101,1,143.999995605469,0|8,1:1|0:2,0:1:0:0:
196,38,116268,2,0,P|231:31|267:27,1,71.9999978027344,2|0,0:1|1:2,0:2:0:0:
296,195,116601,2,0,P|260:201|224:205,1,71.9999978027344,2|8,1:1|0:2,0:2:0:0:
127,209,116935,1,2,1:1:0:0:
127,209,117018,1,0,1:2:0:0:
127,209,117101,1,0,1:2:0:0:
247,370,117435,6,0,P|251:329|260:291,1,71.9999978027344,10|0,0:2|0:2,0:0:0:0:
395,269,117768,1,0,1:2:0:0:
493,306,117935,2,0,P|489:265|480:227,1,71.9999978027344,2|8,0:2|0:2,0:2:0:0:
386,134,118268,5,2,1:1:0:0:
386,134,118435,2,0,P|349:154|236:122,1,143.999995605469,0|8,1:1|0:2,0:2:0:0:
147,184,118935,2,0,P|150:148|157:112,1,71.9999978027344,2|0,0:1|1:2,0:2:0:0:
306,200,119268,2,0,P|302:235|295:271,1,71.9999978027344,2|8,1:1|0:2,0:2:0:0:
265,380,119601,1,2,1:2:0:0:
384,324,119768,1,6,1:2:0:0:
164,372,120101,6,0,P|159:336|154:300,1,71.9999978027344,10|0,0:2|0:2,0:2:0:0:
128,186,120435,1,0,1:2:0:0:
44,295,120601,2,0,P|38:259|34:223,1,71.9999978027344,2|8,0:2|0:2,0:2:0:0:
136,193,120935,5,2,1:1:0:0:
136,193,121018,1,0,1:2:0:0:
136,193,121101,1,0,1:2:0:0:
60,139,121268,1,0,1:2:0:0:
133,81,121435,1,8,0:2:0:0:
209,135,121601,2,0,P|247:131|282:123,1,71.9999978027344,2|0,0:1|1:2,0:2:0:0:
355,21,121935,2,0,P|393:25|428:33,1,71.9999978027344,2|8,1:1|0:2,0:2:0:0:
500,0,122268,5,2,0:2:0:0:
432,115,122435,2,0,B|418:183|472:178|456:252,1,143.999995605469,6|8,1:2|0:2,0:1:0:0:
300,239,122935,2,0,P|335:234|371:232,1,71.9999978027344,2|0,0:1|1:2,0:2:0:0:
264,371,123268,2,0,P|299:373|335:377,1,71.9999978027344,2|8,1:1|0:2,0:2:0:0:
206,273,123601,6,2,P|200:234|191:196,1,71.9999978027344,6|0,0:2|0:2,0:1:0:0:
371,232,123935,2,2,P|377:193|386:155,1,71.9999978027344,2|8,1:2|0:2,0:1:0:0:
314,24,124268,1,2,0:2:0:0:
270,110,124435,2,2,P|275:145|283:180,1,71.9999978027344,8|0,0:2|1:2,0:1:0:0:
168,76,124768,5,8,0:2:0:0:
148,63,124851,1,8,0:2:0:0:
126,57,124935,1,8,0:2:0:0:
103,60,125018,1,8,0:2:0:0:
81,69,125101,2,0,P|44:129|43:223,1,143.999995605469,4|8,1:1|0:2,0:2:0:0:
37,200,125601,1,0,0:2:0:0:
0,319,125768,2,0,P|65:279|160:283,1,143.999995605469,2|8,1:2|0:2,0:2:0:0:
221,378,126268,2,0,P|214:332|214:289,1,71.9999978027344,2|0,0:1|1:2,0:2:0:0:
328,267,126601,2,0,P|326:302|320:338,2,71.9999978027344,2|8|0,1:1|0:2|0:2,0:2:0:0:
242,204,127101,6,0,P|223:149|221:37,1,143.999995605469,2|8,1:2|0:2,0:2:0:0:
217,63,127601,1,0,0:2:0:0:
341,133,127768,2,0,B|411:151|411:151|474:106,2,143.999995605469,2|8|0,1:2|0:2|1:2,0:2:0:0:
297,75,128601,1,0,1:2:0:0:
269,144,128768,5,10,0:2:0:0:
167,91,128935,2,0,L|159:15,1,71.9999978027344,2|0,0:1|1:2,0:2:0:0:
65,156,129268,2,0,L|57:84,1,71.9999978027344,2|8,0:1|0:2,0:2:0:0:
184,199,129601,5,2,1:1:0:0:
184,199,129685,1,0,1:2:0:0:
184,199,129768,1,0,1:2:0:0:
112,232,129935,1,0,1:2:0:0:
169,286,130101,1,8,0:2:0:0:
241,253,130268,1,0,0:2:0:0:
305,343,130435,6,0,B|372:364|372:364|456:319,1,143.999995605469,6|8,1:2|0:2,0:2:0:0:
502,373,130935,1,0,0:2:0:0:
488,270,131101,2,0,P|477:216|467:109,1,143.999995605469,2|8,1:2|0:2,0:2:0:0:
420,59,131601,5,2,0:2:0:0:
393,160,131768,1,0,1:2:0:0:
393,160,131935,1,0,1:2:0:0:
467,127,132101,1,8,0:2:0:0:
341,94,132268,2,0,P|336:53|332:-4,1,71.9999978027344,2|0,0:1|1:2,0:2:0:0:
248,166,132601,2,0,P|243:125|239:68,1,71.9999978027344,2|8,1:1|0:2,0:2:0:0:
194,35,132935,5,2,0:2:0:0:
168,128,133101,2,0,P|131:127|81:108,1,71.9999978027344,2|0,1:1|0:2,0:2:0:0:
248,166,133435,2,0,P|285:167|335:186,1,71.9999978027344,14|0,0:2|0:2,0:2:0:0:
318,177,133685,1,8,0:2:0:0:
318,177,133768,1,0,1:2:0:0:
232,255,133935,2,0,P|196:254|161:243,1,71.9999978027344,10|0,0:1|1:2,2:2:0:0:
71,207,134268,5,8,3:3:0:0:
71,207,134601,1,8,3:3:0:0:
82,314,134768,1,8,3:2:0:0:
160,366,134935,1,8,3:3:0:0:
177,360,135018,1,8,3:3:0:0:
195,356,135101,1,4,3:3:0:0:
213,355,135185,1,4,3:3:0:0:
231,356,135268,1,8,3:3:0:0:
320,383,135435,1,8,3:2:0:0:
348,294,135601,1,8,3:2:0:0:
431,333,135768,6,0,P|449:248|428:192,1,143.999995605469,6|8,1:1|0:2,0:2:0:0:
348,294,136268,2,0,P|328:225|348:157,1,143.999995605469,2|0,0:2|1:2,0:2:0:0:
441,107,136768,1,10,0:2:0:0:
441,107,136935,1,0,1:2:0:0:
360,41,137101,2,0,P|304:20|191:29,1,143.999995605469,2|8,0:1|0:2,0:2:0:0:
220,20,137601,1,0,1:2:0:0:
143,100,137768,6,0,P|138:64|130:29,1,71.9999978027344,2|0,1:2|1:2,0:2:0:0:
251,168,138101,2,0,P|255:132|263:97,1,71.9999978027344,10|0,0:2|0:2,0:2:0:0:
160,189,138435,2,0,P|106:192|12:226,1,143.999995605469,2|8,1:1|0:2,0:2:0:0:
143,308,138935,2,0,P|197:305|291:271,1,143.999995605469,2|0,0:2|1:2,0:2:0:0:
363,211,139435,5,10,0:2:0:0:
431,292,139601,2,0,P|428:325|416:371,1,71.9999978027344,2|0,1:1|0:2,0:2:0:0:
363,211,139935,2,0,P|366:178|378:132,1,71.9999978027344,2|8,1:1|0:2,0:2:0:0:
512,160,140268,2,0,P|508:125|499:90,1,71.9999978027344,2|0,3:1|3:2,0:0:0:0:
398,6,140601,5,2,1:2:0:0:
358,129,140768,1,8,0:2:0:0:
235,89,140935,1,8,0:2:0:0:
155,127,141101,6,0,P|128:165|148:291,1,160,6|8,1:1|0:2,0:2:0:0:
218,364,141601,2,0,L|228:279,1,80,2|0,0:1|1:2,0:2:0:0:
369,309,141935,2,0,L|359:224,1,80,2|8,1:1|0:2,0:2:0:0:
493,148,142268,2,0,P|520:186|500:312,1,160,2|0,1:1|1:2,0:2:0:0:
464,358,142768,1,8,0:2:0:0:
364,234,143101,5,2,1:2:0:0:
364,234,143268,1,0,1:2:0:0:
423,288,143435,1,10,0:2:0:0:
381,155,143601,1,8,0:2:0:0:
288,258,143768,2,2,P|232:265|183:227,1,120,2|0,1:1|0:2,0:1:0:0:
172,212,144101,2,0,L|192:130,1,80,12|0,0:2|0:2,0:2:0:0:
248,13,144435,5,2,1:2:0:0:
317,99,144601,2,2,P|355:110|395:113,1,80,12|0,0:2|0:2,0:1:0:0:
248,13,144935,6,0,P|163:20|102:86,1,160,6|0,1:1|1:2,0:2:0:0:
76,169,145435,2,0,P|36:178|2:196,1,80,8|0,0:2|0:2,0:2:0:0:
1,196,145685,1,8,0:2:0:0:
1,196,145768,1,8,0:2:0:0:
90,283,145935,5,8,3:3:0:0:
110,280,146018,1,8,3:3:0:0:
130,278,146101,1,4,3:3:0:0:
150,275,146185,1,4,3:3:0:0:
170,273,146268,1,8,3:3:0:0:
190,270,146351,1,8,3:3:0:0:
210,267,146435,2,0,B|312:242|279:311|380:292,1,176.000005371094,6|10,1:1|0:2,0:2:0:0:
494,259,146935,5,2,0:1:0:0:
494,259,147268,1,2,1:2:0:0:
462,369,147435,1,8,0:2:0:0:
377,292,147601,2,0,B|365:208|413:211|396:111,1,176.000005371094,2|2,0:1|0:2,0:0:0:0:
342,29,148101,1,8,0:2:0:0:
296,159,148268,2,2,P|242:173|122:115,1,176.000005371094,2|0,0:1|0:2,0:1:0:0:
82,69,148768,1,8,0:2:0:0:
56,144,148935,5,2,0:2:0:0:
165,52,149101,2,0,P|190:43|250:27,1,88.000002685547,2|0,0:1|0:2,0:2:0:0:
244,165,149435,2,0,P|258:206|268:249,1,88.000002685547,10|0,0:2|0:2,0:2:0:0:
202,384,149768,1,2,0:2:0:0:
86,348,149935,2,0,P|71:306|61:263,1,88.000002685547,2|0,0:1|0:2,0:2:0:0:
148,141,150268,5,2,0:2:0:0:
244,165,150435,2,0,P|312:166|397:89,2,176.000005371094,2|10|0,0:1|0:2|0:2,0:0:0:0:
148,141,151268,1,0,0:2:0:0:
55,110,151435,1,8,2:2:0:0:
49,88,151518,1,0,2:2:0:0:
46,66,151601,1,0,2:2:0:0:
48,45,151685,1,0,2:2:0:0:
53,23,151768,1,4,1:2:0:0:
256,3,152101,5,10,0:2:0:0:
307,80,152268,1,0,0:2:0:0:
388,46,152435,1,2,0:2:0:0:
307,80,152601,2,0,P|290:125|290:175,1,88.000002685547,2|0,0:1|0:2,0:2:0:0:
451,106,152935,6,0,P|488:146|474:266,1,176.000005371094,2|0,0:1|0:2,0:2:0:0:
373,365,153435,2,0,L|364:277,1,88.000002685547,10|0,0:1|0:2,0:2:0:0:
218,210,153768,2,0,L|209:297,1,88.000002685547,2|0,0:1|0:2,0:2:0:0:
112,369,154101,1,2,0:2:0:0:
23,280,154268,2,0,P|3:196|50:125,1,176.000005371094,2|0,0:1|0:2,0:1:0:0:
83,54,154768,1,8,0:2:0:0:
83,54,154935,1,0,0:2:0:0:
126,167,155101,6,0,B|210:190|210:190|300:141,1,176.000005371094,2|0,0:2|0:2,0:2:0:0:
489,53,155601,2,2,B|405:76|405:76|315:27,1,176.000005371094,6|8,0:2|3:2,0:1:0:0:
433,167,156101,5,8,3:3:0:0:
358,257,156268,1,8,3:3:0:0:
462,323,156435,1,4,3:3:0:0:
367,369,156601,5,8,3:2:0:0:
347,358,156685,1,8,3:2:0:0:
327,349,156768,1,8,3:2:0:0:
306,342,156851,1,8,3:2:0:0:
285,337,156935,1,8,3:2:0:0:
263,334,157018,1,8,3:2:0:0:
241,334,157101,2,0,P|166:361|72:320,1,176.000005371094,6|10,0:1|0:2,0:2:0:0:
0,241,157601,5,2,0:1:0:0:
0,241,157935,1,2,0:2:0:0:
78,184,158101,1,8,0:2:0:0:
169,216,158268,2,0,P|255:220|323:168,1,176.000005371094,0|2,0:1|0:2,0:2:0:0:
267,91,158768,1,8,0:2:0:0:
412,34,158935,2,0,P|416:115|419:228,1,176.000005371094,2|0,0:1|0:2,0:0:0:0:
462,276,159435,1,8,0:2:0:0:
383,283,159601,5,2,0:2:0:0:
311,369,159768,2,0,P|269:363|224:349,1,88.000002685547,2|0,0:1|0:2,0:2:0:0:
145,261,160101,2,0,P|103:267|58:281,1,88.000002685547,10|0,0:2|0:2,0:2:0:0:
225,349,160435,1,2,0:2:0:0:
281,260,160601,2,0,P|285:241|289:155,1,88.000002685547,2|8,0:1|0:2,0:2:0:0:
196,55,160935,5,2,0:2:0:0:
120,115,161101,2,0,P|36:108|9:19,2,176.000005371094,2|10|0,0:1|0:2|0:2,0:0:0:0:
196,55,161935,1,0,0:2:0:0:
273,111,162101,1,8,2:2:0:0:
298,126,162185,1,0,2:2:0:0:
327,132,162268,1,0,2:2:0:0:
355,125,162351,1,0,2:2:0:0:
377,108,162435,1,4,1:2:0:0:
512,238,162768,5,10,0:2:0:0:
512,238,162935,1,0,0:2:0:0:
422,202,163101,1,2,0:2:0:0:
355,273,163268,2,0,L|361:371,1,88.000002685547,2|8,0:1|0:2,0:2:0:0:
235,249,163601,6,0,P|154:216|69:233,1,176.000005371094,2|0,0:1|0:2,0:2:0:0:
0,168,164101,1,10,0:2:0:0:
116,131,164268,2,0,P|115:94|104:36,1,88.000002685547,2|0,0:1|0:2,0:2:0:0:
215,23,164601,1,2,0:2:0:0:
236,119,164768,1,8,0:2:0:0:
336,53,164935,6,0,P|398:47|474:136,1,176.000005371094,6|0,0:1|0:2,0:2:0:0:
496,217,165435,1,8,0:2:0:0:
401,193,165601,1,0,0:2:0:0:
312,228,165768,1,0,0:2:0:0:
128,116,166101,5,8,0:2:0:0:
39,197,166268,2,2,P|13:274|29:374,1,176.000005371094,6|0,0:2|0:2,0:1:0:0:
152,332,166768,1,8,0:2:0:0:
269,373,166935,1,0,0:1:0:0:
269,373,167018,1,0,0:2:0:0:
269,373,167101,2,0,P|295:289|282:203,1,176.000005371094,2|12,0:2|0:2,0:0:0:0:
283,203,167768,6,0,L|186:196,1,88.000002685547,6|0,0:2|0:2,0:2:0:0:
151,66,168101,2,0,L|54:59,1,88.000002685547,10|0,0:2|0:2,0:2:0:0:
63,59,168351,1,0,0:2:0:0:
63,59,168435,1,0,0:2:0:0:
112,152,168601,5,2,0:2:0:0:
214,117,168768,1,8,0:2:0:0:
283,203,168935,2,0,L|289:302,1,88.000002685547,2|0,0:1|0:2,0:2:0:0:
388,172,169268,2,0,L|475:166,1,88.000002685547,2|8,0:1|0:2,0:2:0:0:
359,72,169601,1,2,0:1:0:0:
359,72,169685,1,0,0:2:0:0:
359,72,169768,1,0,0:2:0:0:
265,100,169935,6,0,L|259:12,1,88.000002685547,2|8,0:2|0:2,0:0:0:0:
155,110,170268,2,0,P|70:106|24:177,1,176.000005371094,2|0,0:1|0:2,0:2:0:0:
119,275,170768,2,0,P|161:265|209:258,1,88.000002685547,10|0,0:2|0:2,0:2:0:0:
281,313,171101,1,2,0:2:0:0:
392,256,171268,2,0,P|390:212|381:168,1,88.000002685547,2|8,0:1|0:2,0:2:0:0:
287,92,171601,5,2,0:2:0:0:
287,92,171685,1,0,0:2:0:0:
287,92,171768,1,2,0:1:0:0:
210,164,171935,1,0,0:2:0:0:
136,88,172101,1,8,0:2:0:0:
213,16,172268,1,2,0:1:0:0:
441,81,172601,5,2,0:1:0:0:
381,168,172768,1,8,0:2:0:0:
465,247,172935,1,0,0:2:0:0:
465,247,173018,1,0,0:2:0:0:
465,247,173101,2,0,P|479:300|478:340,1,88.000002685547,4|0,0:2|0:2,0:2:0:0:
330,263,173435,5,10,0:2:0:0:
296,353,173601,1,0,0:2:0:0:
208,310,173768,1,2,0:2:0:0:
242,220,173935,2,0,P|246:173|239:106,1,88.000002685547,2|8,0:1|0:2,0:2:0:0:
152,45,174268,1,2,0:1:0:0:
43,108,174435,2,0,P|20:174|46:294,1,176.000005371094,0|8,0:2|0:2,0:1:0:0:
0,357,174935,5,2,0:2:0:0:
126,382,175101,2,0,L|117:285,1,88.000002685547,2|0,0:1|0:2,0:0:0:0:
214,186,175435,1,10,0:2:0:0:
302,230,175601,2,0,L|293:317,1,88.000002685547,2|0,0:1|0:2,0:2:0:0:
117,294,175935,2,0,L|108:206,1,88.000002685547,2|8,0:1|0:2,0:2:0:0:
211,92,176268,5,2,0:2:0:0:
211,92,176351,1,0,0:2:0:0:
211,92,176435,1,0,0:2:0:0:
306,135,176601,1,0,0:2:0:0:
372,52,176768,1,8,0:2:0:0:
473,103,176935,6,2,P|498:214|470:286,1,176.000005371094,6|0,0:2|0:2,0:1:0:0:
406,359,177435,1,12,0:2:0:0:
406,359,177601,1,0,0:2:0:0:
345,261,177768,1,2,0:2:0:0:
261,339,177935,5,8,3:2:0:0:
243,350,178018,1,8,3:2:0:0:
222,356,178101,1,8,3:2:0:0:
200,357,178185,1,8,3:2:0:0:
178,353,178268,1,8,3:2:0:0:
158,345,178351,1,8,3:2:0:0:
141,331,178435,2,0,L|150:257,1,64,6|0,0:2|0:2,0:1:0:0:
194,205,178768,2,0,L|203:131,1,64,2|0,0:2|1:2,0:1:0:0:
276,83,179101,5,10,0:1:0:0:
348,107,179268,1,0,0:2:0:0:
333,33,179435,1,0,0:2:0:0:
264,93,179601,6,0,P|207:102|136:72,1,128,2|8,1:2|0:2,0:2:0:0:
73,136,180101,2,0,P|42:136|-8:150,1,64,2|0,1:2|0:2,0:2:0:0:
122,212,180435,2,0,P|153:212|203:198,1,64,10|0,0:1|0:2,0:0:0:0:
261,181,180768,1,10,0:2:0:0:
268,289,180935,1,8,0:2:0:0:
330,345,181101,6,0,L|399:355,1,64,2|0,1:2|0:2,0:2:0:0:
465,384,181435,2,0,L|475:315,1,64,2|0,0:2|1:2,0:2:0:0:
463,216,181768,5,14,0:1:0:0:
389,237,181935,1,0,0:2:0:0:
349,171,182101,1,0,0:2:0:0:
423,150,182268,6,0,P|434:116|388:6,1,160,10|10,0:2|0:2,0:2:0:0:
316,39,182768,1,0,1:2:0:0:
241,10,182935,1,8,0:2:0:0:
213,117,183101,5,12,0:2:0:0:
213,117,183435,1,8,0:2:0:0:
134,83,183601,1,8,0:2:0:0:
82,147,183768,2,0,L|73:222,1,64,6|0,1:2|0:2,0:2:0:0:
44,293,184101,2,0,L|107:285,1,64,2|0,0:2|1:2,0:2:0:0:
210,246,184435,5,10,0:1:0:0:
191,326,184601,1,0,0:2:0:0:
271,303,184768,1,0,0:2:0:0:
204,232,184935,6,0,P|195:175|224:94,1,128,2|8,1:2|0:2,0:2:0:0:
176,36,185435,2,0,L|258:24,1,64,2|0,1:2|0:2,0:2:0:0:
292,121,185768,2,0,L|374:133,1,64,10|0,0:1|0:2,0:0:0:0:
423,88,186101,1,12,0:2:0:0:
432,212,186268,1,8,0:2:0:0:
363,262,186435,5,2,1:2:0:0:
447,296,186601,1,8,0:2:0:0:
378,346,186768,2,0,L|370:381,2,32,8|8|8,0:3|0:3|0:3,0:0:0:0:
363,262,187101,1,8,0:2:0:0:
439,220,187268,1,4,0:3:0:0:
439,220,187351,1,4,0:3:0:0:
439,220,187435,1,4,0:3:0:0:
378,121,187601,6,0,L|298:110,1,71.9999978027344,8|0,0:2|0:2,0:2:0:0:
306,111,187851,1,8,0:2:0:0:
306,111,187935,1,8,0:2:0:0:
217,175,188101,6,0,P|223:135|191:55,1,107.999996704102,8|8,0:2|0:2,0:2:0:0:
188,45,188435,5,8,0:3:0:0:
177,53,188518,1,8,0:3:0:0:
165,60,188601,1,4,0:3:0:0:
153,65,188685,1,4,0:3:0:0:
140,69,188768,1,8,0:3:0:0:
127,71,188851,1,8,0:3:0:0:
113,71,188935,1,4,0:3:0:0:
100,70,189018,1,4,0:3:0:0:
87,66,189101,2,0,P|58:129|55:251,2,176.000005371094,6|8|0,1:1|0:2|1:2,0:2:0:0:
192,141,189935,6,0,P|239:141|277:127,1,88.000002685547,2|8,1:2|0:2,0:2:0:0:
345,77,190268,1,2,1:1:0:0:
345,77,190351,1,0,1:2:0:0:
345,77,190435,1,0,1:2:0:0:
437,148,190601,2,0,P|442:200|443:240,1,88.000002685547,2|8,1:2|0:2,0:2:0:0:
504,342,190935,2,0,P|456:322|416:321,1,88.000002685547,2|0,0:2|1:2,0:2:0:0:
286,363,191268,6,0,B|241:368|241:368|204:346,1,88.000002685547,2|8,1:1|0:2,0:2:0:0:
122,294,191601,1,2,0:2:0:0:
212,251,191768,1,2,1:1:0:0:
212,251,191935,1,0,1:2:0:0:
132,184,192101,2,0,P|134:142|147:84,1,88.000002685547,10|0,0:1|0:2,0:0:0:0:
208,36,192435,1,2,1:1:0:0:
292,59,192601,1,0,1:2:0:0:
368,15,192768,1,8,0:2:0:0:
444,97,192935,5,2,1:1:0:0:
444,97,193018,1,0,1:2:0:0:
444,97,193101,2,0,P|442:139|429:197,1,88.000002685547,0|0,1:2|1:2,0:0:0:0:
298,177,193435,1,10,0:2:0:0:
233,236,193601,2,0,P|235:278|248:336,1,88.000002685547,2|0,0:1|1:2,0:2:0:0:
450,298,193935,2,0,P|448:340|435:398,1,88.000002685547,2|8,1:1|0:2,0:2:0:0:
255,334,194268,5,8,3:2:0:0:
255,334,194351,1,8,3:2:0:0:
255,334,194435,2,0,B|167:304|178:365|83:333,1,176.000005371094,6|8,1:1|0:2,0:2:0:0:
0,238,194935,2,0,P|5:198|26:145,1,88.000002685547,2|0,0:1|1:2,0:2:0:0:
204,186,195268,5,0,1:1:0:0:
204,186,195351,1,0,1:2:0:0:
204,186,195435,2,0,P|199:146|178:93,1,88.000002685547,0|0,1:2|0:2,0:0:0:0:
102,47,195768,1,2,1:1:0:0:
188,2,195935,1,0,1:2:0:0:
268,56,196101,1,10,0:1:0:0:
182,101,196268,1,0,1:2:0:0:
290,141,196435,5,2,0:1:0:0:
204,186,196601,1,0,1:2:0:0:
312,226,196768,1,8,0:2:0:0:
226,271,196935,2,2,P|102:249|-5:241,1,223.999993164063,6|0,0:2|1:2,0:1:0:0:
102,139,197435,1,10,0:2:0:0:
13,149,197601,2,0,P|6:108|8:48,1,88.000002685547,2|0,0:1|1:2,0:2:0:0:
128,3,197935,5,2,1:1:0:0:
128,3,198018,1,0,1:2:0:0:
128,3,198101,1,8,0:2:0:0:
196,77,198268,2,2,P|284:104|411:31,1,223.999993164063,6|10,1:2|0:1,0:1:0:0:
353,186,198768,1,8,0:3:0:0:
455,165,198935,1,10,0:1:0:0:
476,267,199101,1,4,0:3:0:0:
405,320,199268,5,8,3:2:0:0:
378,307,199351,1,8,3:2:0:0:
351,296,199435,1,8,3:2:0:0:
322,289,199518,1,8,3:2:0:0:
293,284,199601,1,8,3:2:0:0:
264,282,199685,1,8,3:2:0:0:
235,282,199768,2,0,P|142:307|54:288,2,176.000005371094,6|8|0,0:1|0:2|1:2,0:2:0:0:
310,200,200601,5,2,1:1:0:0:
224,178,200768,1,8,0:2:0:0:
293,98,200935,1,2,1:1:0:0:
214,27,201101,1,0,0:2:0:0:
145,107,201268,1,2,1:1:0:0:
74,69,201435,1,8,0:2:0:0:
19,126,201601,2,0,P|9:178|18:220,1,88.000002685547,2|0,0:1|1:2,0:2:0:0:
122,298,201935,2,0,P|127:341|118:383,1,88.000002685547,2|8,1:1|0:2,0:2:0:0:
273,295,202268,6,2,B|398:271|355:345|471:327,1,207.999990478516,6|0,1:1|1:2,0:1:0:0:
403,225,202768,2,2,P|414:191|420:136,1,88.000002685547,8|0,0:2|0:2,0:1:0:0:
377,52,203101,1,10,0:1:0:0:
377,52,203185,1,8,0:2:0:0:
377,52,203268,1,8,0:2:0:0:
306,113,203435,1,10,0:2:0:0:
207,27,203601,6,2,P|112:45|98:143,1,207.999990478516,6|8,1:2|0:3,0:1:0:0:
181,206,204101,1,8,0:2:0:0:
94,258,204268,1,8,0:2:0:0:
81,253,204351,1,8,0:2:0:0:
69,250,204435,1,8,0:3:0:0:
56,247,204518,1,8,0:3:0:0:
43,245,204601,1,4,0:3:0:0:
0,321,204768,1,8,0:2:0:0:
119,377,204935,6,2,P|191:364|353:352,1,223.999993164063,6|0,1:1|3:2,0:1:0:0:
457,381,205435,1,0,3:2:0:0:
424,268,205601,1,8,0:2:0:0:
424,268,205685,1,8,0:2:0:0:
424,268,205768,1,8,0:2:0:0:
500,171,205935,1,8,0:3:0:0:
421,77,206101,1,4,0:3:0:0:
345,174,206268,6,2,P|240:206|178:102,1,223.999993164063,6|8,1:2|0:3,2:1:0:0:
177,126,206685,1,8,0:3:0:0:
177,126,206768,1,4,0:3:0:0:
235,66,206935,1,4,0:3:0:0:
134,6,207101,1,12,0:2:0:0:
94,115,207268,1,8,0:3:0:0:
0,59,207435,1,14,0:2:0:0:
96,133,207601,6,0,B|119:184|116:249|67:249|59:312|87:371,1,240.000009155274,2|8,1:1|0:2,0:2:0:0:
205,261,208101,1,8,0:2:0:0:
205,261,208185,1,8,0:2:0:0:
205,261,208268,1,8,0:3:0:0:
314,348,208435,5,8,0:2:0:0:
329,361,208518,1,8,0:2:0:0:
347,369,208601,1,8,0:3:0:0:
366,373,208685,1,8,0:3:0:0:
386,371,208768,1,4,0:3:0:0:
405,364,208851,1,4,0:3:0:0:
421,352,208935,2,2,P|420:276|398:227,1,120.000004577637,2|0,0:3|0:2,0:1:0:0:
110,281,209268,2,2,P|130:207|164:166,1,120.000004577637,2|0,0:3|0:2,0:1:0:0:
507,220,209601,2,2,P|461:159|414:132,1,120.000004577637,6|0,0:2|0:2,0:1:0:0:
200,72,209935,5,10,0:1:0:0:
322,197,210101,1,8,0:3:0:0:
370,27,210268,1,8,0:3:0:0:
297,98,210435,5,4,1:1:0:0:
191,86,215768,6,0,P|112:80|46:212,1,239.999992675781,2|0,0:2|0:2,0:2:0:0:
0,269,216935,2,0,P|60:249|349:307,1,363.999983337403,2|0,0:2|0:2,0:2:0:0:
425,384,218435,5,0,1:2:0:0:
492,326,218601,1,0,1:2:0:0:
492,326,218685,1,0,1:2:0:0:
492,326,218768,1,0,1:2:0:0:
424,260,218935,1,2,1:2:0:0:
424,260,219018,1,0,1:2:0:0:
424,260,219101,1,0,1:2:0:0:
496,192,219268,5,0,1:2:0:0:
496,192,219351,1,0,1:2:0:0:
496,192,219435,2,0,P|504:151|497:94,1,80,8|0,0:2|0:2,0:2:0:0:
492,95,219685,1,8,3:2:0:0:
479,79,219768,1,8,3:2:0:0:
460,71,219851,1,8,3:2:0:0:
439,68,219935,2,0,P|398:70|354:43,1,80,8|8,3:3|3:3,0:0:0:0:
258,0,220268,5,8,3:2:0:0:
284,142,220435,1,4,3:3:0:0:
182,87,220601,5,8,3:2:0:0:
158,75,220685,1,8,3:2:0:0:
131,72,220768,1,8,3:2:0:0:
105,79,220851,1,8,3:2:0:0:
83,93,220935,1,8,3:2:0:0:
67,114,221018,1,8,3:2:0:0:
59,140,221101,2,0,P|61:213|89:345,1,191.999994140625,6|10,0:1|0:2,0:2:0:0:
218,384,221601,5,2,0:1:0:0:
218,384,221935,1,2,0:2:0:0:
278,297,222101,1,8,0:2:0:0:
216,211,222268,2,0,P|218:138|246:6,1,191.999994140625,0|2,0:1|0:2,0:0:0:0:
400,62,222768,1,8,0:2:0:0:
476,17,222935,2,0,P|496:110|500:206,1,191.999994140625,2|0,0:1|0:2,0:0:0:0:
486,282,223435,1,8,0:2:0:0:
427,232,223601,5,2,0:2:0:0:
370,370,223768,2,0,P|364:320|360:269,1,95.9999970703126,2|0,0:1|0:2,0:2:0:0:
262,179,224101,2,0,P|268:129|272:78,1,95.9999970703126,10|0,0:2|0:2,0:2:0:0:
109,195,224435,1,2,0:2:0:0:
35,164,224601,2,0,P|29:114|25:63,1,95.9999970703126,2|8,0:1|0:2,0:2:0:0:
201,8,224935,5,2,0:2:0:0:
271,83,225101,2,0,P|360:100|461:60,2,191.999994140625,2|10|0,0:1|0:2|0:2,0:0:0:0:
201,8,225935,1,0,0:2:0:0:
135,85,226101,1,8,2:2:0:0:
132,112,226185,1,0,2:2:0:0:
129,140,226268,1,0,2:2:0:0:
127,168,226351,1,0,2:2:0:0:
124,196,226435,1,4,1:2:0:0:
297,348,226768,5,10,0:2:0:0:
217,370,226935,1,0,0:2:0:0:
297,348,227101,1,2,0:2:0:0:
235,291,227268,2,0,P|227:233|233:187,1,95.9999970703126,2|8,0:1|0:2,0:0:0:0:
363,133,227601,6,0,P|450:140|477:47,1,191.999994140625,2|0,0:1|0:2,0:2:0:0:
409,195,228101,1,10,0:2:0:0:
480,247,228268,2,0,P|488:305|482:351,1,95.9999970703126,2|0,0:1|0:2,0:2:0:0:
412,382,228601,1,2,0:2:0:0:
277,341,228768,1,8,0:2:0:0:
195,377,228935,6,0,P|185:326|226:170,1,191.999994140625,6|0,0:1|0:2,0:2:0:0:
275,117,229435,1,8,0:2:0:0:
364,83,229601,1,0,0:2:0:0:
459,94,229768,1,0,0:2:0:0:
459,94,229935,1,0,0:2:0:0:
344,0,230101,5,8,0:2:0:0:
275,117,230268,2,2,P|222:137|110:77,1,191.999994140625,6|0,1:2|0:0,0:1:0:0:
189,219,230768,1,8,0:2:0:0:
65,202,230935,1,0,0:1:0:0:
65,202,231018,1,0,0:2:0:0:
65,202,231101,2,0,P|25:250|29:380,1,191.999994140625,2|12,0:2|0:2,0:0:0:0:
26,374,231768,6,0,L|121:361,1,95.9999970703126,6|0,0:2|0:2,0:0:0:0:
284,375,232101,2,0,L|379:362,1,95.9999970703126,10|0,0:2|0:2,0:0:0:0:
379,361,232351,1,0,0:2:0:0:
379,361,232435,1,0,0:2:0:0:
331,283,232601,5,2,0:2:0:0:
406,223,232768,1,8,0:2:0:0:
489,270,232935,2,0,P|503:311|502:368,1,95.9999970703126,2|0,0:1|0:2,0:2:0:0:
331,283,233268,2,0,P|317:242|318:185,1,95.9999970703126,2|8,0:1|0:2,0:2:0:0:
375,117,233601,1,2,0:1:0:0:
375,117,233685,1,0,0:2:0:0:
375,117,233768,1,0,0:2:0:0:
290,23,233935,5,2,0:2:0:0:
253,121,234101,1,8,0:2:0:0:
152,88,234268,2,0,P|60:92|22:188,1,191.999994140625,2|0,0:1|0:2,0:2:0:0:
118,283,234768,2,0,P|131:230|149:186,1,95.9999970703126,10|0,0:2|0:2,0:2:0:0:
294,228,235101,1,2,0:2:0:0:
375,179,235268,2,0,P|362:126|344:82,1,95.9999970703126,2|8,0:1|0:2,0:0:0:0:
261,18,235601,5,2,0:2:0:0:
261,18,235685,1,0,0:2:0:0:
261,18,235768,1,2,0:1:0:0:
224,148,235935,1,0,0:2:0:0:
147,55,236101,1,8,0:2:0:0:
224,148,236268,1,2,0:1:0:0:
459,39,236601,5,2,0:1:0:0:
371,114,236768,1,8,0:2:0:0:
484,166,236935,1,0,0:2:0:0:
484,166,237018,1,0,0:2:0:0:
484,166,237101,2,0,P|498:219|491:268,1,95.9999970703126,4|0,0:2|0:0,0:0:0:0:
406,363,237435,5,10,0:2:0:0:
303,339,237601,1,0,0:2:0:0:
203,376,237768,1,2,0:2:0:0:
116,315,237935,2,0,P|112:267|125:221,1,95.9999970703126,2|8,0:1|0:2,0:2:0:0:
220,126,238268,1,2,0:1:0:0:
220,126,238351,1,0,0:2:0:0:
220,126,238435,2,0,P|271:147|377:73,1,191.999994140625,0|8,0:2|0:2,0:1:0:0:
512,192,238935,5,2,0:2:0:0:
424,251,239101,2,0,P|389:239|316:229,1,95.9999970703126,2|0,0:1|0:2,0:0:0:0:
220,126,239435,1,10,0:2:0:0:
166,227,239601,2,0,P|120:241|72:248,1,95.9999970703126,2|0,0:1|0:2,0:2:0:0:
221,384,239935,2,0,P|227:336|242:290,1,95.9999970703126,2|8,0:1|0:2,0:2:0:0:
343,204,240268,5,2,0:2:0:0:
343,204,240351,1,0,0:2:0:0:
343,204,240435,1,0,0:2:0:0:
244,145,240601,1,0,0:2:0:0:
337,77,240768,1,8,0:2:0:0:
244,8,240935,6,2,P|196:44|71:22,1,191.999994140625,6|0,0:2|0:2,0:1:0:0:
163,95,241435,1,12,0:2:0:0:
163,95,241601,1,0,0:2:0:0:
57,141,241768,1,2,0:2:0:0:
154,202,241935,5,8,3:2:0:0:
177,199,242018,1,8,3:2:0:0:
201,196,242101,1,8,3:2:0:0:
225,192,242185,1,8,3:2:0:0:
249,189,242268,1,8,3:2:0:0:
272,185,242351,1,8,3:2:0:0:
296,182,242435,6,0,P|321:269|307:353,1,160,4|0,1:1|0:2,0:2:0:0:
243,377,242935,2,0,P|207:370|160:367,1,80,2|8,1:2|0:2,0:2:0:0:
84,321,243268,1,2,0:2:0:0:
84,321,243435,1,0,0:2:0:0:
164,269,243601,2,0,P|174:230|180:190,1,80,2|0,0:2|1:2,0:2:0:0:
133,105,243935,5,10,0:2:0:0:
68,164,244101,1,0,1:2:0:0:
2,112,244268,1,0,0:2:0:0:
2,112,244351,1,0,0:2:0:0:
2,112,244435,2,0,P|7:72|18:33,1,80,8|0,0:2|0:2,0:2:0:0:
228,93,244768,2,0,P|223:53|212:14,1,80,8|8,0:2|0:2,0:2:0:0:
89,178,245101,6,0,P|60:266|79:356,1,160,6|0,1:2|0:2,0:2:0:0:
174,368,245601,2,0,L|189:280,1,80,2|8,1:2|0:2,0:2:0:0:
277,176,245935,2,0,L|290:254,1,80,2|0,0:2|0:2,0:2:0:0:
381,384,246268,2,0,L|394:305,1,80,6|0,1:2|0:2,0:2:0:0:
479,235,246601,5,8,3:2:0:0:
475,215,246685,1,8,3:2:0:0:
472,195,246768,1,8,3:2:0:0:
469,175,246851,1,8,3:2:0:0:
465,156,246935,1,8,3:2:0:0:
462,136,247018,1,8,3:2:0:0:
459,116,247101,2,0,L|450:72,3,40,8|8|8|8,3:2|3:2|3:2|3:2,0:0:0:0:
411,71,247435,2,0,L|402:27,3,40,8|8|8|8,3:2|3:2|3:2|3:2,0:0:0:0:
360,21,247768,6,0,P|285:14|240:142,1,207.999990478516,6|8,1:1|0:2,0:2:0:0:
142,212,248268,2,0,P|75:193|35:188,1,103.999995239258,2|8,0:1|0:2,0:0:0:0:
189,350,248601,2,0,P|240:341|289:326,1,103.999995239258,2|8,0:1|0:2,0:0:0:0:
441,264,248935,5,2,0:1:0:0:
418,384,249101,1,8,0:2:0:0:
369,312,249268,5,2,0:1:0:0:
346,192,249435,1,8,0:2:0:0:
296,119,249601,5,2,0:1:0:0:
273,239,249768,1,8,0:2:0:0:
153,216,249935,1,0,0:2:0:0:
83,177,250101,5,8,3:2:0:0:
81,164,250185,1,8,3:2:0:0:
80,151,250268,1,8,3:2:0:0:
79,138,250351,1,8,3:2:0:0:
78,125,250435,6,2,P|85:72|100:11,1,111.999996582031,2|0,0:1|0:1,0:1:0:0:
321,147,250768,2,0,P|314:94|299:33,1,111.999996582031,10|0,0:1|0:2,0:2:0:0:
187,229,251101,1,2,0:1:0:0:
345,302,251268,2,2,P|412:291|456:276,1,111.999996582031,14|0,0:2|0:2,0:1:0:0:
221,382,251601,2,2,P|167:365|112:356,1,111.999996582031,14|0,0:2|0:2,0:1:0:0:
0,285,251935,5,2,0:1:0:0:
106,223,252101,1,8,0:2:0:0:
12,142,252268,1,8,3:2:0:0:
3,125,252351,1,8,3:2:0:0:
1,107,252435,1,8,3:2:0:0:
1,88,252518,1,8,3:2:0:0:
3,70,252601,1,8,3:3:0:0:
12,54,252685,1,8,3:3:0:0:
24,39,252768,1,4,3:3:0:0:
39,29,252851,1,4,3:3:0:0:
57,22,252935,2,2,P|78:28|122:15,1,55.9999982910157,14|8,3:1|3:2,0:1:0:0:
