osu file format v14

[General]
AudioFilename: audio.mp3
AudioLeadIn: 0
PreviewTime: 61067
Countdown: 0
SampleSet: Soft
StackLeniency: 0.7
Mode: 0
LetterboxInBreaks: 0
WidescreenStoryboard: 1

[Editor]
Bookmarks: 7775,18442,29442,39775,50442,55942,56025,56108,61108,93108,114775,125108,135775,146442,146858,146942,147025,178442,189108,199775,210442,215775,215858,218442,221108
DistanceSpacing: 1.2
BeatDivisor: 4
GridSize: 32
TimelineZoom: 1.7

[Metadata]
Title:U
TitleUnicode:U
Artist:KOTOKO
ArtistUnicode:KOTOKO
Creator:Lasse
Version:Hard
Source:マテリアルブレイブ イグニッション
Tags:you Material Brave Ignition japanese rock full version visual novel eroge
BeatmapID:2979624
BeatmapSetID:1440106

[Difficulty]
HPDrainRate:4.6
CircleSize:3.8
OverallDifficulty:6.8
ApproachRate:8
SliderMultiplier:1.4
SliderTickRate:1

[Events]
//Background and Video events
0,0,"cg.jpg",0,0
//Break Periods
2,210635,215018
//Storyboard Layer 0 (Background)
//Storyboard Layer 1 (Fail)
//Storyboard Layer 2 (Pass)
//Storyboard Layer 3 (Foreground)
//Storyboard Layer 4 (Overlay)
//Storyboard Sound Samples

[TimingPoints]
1102,333.333333333333,4,2,1,70,1,0
7268,-80,4,2,1,70,0,0
7435,-100,4,2,1,60,0,0
7768,-100,4,2,1,70,0,0
18435,-133.333333333333,4,2,1,60,0,0
18768,-133.333333333333,4,2,1,50,0,0
28268,-123.456790123457,4,2,1,55,0,0
29435,-111.111111111111,4,2,1,60,0,0
39768,-133.333333333333,4,2,1,55,0,0
49601,-133.333333333333,4,2,1,60,0,0
50435,-111.111111111111,4,2,1,65,0,0
55768,-100,4,2,1,70,0,0
58685,-100,4,2,1,35,0,0
58768,-100,4,2,1,70,0,0
60601,-100,4,2,1,60,0,0
61101,-90.9090909090909,4,1,1,70,0,0
82351,-90.9090909090909,4,1,1,35,0,0
82435,-90.9090909090909,4,1,1,70,0,0
92601,-90.9090909090909,4,1,1,65,0,0
93101,-100,4,2,1,70,0,0
103768,-133.333333333333,4,2,1,60,0,0
105768,-133.333333333333,4,2,1,45,0,0
109101,-133.333333333333,4,2,1,50,0,0
110935,-121.951219512195,4,2,1,50,0,0
111268,-111.111111111111,4,2,1,55,0,0
114435,-111.111111111111,4,2,1,60,0,0
125101,-111.111111111111,4,2,1,60,0,0
135768,-111.111111111111,4,2,1,65,0,0
141101,-99.9999999999999,4,2,1,70,0,0
144018,-99.9999999999999,4,2,1,35,0,0
144101,-99.9999999999999,4,2,1,70,0,0
145935,-99.9999999999999,4,2,1,60,0,0
146435,-90.9090909090909,4,1,1,70,0,0
167685,-90.9090909090909,4,1,1,35,0,0
167768,-90.9090909090909,4,1,1,70,0,0
178435,-125,4,2,1,60,0,0
182268,-100,4,2,1,60,0,0
183768,-125,4,2,1,60,0,0
187601,-111.111111111111,4,2,1,65,0,0
189101,-90.9090909090909,4,2,1,70,0,0
196935,-76.9230769230769,4,2,1,70,0,0
197268,-90.9090909090909,4,2,1,70,0,0
198268,-76.9230769230769,4,2,1,70,0,0
198518,-76.9230769230769,4,2,1,35,0,0
198601,-90.9090909090909,4,2,1,70,0,0
202268,-83.3333333333333,4,2,1,70,0,0
202601,-90.9090909090909,4,2,1,70,0,0
203601,-83.3333333333333,4,2,1,70,0,0
203851,-83.3333333333333,4,2,1,35,0,0
203935,-90.9090909090909,4,2,1,70,0,0
204935,-76.9230769230769,4,2,1,70,0,0
205435,-90.9090909090909,4,2,1,70,0,0
206268,-76.9230769230769,4,2,1,70,0,0
206601,-90.9090909090909,4,2,1,70,0,0
207601,-71.4285714285714,4,2,1,70,0,0
207935,-90.9090909090909,4,2,1,70,0,0
208935,-71.4285714285714,4,2,1,75,0,0
210435,-71.4285714285714,4,2,1,60,0,0
215268,-166.666666666667,4,2,1,40,0,0
215768,-166.666666666667,4,2,1,45,0,0
216935,-153.846153846154,4,2,1,50,0,0
218435,-100,4,2,1,55,0,0
219685,-100,4,2,1,60,0,0
220601,-100,4,2,1,65,0,0
221101,-90.9090909090909,4,1,1,75,0,0
241935,-90.9090909090909,4,1,1,70,0,0
242435,-99.9999999999999,4,2,1,65,0,0
246601,-99.9999999999999,4,2,1,60,0,0
247101,-99.9999999999999,4,2,1,65,0,0
247435,-99.9999999999999,4,2,1,70,0,0
247768,-83.3333333333333,4,1,1,75,0,1
250435,-83.3333333333333,4,1,1,80,0,1
253018,-90.9090909090909,4,1,1,70,0,0

[Colours]
Combo1 : 250,180,240
Combo2 : 120,200,230
Combo3 : 255,230,130
Combo4 : 160,230,150

[HitObjects]
1,266,7268,5,10,3:2:0:0:
60,314,7435,2,0,P|77:311|96:300,3,35,8|0|0|0,3:2|3:2|3:2|3:2,0:0:0:0:
118,279,7768,6,0,P|120:216|143:135,1,140,6|8,1:1|0:2,0:1:0:0:
197,80,8268,2,0,P|228:86|290:105,1,70,2|0,0:1|1:2,0:2:0:0:
341,60,8601,2,2,P|372:54|434:35,1,70,2|8,1:1|0:2,0:2:0:0:
487,75,8935,1,2,1:1:0:0:
503,242,9268,1,2,1:1:0:0:
421,219,9435,1,8,0:2:0:0:
369,284,9601,2,0,P|352:345|277:354,1,140,2|0,0:1|1:2,0:2:0:0:
221,301,10101,2,0,L|219:256,3,35,8|0|0|0,3:2|3:2|3:2|3:2,0:0:0:0:
202,234,10435,6,0,B|180:175|232:162|198:98,1,140,2|8,1:1|0:2,0:2:0:0:
133,44,10935,2,0,P|100:43|58:30,1,70,2|0,0:1|1:2,0:2:0:0:
83,134,11268,2,0,P|50:135|8:148,1,70,2|8,1:1|0:2,0:2:0:0:
97,224,11601,1,2,1:1:0:0:
255,168,11935,1,2,1:1:0:0:
237,249,12101,1,8,0:2:0:0:
300,304,12268,2,0,P|379:327|423:270,1,140,2|0,0:1|1:2,0:2:0:0:
475,226,12768,2,0,L|463:174,3,35,8|0|0|0,3:2|3:2|3:2|3:2,0:0:0:0:
474,156,13101,6,0,B|498:93|443:94|477:20,2,140,6|8|0,1:2|0:2|1:2,0:2:0:0:
393,183,13935,2,0,P|350:173|305:170,1,70,0|8,1:2|0:2,0:2:0:0:
248,207,14268,2,0,B|213:280|269:278|244:342,1,140,2|0,1:2|1:2,0:2:0:0:
170,381,14768,1,10,0:2:0:0:
29,288,15101,2,0,P|22:214|66:138,1,140,2|10,1:2|0:2,0:0:0:0:
1,90,15601,2,0,P|57:101|145:57,1,140,2|2,1:1|0:2,0:0:0:0:
214,12,16101,5,10,0:1:0:0:
214,12,16268,1,0,0:2:0:0:
259,93,16435,2,0,P|263:136|244:256,1,140,2|10,1:1|0:1,0:0:0:0:
182,293,16935,1,8,3:3:0:0:
182,293,17018,1,8,3:3:0:0:
182,293,17101,2,2,P|148:280|94:278,1,70,2|0,1:2|0:2,0:1:0:0:
240,365,17435,2,2,P|304:373|382:333,1,140,10|0,0:2|0:2,0:1:0:0:
434,262,17935,5,8,3:3:0:0:
368,209,18101,1,8,3:2:0:0:
421,143,18268,1,8,3:2:0:0:
486,196,18435,1,4,1:1:0:0:
414,61,18768,6,0,L|359:50,1,52.5000020027161,10|0,0:2|0:2,0:2:0:0:
303,98,19101,2,0,P|253:120|203:81,1,105.000004005432,0|8,1:2|0:2,0:0:0:0:
153,147,19601,2,0,P|103:169|53:130,1,105.000004005432,2|0,0:2|0:2,0:2:0:0:
1,102,20101,2,0,L|13:206,1,105.000004005432,8|0,0:2|1:2,0:0:0:0:
58,267,20601,2,0,P|87:264|109:253,1,52.5000020027161,2|8,1:2|0:2,0:2:0:0:
175,289,20935,2,0,P|204:286|226:275,1,52.5000020027161,2|0,0:2|1:2,0:2:0:0:
308,172,21435,6,0,L|311:101,1,52.5000020027161,10|0,0:2|0:2,0:2:0:0:
360,62,21768,2,0,P|399:49|473:82,1,105.000004005432,0|8,1:2|0:2,0:0:0:0:
504,127,22268,2,0,L|499:239,1,105.000004005432,2|0,0:2|0:2,0:2:0:0:
456,295,22768,1,8,2:2:0:0:
456,295,22935,2,0,P|431:304|393:299,1,52.5000020027161,2|0,2:2|1:2,0:2:0:0:
342,262,23268,2,0,B|347:215|314:185|314:185|279:187,1,105.000004005432,2|2,1:2|1:2,0:0:0:0:
225,218,23768,2,0,P|186:231|112:198,1,105.000004005432,0|8,1:2|0:2,0:2:0:0:
45,83,24435,6,0,L|167:66,1,105.000004005432,2|8,1:2|0:2,0:2:0:0:
217,101,24935,2,0,L|276:104,1,52.5000020027161,2|0,0:2|1:2,0:2:0:0:
335,65,25268,2,0,L|394:62,1,52.5000020027161,2|8,0:2|0:2,0:2:0:0:
452,102,25601,2,0,P|468:154|465:218,1,105.000004005432,2|2,2:2|1:2,0:2:0:0:
366,318,26268,1,2,1:2:0:0:
366,318,26435,2,0,P|307:306|254:304,1,105.000004005432,0|8,1:2|0:2,0:2:0:0:
195,261,26935,5,2,0:2:0:0:
195,261,27101,2,0,P|191:208|180:157,1,105.000004005432,0|8,1:2|0:2,0:2:0:0:
119,110,27601,1,2,0:2:0:0:
65,164,27768,2,0,P|54:215|50:267,1,105.000004005432,0|8,1:2|0:2,0:2:0:0:
121,335,28268,5,8,3:3:0:0:
121,335,28351,1,8,3:2:0:0:
121,335,28435,2,0,P|158:325|193:324,2,56.7000013842774,8|8|4,3:2|3:3|3:3,0:0:0:0:
51,379,28935,1,8,3:2:0:0:
51,379,29018,1,8,3:2:0:0:
51,379,29101,1,4,1:2:0:0:
10,220,29435,6,0,P|14:185|28:150,1,62.9999980773926,10|0,0:2|0:2,0:0:0:0:
78,98,29768,1,0,1:1:0:0:
78,98,29935,2,0,P|74:63|60:28,1,62.9999980773926,2|0,0:2|0:2,0:2:0:0:
166,72,30268,1,2,1:1:0:0:
166,72,30435,2,0,P|236:69|286:35,1,125.999996154785,0|8,1:1|0:2,0:1:0:0:
342,94,30935,2,0,P|376:102|411:116,1,62.9999980773926,2|0,0:1|1:2,0:2:0:0:
301,167,31268,2,0,P|267:175|232:189,1,62.9999980773926,2|8,1:1|0:2,0:2:0:0:
351,233,31601,2,0,P|385:241|420:255,1,62.9999980773926,2|0,1:1|1:2,0:0:0:0:
294,378,32101,6,0,P|260:370|225:356,1,62.9999980773926,10|0,0:2|0:2,0:2:0:0:
156,348,32435,1,0,1:2:0:0:
156,348,32601,2,0,P|122:356|87:370,1,62.9999980773926,2|8,0:2|0:2,0:2:0:0:
22,323,32935,1,2,1:1:0:0:
22,323,33101,2,0,P|16:279|44:190,1,125.999996154785,0|8,1:1|0:2,0:2:0:0:
86,135,33601,2,0,P|84:99|72:58,1,62.9999980773926,2|0,0:1|1:2,0:2:0:0:
164,170,33935,2,0,P|165:138|172:107,1,62.9999980773926,2|8,1:1|0:2,0:2:0:0:
226,46,34268,1,2,1:2:0:0:
292,93,34435,1,6,1:2:0:0:
448,44,34768,6,0,P|454:76|457:122,1,62.9999980773926,10|0,0:2|0:2,0:2:0:0:
492,185,35101,1,0,1:2:0:0:
492,185,35268,2,0,P|489:216|483:247,1,62.9999980773926,2|8,0:2|0:2,0:2:0:0:
434,314,35601,1,2,1:1:0:0:
434,314,35685,1,0,1:2:0:0:
434,314,35768,2,0,P|384:299|344:294,1,62.9999980773926,0|0,1:2|1:2,0:0:0:0:
295,323,36101,1,8,0:2:0:0:
232,269,36268,2,0,P|230:228|236:185,1,62.9999980773926,2|0,0:1|1:2,0:2:0:0:
272,134,36601,2,0,P|274:102|271:71,1,62.9999980773926,2|8,1:1|0:2,0:2:0:0:
197,7,36935,5,2,0:2:0:0:
132,57,37101,2,0,P|85:67|8:27,1,125.999996154785,6|8,1:2|0:2,0:1:0:0:
66,100,37601,2,0,P|77:144|76:167,1,62.9999980773926,2|0,0:1|1:2,0:2:0:0:
114,234,37935,2,0,P|112:265|103:295,1,62.9999980773926,2|8,1:1|0:2,0:2:0:0:
170,368,38268,6,2,L|253:352,1,62.9999980773926,6|0,0:2|0:2,0:1:0:0:
326,292,38601,2,2,L|265:281,1,62.9999980773926,2|8,1:2|0:2,0:1:0:0:
161,220,38935,1,2,0:2:0:0:
161,220,39101,2,2,L|223:209,1,62.9999980773926,8|0,0:2|1:2,0:1:0:0:
282,144,39435,2,0,L|293:91,3,31.4999990386963,8|8|8|8,0:2|0:2|0:2|0:2,0:0:0:0:
298,88,39768,6,0,P|341:74|418:89,1,105.000004005432,6|0,1:2|0:2,0:2:0:0:
470,125,40268,1,0,1:2:0:0:
470,125,40435,2,0,L|485:233,1,105.000004005432,10|0,0:2|0:2,0:2:0:0:
489,307,40935,2,0,P|456:302|433:283,1,52.5000020027161,2|0,0:1|1:2,0:2:0:0:
369,325,41268,2,0,P|336:330|313:349,1,52.5000020027161,10|0,2:1|1:2,0:2:0:0:
167,379,41768,6,0,P|165:327|179:276,1,105.000004005432,10|8,0:2|0:2,0:2:0:0:
219,208,42268,1,8,0:2:0:0:
296,221,42435,2,0,P|342:221|403:188,1,105.000004005432,2|0,1:2|0:2,0:2:0:0:
438,132,42935,1,0,1:2:0:0:
438,132,43101,2,0,P|439:69|416:8,1,105.000004005432,8|0,0:2|0:2,0:2:0:0:
350,49,43601,2,0,P|328:54|275:54,1,52.5000020027161,2|0,0:1|1:2,0:2:0:0:
230,97,43935,2,0,P|203:95|178:89,1,52.5000020027161,2|0,0:1|1:2,0:2:0:0:
35,23,44435,2,0,P|8:96|7:137,1,105.000004005432,8|8,0:2|0:2,0:2:0:0:
12,201,44935,5,8,0:2:0:0:
80,238,45101,2,0,P|136:220|195:222,1,105.000004005432,6|0,1:2|0:2,0:2:0:0:
236,283,45601,1,0,1:2:0:0:
236,283,45768,2,0,P|285:299|337:301,1,105.000004005432,10|0,0:2|0:2,0:2:0:0:
388,241,46268,1,2,0:2:0:0:
388,241,46435,2,0,P|375:203|367:172,1,52.5000020027161,0|8,1:2|0:2,0:0:0:0:
331,123,46768,2,0,P|338:93|349:63,1,52.5000020027161,0|2,1:2|0:2,0:0:0:0:
402,17,47101,2,0,P|448:11|509:51,1,105.000004005432,8|8,0:2|0:2,0:2:0:0:
512,115,47601,5,8,0:2:0:0:
468,180,47768,2,0,P|422:186|361:146,1,105.000004005432,2|0,1:2|0:2,0:2:0:0:
300,124,48268,2,2,P|254:118|193:158,1,105.000004005432,2|2,1:2|0:2,0:1:0:0:
143,303,48935,2,2,L|133:245,1,52.5000020027161,6|0,1:2|0:2,0:1:0:0:
60,211,49268,2,2,L|50:153,1,52.5000020027161,2|8,1:2|0:2,0:1:0:0:
90,85,49601,5,8,0:2:0:0:
90,85,49685,1,8,0:2:0:0:
90,85,49768,2,0,P|119:85|149:77,1,52.5000020027161,8|8,0:3|0:2,0:0:0:0:
210,43,50101,2,0,L|230:9,3,26.2500010013581,8|8|4|4,0:3|0:3|0:3|0:3,0:0:0:0:
254,14,50435,6,0,P|298:27|327:102,1,125.999996154785,6|8,1:1|0:2,0:2:0:0:
260,142,50935,2,0,P|195:134|118:131,1,125.999996154785,2|0,0:2|1:2,0:2:0:0:
69,178,51435,1,10,0:2:0:0:
69,178,51601,1,0,1:2:0:0:
118,243,51768,2,0,P|183:251|260:254,1,125.999996154785,2|8,0:1|0:2,0:2:0:0:
341,122,52435,6,0,P|344:92|353:51,1,62.9999980773926,2|0,1:2|1:2,0:2:0:0:
432,64,52768,2,0,P|462:67|503:76,1,62.9999980773926,10|0,0:2|0:2,0:2:0:0:
502,155,53101,2,0,P|499:185|478:292,1,125.999996154785,2|8,1:1|0:2,0:2:0:0:
438,348,53601,2,0,P|376:335|313:327,1,125.999996154785,2|0,0:2|1:2,0:2:0:0:
214,380,54101,5,10,0:2:0:0:
214,380,54268,2,0,L|222:315,1,62.9999980773926,2|0,1:1|0:2,0:2:0:0:
169,253,54601,2,0,L|177:188,1,62.9999980773926,2|8,1:1|0:2,0:2:0:0:
251,151,54935,1,2,3:1:0:0:
251,151,55101,2,0,L|259:86,1,62.9999980773926,0|2,3:2|1:2,0:0:0:0:
211,20,55435,1,8,0:2:0:0:
155,79,55601,1,8,0:2:0:0:
76,21,55768,6,0,P|38:26|2:110,1,140,6|8,1:1|0:2,0:2:0:0:
50,179,56268,2,0,P|87:171|124:170,1,70,2|0,0:1|1:2,0:2:0:0:
160,258,56601,2,0,P|123:266|86:267,1,70,2|8,1:1|0:2,0:2:0:0:
209,183,56935,2,0,P|220:117|282:93,1,140,2|0,1:1|1:2,0:2:0:0:
355,50,57435,1,8,0:2:0:0:
472,169,57768,6,0,P|474:204|471:247,1,70,2|0,1:2|1:2,0:0:0:0:
464,326,58101,1,10,0:2:0:0:
464,326,58268,1,8,0:2:0:0:
389,364,58435,2,2,P|352:348|323:340,1,70,2|0,1:1|0:0,0:1:0:0:
254,280,58768,2,0,P|220:289|188:303,1,70,12|0,0:2|0:2,0:2:0:0:
125,370,59101,1,2,1:2:0:0:
125,370,59268,2,2,P|91:360|59:346,1,70,12|0,0:2|0:2,0:1:0:0:
1,257,59601,6,0,P|11:183|58:113,1,140,6|0,1:1|1:2,0:2:0:0:
132,153,60101,2,0,P|158:159|220:142,1,70,8|0,0:2|0:2,0:2:0:0:
200,152,60351,1,8,0:2:0:0:
200,152,60435,1,8,0:2:0:0:
264,90,60601,2,0,L|280:43,5,35,8|8|4|4|8|8,3:3|3:3|3:3|3:3|3:3|3:3,0:0:0:0:
300,27,61101,6,0,P|360:26|427:122,1,154.000004699707,6|10,1:1|0:2,0:2:0:0:
437,172,61601,1,2,0:1:0:0:
293,262,61935,1,2,1:2:0:0:
347,326,62101,1,8,0:2:0:0:
276,373,62268,2,0,P|218:360|115:358,1,154.000004699707,2|2,0:1|0:2,0:2:0:0:
42,380,62768,1,8,0:2:0:0:
8,302,62935,1,2,0:1:0:0:
89,279,63101,2,0,P|97:238|103:113,1,154.000004699707,0|8,0:0|0:2,0:0:0:0:
42,26,63601,5,2,0:2:0:0:
124,46,63768,2,0,P|170:38|209:17,1,77.0000023498536,2|0,0:1|0:2,0:2:0:0:
272,95,64101,2,0,P|310:99|345:115,1,77.0000023498536,10|0,0:2|0:2,0:2:0:0:
386,189,64435,1,2,0:2:0:0:
314,233,64601,2,0,P|275:228|240:212,1,77.0000023498536,2|0,0:1|0:2,0:2:0:0:
149,157,64935,5,2,0:2:0:0:
149,157,65101,2,0,P|129:211|124:324,2,154.000004699707,2|10|0,0:1|0:2|0:2,0:0:0:0:
199,87,65935,1,0,0:2:0:0:
279,63,66101,2,0,P|356:82|432:66,1,154.000004699707,8|4,2:2|1:2,0:0:0:0:
511,200,66768,5,10,0:2:0:0:
511,200,66935,1,0,0:2:0:0:
450,258,67101,1,2,0:2:0:0:
384,203,67268,2,0,P|345:188|282:179,1,77.0000023498536,2|0,0:1|0:2,0:2:0:0:
234,218,67601,2,0,P|230:290|194:384,1,154.000004699707,2|0,0:1|0:2,0:2:0:0:
119,381,68101,2,0,P|83:366|45:358,1,77.0000023498536,10|0,0:1|0:2,0:2:0:0:
3,284,68435,2,0,P|11:246|25:210,1,77.0000023498536,2|0,0:1|0:2,0:2:0:0:
90,156,68768,1,2,0:2:0:0:
163,198,68935,2,0,P|213:212|329:186,1,154.000004699707,2|0,0:1|0:2,0:1:0:0:
397,119,69435,5,8,0:2:0:0:
397,119,69601,1,0,0:2:0:0:
352,46,69768,2,0,P|277:28|202:43,1,154.000004699707,2|0,0:2|0:2,0:2:0:0:
99,0,70268,2,2,L|113:180,1,154.000004699707,6|8,0:2|3:2,0:1:0:0:
119,260,70768,5,8,3:3:0:0:
39,308,70935,1,8,3:3:0:0:
93,382,71101,1,4,3:3:0:0:
173,334,71268,2,0,L|228:325,5,38.5000011749268,8|8|8|8|8|8,3:2|3:2|3:2|3:2|3:2|3:2,0:0:0:0:
247,342,71768,6,0,P|262:297|245:176,1,154.000004699707,6|10,0:1|0:2,0:2:0:0:
204,122,72268,1,2,0:1:0:0:
328,7,72601,1,2,0:2:0:0:
399,53,72768,1,8,0:2:0:0:
477,20,72935,2,0,P|495:94|482:169,1,154.000004699707,0|2,0:1|0:2,0:2:0:0:
451,248,73435,1,8,0:2:0:0:
370,222,73601,1,2,0:1:0:0:
321,291,73768,2,0,P|253:306|163:261,1,154.000004699707,0|8,0:0|0:2,0:0:0:0:
111,206,74268,5,2,0:2:0:0:
190,175,74435,2,0,P|197:153|198:70,1,77.0000023498536,2|0,0:1|0:2,0:2:0:0:
157,27,74768,2,0,P|136:20|52:19,1,77.0000023498536,10|0,0:2|0:2,0:2:0:0:
9,59,75101,1,2,0:2:0:0:
1,143,75268,2,0,P|2:181|13:218,1,77.0000023498536,2|8,0:1|0:2,0:2:0:0:
117,286,75601,5,2,0:2:0:0:
117,286,75768,2,0,P|170:270|300:284,2,154.000004699707,2|10|0,0:1|0:2|0:2,0:0:0:0:
50,339,76601,1,0,0:2:0:0:
6,265,76768,2,0,P|5:189|49:100,1,154.000004699707,8|4,2:2|1:2,0:0:0:0:
183,37,77435,6,0,P|221:48|267:47,1,77.0000023498536,10|0,0:2|0:2,0:0:0:0:
338,21,77768,1,2,0:2:0:0:
410,65,77935,2,0,P|414:95|402:158,1,77.0000023498536,2|8,0:1|0:2,0:2:0:0:
344,197,78268,2,0,P|293:179|163:172,1,154.000004699707,2|0,0:1|0:2,0:2:0:0:
110,182,78768,1,10,0:2:0:0:
62,252,78935,2,0,P|63:283|71:335,1,77.0000023498536,2|0,0:1|0:2,0:2:0:0:
159,384,79268,5,2,0:2:0:0:
235,347,79435,1,8,0:2:0:0:
314,373,79601,2,0,P|408:377|478:361,1,154.000004699707,6|0,0:1|0:2,0:2:0:0:
507,293,80101,1,8,0:2:0:0:
507,293,80268,1,0,0:2:0:0:
451,228,80435,2,0,P|357:224|287:240,1,154.000004699707,0|8,0:2|0:2,0:2:0:0:
231,317,80935,6,2,P|155:330|78:325,1,154.000004699707,6|0,0:2|0:2,0:1:0:0:
16,266,81435,1,8,0:2:0:0:
70,202,81601,1,0,0:1:0:0:
70,202,81685,1,0,0:2:0:0:
70,202,81768,2,0,B|95:136|40:116|71:50,1,154.000004699707,2|12,0:2|0:2,0:0:0:0:
238,19,82435,6,0,P|288:17|333:7,1,77.0000023498536,6|0,0:2|0:2,0:2:0:0:
390,65,82768,2,0,P|392:115|402:160,1,77.0000023498536,10|0,0:2|0:2,0:2:0:0:
344,217,83101,2,0,P|294:219|249:229,1,77.0000023498536,0|2,0:2|0:2,0:0:0:0:
209,296,83435,1,8,0:2:0:0:
280,353,83601,2,0,P|330:351|375:341,1,77.0000023498536,2|0,0:1|0:2,0:2:0:0:
449,378,83935,2,0,P|442:340|442:301,1,77.0000023498536,2|8,0:1|0:2,0:2:0:0:
481,217,84268,2,0,P|480:178|474:140,1,77.0000023498536,2|0,0:1|0:2,0:0:0:0:
437,48,84601,5,2,0:2:0:0:
372,103,84768,1,8,0:2:0:0:
296,64,84935,2,0,P|231:47|137:61,1,154.000004699707,2|0,0:1|0:2,0:2:0:0:
81,112,85435,2,0,L|-10:115,1,77.0000023498536,10|0,0:2|0:2,0:2:0:0:
73,198,85768,1,2,0:2:0:0:
73,198,85935,2,0,P|65:248|73:280,1,77.0000023498536,2|8,0:1|0:2,0:2:0:0:
136,354,86268,5,2,0:2:0:0:
136,354,86351,1,0,0:2:0:0:
136,354,86435,2,0,P|194:342|319:338,1,154.000004699707,2|8,0:1|0:2,0:0:0:0:
352,281,86935,2,0,P|427:295|504:298,1,154.000004699707,2|2,0:1|0:1,0:0:0:0:
510,214,87435,1,8,0:2:0:0:
427,212,87601,1,0,0:2:0:0:
427,212,87685,1,0,0:2:0:0:
427,212,87768,2,0,P|427:173|432:134,1,77.0000023498536,4|0,0:2|0:2,0:2:0:0:
462,46,88101,5,10,0:2:0:0:
379,67,88268,1,0,0:2:0:0:
300,33,88435,1,2,0:2:0:0:
218,54,88601,2,0,P|179:54|125:42,1,77.0000023498536,2|8,0:1|0:2,0:2:0:0:
61,18,88935,1,2,0:1:0:0:
61,18,89101,2,0,P|40:62|44:176,1,154.000004699707,0|8,0:2|0:2,0:1:0:0:
1,266,89601,5,2,0:2:0:0:
75,321,89768,2,0,P|148:312|231:283,1,154.000004699707,2|10,0:1|0:2,0:0:0:0:
269,205,90268,2,0,P|259:167|251:129,1,77.0000023498536,2|0,0:1|0:2,0:2:0:0:
286,44,90601,2,0,P|323:34|361:26,1,77.0000023498536,2|8,0:1|0:2,0:2:0:0:
457,61,90935,1,2,0:2:0:0:
457,61,91018,1,0,0:2:0:0:
457,61,91101,2,0,P|479:134|493:210,1,154.000004699707,0|8,0:2|0:2,0:0:0:0:
461,322,91601,6,2,P|406:305|296:308,1,154.000004699707,6|0,0:2|0:2,0:1:0:0:
227,340,92101,1,12,0:2:0:0:
227,340,92268,1,0,0:2:0:0:
170,266,92435,1,2,0:2:0:0:
253,230,92601,2,0,L|260:173,5,38.5000011749268,8|8|8|8|8|8,3:2|3:2|3:2|3:2|3:2|3:2,0:0:0:0:
281,165,93101,6,0,P|305:93|272:10,1,140,6|8,1:1|0:2,0:1:0:0:
206,18,93601,2,0,P|163:12|110:0,1,70,2|0,0:1|1:2,0:2:0:0:
117,89,93935,2,2,P|74:95|21:107,1,70,2|8,1:1|0:2,0:2:0:0:
3,171,94268,1,2,1:1:0:0:
64,327,94601,1,2,1:1:0:0:
138,288,94768,1,8,0:2:0:0:
200,344,94935,2,0,P|271:367|326:314,1,140,2|0,0:1|1:2,0:2:0:0:
362,258,95435,2,0,L|355:210,3,35,8|0|0|0,3:2|3:2|3:2|3:2,0:0:0:0:
344,191,95768,6,0,P|273:214|218:161,1,140,2|8,1:1|0:2,0:2:0:0:
141,188,96268,2,0,L|162:115,1,70,2|0,0:1|1:2,0:2:0:0:
242,100,96601,2,0,L|263:27,1,70,2|8,1:1|0:2,0:2:0:0:
341,5,96935,1,2,1:1:0:0:
492,81,97268,1,2,1:1:0:0:
435,143,97435,1,8,0:2:0:0:
494,202,97601,2,0,P|512:255|482:342,1,140,2|0,0:1|1:2,0:2:0:0:
412,368,98101,2,0,L|378:362,3,35,8|0|0|0,3:2|3:2|3:2|3:2,0:0:0:0:
348,340,98435,6,0,B|372:277|320:277|351:204,2,140,6|8|0,1:2|0:2|1:2,0:2:0:0:
269,370,99268,2,0,P|237:360|186:350,1,70,0|8,1:2|0:2,0:2:0:0:
121,378,99601,2,0,P|108:330|141:224,1,140,2|0,1:2|1:2,0:2:0:0:
193,191,100101,1,10,0:2:0:0:
336,279,100435,2,0,P|385:295|466:264,1,140,2|10,1:2|0:2,0:0:0:0:
505,191,100935,2,0,L|477:50,1,140,2|2,1:1|0:2,0:0:0:0:
390,9,101435,5,10,0:1:0:0:
390,9,101601,1,0,0:2:0:0:
339,83,101768,2,0,P|296:115|214:68,1,140,2|10,1:1|0:1,0:0:0:0:
146,122,102268,1,8,3:3:0:0:
146,122,102351,1,8,3:3:0:0:
146,122,102435,2,2,P|104:94|74:92,1,70,2|0,1:2|0:2,0:1:0:0:
51,168,102768,2,2,P|18:219|28:322,1,140,10|0,0:2|0:2,0:1:0:0:
98,357,103268,5,8,3:3:0:0:
169,312,103435,1,8,3:2:0:0:
224,374,103601,1,8,3:2:0:0:
295,329,103768,1,4,1:1:0:0:
481,192,105768,6,0,L|496:313,2,105.000004005432,0|0|2,3:2|0:2|0:2,0:0:0:0:
459,31,109101,5,4,1:2:0:0:
459,31,110435,6,0,P|425:62|366:65,1,105.000004005432,2|0,0:2|0:2,0:2:0:0:
312,128,110935,2,0,P|283:108|188:106,1,114.800001751709,2|2,0:2|0:1,0:2:0:0:
34,28,111601,6,0,L|2:31,2,31.4999990386963,2|0|0,1:2|1:2|1:2,0:0:0:0:
107,47,111935,2,0,L|138:43,2,31.4999990386963,0|0|0,1:2|1:2|1:2,0:0:0:0:
33,107,112268,2,0,L|-13:112,2,31.4999990386963,2|0|0,1:2|1:2|1:2,0:0:0:0:
106,126,112601,2,0,L|152:121,2,31.4999990386963,0|0|0,1:2|1:2|1:2,0:0:0:0:
32,186,112935,2,0,L|-14:191,2,31.4999990386963,2|0|0,1:2|1:2|1:2,0:0:0:0:
105,205,113268,2,0,L|151:200,2,31.4999990386963,0|0|0,1:2|1:2|1:2,0:0:0:0:
48,273,113601,5,8,3:3:0:0:
48,273,113685,1,8,3:3:0:0:
48,273,113768,2,0,P|38:307|42:353,2,62.9999980773926,8|8|4,3:3|3:3|3:3,0:0:0:0:
113,213,114268,1,8,3:2:0:0:
113,213,114351,1,8,3:2:0:0:
113,213,114435,1,6,1:2:0:0:
189,343,114768,6,0,P|218:347|264:335,1,62.9999980773926,10|0,0:2|0:2,0:0:0:0:
328,315,115101,1,0,1:1:0:0:
269,256,115268,2,0,P|260:223|260:171,1,62.9999980773926,2|0,0:2|0:2,0:2:0:0:
288,118,115601,1,2,1:1:0:0:
288,118,115768,2,0,P|348:116|382:56,1,125.999996154785,0|8,1:1|0:2,0:1:0:0:
311,22,116268,2,0,L|239:11,1,62.9999980773926,2|0,0:1|1:2,0:2:0:0:
194,74,116601,2,0,L|122:63,1,62.9999980773926,2|8,1:1|0:2,0:2:0:0:
75,124,116935,2,0,L|3:113,1,62.9999980773926,2|0,1:1|1:2,0:0:0:0:
133,238,117435,6,0,P|167:228|199:223,1,62.9999980773926,10|0,0:2|0:2,0:0:0:0:
275,232,117768,1,0,1:2:0:0:
276,314,117935,2,0,P|310:324|342:329,1,62.9999980773926,2|8,0:2|0:2,0:2:0:0:
410,384,118268,1,2,1:1:0:0:
410,384,118435,2,0,P|413:331|427:242,1,125.999996154785,0|8,1:1|0:2,0:2:0:0:
485,204,118935,2,0,P|482:168|474:135,1,62.9999980773926,2|0,0:1|1:2,0:2:0:0:
405,99,119268,2,0,P|402:63|394:30,1,62.9999980773926,2|8,1:1|0:2,0:2:0:0:
321,3,119601,1,2,1:2:0:0:
295,81,119768,1,6,1:2:0:0:
142,21,120101,6,0,P|135:51|131:94,1,62.9999980773926,10|0,0:2|0:2,0:2:0:0:
131,165,120435,1,0,1:2:0:0:
206,195,120601,2,0,P|243:186|285:179,1,62.9999980773926,2|8,0:2|0:2,0:2:0:0:
356,215,120935,1,2,1:1:0:0:
356,215,121018,1,0,1:2:0:0:
356,215,121101,2,0,P|363:243|372:348,1,125.999996154785,0|8,1:2|0:2,0:0:0:0:
298,378,121601,2,0,P|261:370|225:366,1,62.9999980773926,2|0,0:1|1:2,0:2:0:0:
160,332,121935,2,0,P|128:336|98:343,1,62.9999980773926,2|8,1:1|0:2,0:2:0:0:
17,384,122268,5,2,0:2:0:0:
2,303,122435,2,0,P|8:248|32:163,1,125.999996154785,6|8,1:2|0:2,0:1:0:0:
57,104,122935,2,0,P|49:69|37:30,1,62.9999980773926,2|0,0:1|1:2,0:2:0:0:
148,101,123268,2,0,P|139:131|132:161,1,62.9999980773926,2|8,1:1|0:2,0:2:0:0:
191,241,123601,6,2,L|259:233,1,62.9999980773926,6|0,0:2|0:2,0:1:0:0:
340,284,123935,2,2,L|332:216,1,62.9999980773926,2|8,1:2|0:2,0:1:0:0:
383,135,124268,1,2,0:2:0:0:
383,135,124435,2,2,L|315:143,1,62.9999980773926,8|0,0:2|1:2,0:1:0:0:
238,144,124768,2,0,L|234:110,3,31.4999990386963,8|8|8|8,0:2|0:2|0:2|0:2,0:0:0:0:
220,84,125101,6,0,P|175:63|79:91,1,125.999996154785,4|8,1:1|0:2,0:2:0:0:
3,189,125768,2,0,L|13:332,1,125.999996154785,2|8,1:2|0:2,0:2:0:0:
71,370,126268,2,0,P|115:354|149:346,1,62.9999980773926,2|0,0:1|1:2,0:2:0:0:
211,364,126601,2,0,P|241:372|270:384,2,62.9999980773926,2|8|0,1:1|0:2|0:2,0:2:0:0:
138,318,127101,6,0,P|119:263|137:180,1,125.999996154785,2|8,1:2|0:2,0:2:0:0:
179,132,127601,1,0,0:2:0:0:
179,132,127768,2,0,P|219:152|301:113,1,125.999996154785,2|8,1:2|0:2,0:2:0:0:
354,73,128268,2,0,P|409:46|466:67,1,125.999996154785,0|0,0:0|1:2,0:0:0:0:
512,148,128768,5,10,0:2:0:0:
512,148,128935,2,0,L|503:236,1,62.9999980773926,2|0,0:1|1:2,0:2:0:0:
446,267,129268,2,0,P|414:259|373:254,1,62.9999980773926,2|8,0:1|0:2,0:2:0:0:
311,281,129601,1,2,1:1:0:0:
311,281,129685,1,0,1:2:0:0:
311,281,129768,2,0,L|302:193,1,62.9999980773926,0|0,1:2|1:2,0:0:0:0:
291,137,130101,1,8,0:2:0:0:
211,159,130268,1,0,0:2:0:0:
137,122,130435,6,0,P|76:114|34:187,1,125.999996154785,6|8,1:2|0:2,0:2:0:0:
27,239,130935,1,0,0:2:0:0:
82,299,131101,2,0,P|142:307|183:263,1,125.999996154785,2|8,1:2|0:2,0:2:0:0:
202,183,131601,1,2,0:2:0:0:
202,183,131768,2,0,P|177:130|197:59,1,125.999996154785,0|8,1:2|0:2,0:0:0:0:
254,13,132268,2,0,P|299:24|341:26,1,62.9999980773926,2|0,0:1|1:2,0:2:0:0:
348,100,132601,2,0,P|393:89|435:87,1,62.9999980773926,2|8,1:1|0:2,0:2:0:0:
502,162,132935,5,2,0:2:0:0:
502,162,133101,2,0,P|499:193|490:233,1,62.9999980773926,2|0,1:1|0:2,0:2:0:0:
433,282,133435,2,0,P|398:271|366:267,1,62.9999980773926,14|0,0:2|0:2,0:2:0:0:
371,267,133685,1,8,0:2:0:0:
371,267,133768,1,0,1:2:0:0:
332,347,133935,2,0,P|297:357|265:362,1,62.9999980773926,10|0,0:1|1:2,2:2:0:0:
192,299,134268,6,0,P|192:226|210:159,1,125.999996154785,8|8,3:3|3:3,0:0:0:0:
248,105,134768,1,8,3:2:0:0:
200,38,134935,1,8,3:3:0:0:
200,38,135018,1,8,3:3:0:0:
200,38,135101,2,0,P|155:25|124:25,1,62.9999980773926,4|8,3:3|3:3,0:0:0:0:
56,20,135435,1,8,3:2:0:0:
11,88,135601,1,8,3:2:0:0:
43,163,135768,6,0,B|61:221|26:229|36:287,1,125.999996154785,6|8,1:1|0:2,0:2:0:0:
82,354,136268,2,0,P|150:343|224:343,1,125.999996154785,2|0,0:2|1:2,0:2:0:0:
287,375,136768,1,10,0:2:0:0:
287,375,136935,1,0,1:2:0:0:
336,309,137101,2,0,B|354:251|319:243|329:184,1,125.999996154785,2|8,0:1|0:2,0:2:0:0:
381,29,137768,6,0,P|422:19|463:20,1,62.9999980773926,2|0,1:2|1:2,0:2:0:0:
502,77,138101,2,0,P|512:118|511:159,1,62.9999980773926,10|0,0:2|0:2,0:2:0:0:
452,199,138435,2,0,P|397:183|317:188,1,125.999996154785,2|8,1:1|0:2,0:2:0:0:
267,240,138935,2,0,P|204:237|143:253,1,125.999996154785,2|0,0:2|1:2,0:2:0:0:
66,294,139435,5,10,0:2:0:0:
66,294,139601,2,0,L|57:227,1,62.9999980773926,2|0,1:1|0:2,0:2:0:0:
9,164,139935,2,0,L|17:101,1,62.9999980773926,2|8,1:1|0:2,0:2:0:0:
76,45,140268,1,2,3:1:0:0:
76,45,140435,2,0,P|114:49|142:40,1,62.9999980773926,0|2,3:2|1:2,0:0:0:0:
213,10,140768,1,8,0:2:0:0:
265,77,140935,1,8,0:2:0:0:
341,33,141101,6,0,P|405:29|461:88,1,140,6|8,1:1|0:2,0:2:0:0:
441,166,141601,2,0,P|478:158|510:157,1,70,2|0,0:1|1:2,0:2:0:0:
464,251,141935,2,0,P|429:249|394:242,1,70,2|8,1:1|0:2,0:2:0:0:
324,181,142268,2,0,P|275:133|207:135,1,140,2|0,1:1|1:2,0:2:0:0:
132,173,142768,1,8,0:2:0:0:
181,332,143101,6,0,P|216:324|251:321,1,70,2|0,1:2|1:2,0:0:0:0:
330,362,143435,1,10,0:2:0:0:
330,362,143601,1,8,0:2:0:0:
400,316,143768,2,2,P|408:284|408:238,1,70,2|0,1:1|0:0,0:1:0:0:
335,205,144101,2,0,P|327:173|327:127,1,70,12|0,0:2|0:2,0:2:0:0:
385,73,144435,1,2,1:2:0:0:
385,73,144601,2,2,P|430:70|462:60,1,70,12|0,0:2|0:2,0:1:0:0:
308,21,144935,6,0,P|255:9|160:27,1,140,6|0,1:1|1:2,0:2:0:0:
133,98,145435,2,0,P|98:94|60:78,1,70,8|0,0:2|0:2,0:2:0:0:
65,81,145685,1,8,0:2:0:0:
65,81,145768,1,8,0:2:0:0:
13,153,145935,2,0,L|22:205,5,35,8|8|4|4|8|8,3:3|3:3|3:3|3:3|3:3|3:3,0:0:0:0:
34,224,146435,6,0,P|87:236|190:199,1,154.000004699707,6|10,1:1|0:2,0:2:0:0:
245,152,146935,1,2,0:1:0:0:
335,294,147268,1,2,1:2:0:0:
415,321,147435,1,8,0:2:0:0:
490,283,147601,2,0,P|509:211|491:128,1,154.000004699707,2|2,0:1|0:2,0:0:0:0:
433,75,148101,1,8,0:2:0:0:
348,82,148268,1,2,0:1:0:0:
310,157,148435,2,0,B|283:216|341:249|315:308,1,154.000004699707,0|8,0:0|0:2,0:0:0:0:
233,368,148935,5,2,0:2:0:0:
149,353,149101,2,0,P|116:344|71:337,1,77.0000023498536,2|0,0:1|0:2,0:2:0:0:
16,274,149435,2,0,P|21:235|31:198,1,77.0000023498536,10|0,0:2|0:2,0:2:0:0:
92,139,149768,1,2,0:2:0:0:
165,181,149935,2,0,P|202:190|240:196,1,77.0000023498536,2|0,0:1|0:2,0:2:0:0:
330,141,150268,5,2,0:2:0:0:
330,141,150435,2,0,P|338:65|431:30,2,154.000004699707,2|10|0,0:1|0:2|0:2,0:0:0:0:
371,214,151268,1,0,0:2:0:0:
323,284,151435,2,0,B|251:305|251:305|173:259,1,154.000004699707,8|4,2:2|1:2,0:0:0:0:
56,160,152101,5,10,0:2:0:0:
56,160,152268,1,0,0:2:0:0:
126,112,152435,1,2,0:2:0:0:
199,152,152601,2,0,P|245:151|281:144,1,77.0000023498536,2|0,0:1|0:2,0:2:0:0:
340,90,152935,2,0,P|415:32|488:46,1,154.000004699707,2|0,0:1|0:2,0:2:0:0:
507,112,153435,2,0,P|499:152|493:203,1,77.0000023498536,10|0,0:1|0:2,0:2:0:0:
493,272,153768,2,0,P|498:310|505:347,1,77.0000023498536,2|0,0:1|0:2,0:2:0:0:
409,314,154101,1,2,0:2:0:0:
338,361,154268,2,0,P|263:376|186:354,1,154.000004699707,2|0,0:1|0:2,0:1:0:0:
110,295,154768,5,8,0:2:0:0:
110,295,154935,1,0,0:2:0:0:
196,263,155101,2,0,P|218:223|201:106,1,154.000004699707,2|0,0:2|0:2,0:2:0:0:
111,200,155601,2,2,P|95:125|123:55,1,154.000004699707,6|8,0:2|3:2,0:1:0:0:
213,10,156101,5,8,3:3:0:0:
278,75,156268,1,8,3:3:0:0:
353,22,156435,1,4,3:3:0:0:
421,83,156601,2,0,B|440:91|440:91|458:86,5,38.5000011749268,8|8|8|8|8|8,3:2|3:2|3:2|3:2|3:2|3:2,0:0:0:0:
489,107,157101,6,0,P|510:160|487:273,1,154.000004699707,6|10,0:1|0:2,0:2:0:0:
450,324,157601,1,2,0:1:0:0:
289,379,157935,1,2,0:2:0:0:
244,307,158101,1,8,0:2:0:0:
276,228,158268,2,0,P|297:175|274:62,1,154.000004699707,0|2,0:1|0:2,0:2:0:0:
204,108,158768,1,8,0:2:0:0:
140,51,158935,1,2,0:1:0:0:
64,88,159101,2,0,P|43:141|66:254,1,154.000004699707,0|8,0:0|0:2,0:0:0:0:
2,313,159601,5,2,0:2:0:0:
70,363,159768,2,0,P|114:354|150:350,1,77.0000023498536,2|0,0:1|0:2,0:2:0:0:
224,318,160101,2,0,P|262:322|299:330,1,77.0000023498536,10|0,0:2|0:2,0:2:0:0:
372,376,160435,1,2,0:2:0:0:
443,330,160601,2,0,P|452:299|454:254,1,77.0000023498536,2|8,0:1|0:2,0:2:0:0:
388,173,160935,5,2,0:2:0:0:
388,173,161101,2,0,P|380:115|404:19,2,154.000004699707,2|10|0,0:1|0:2|0:2,0:0:0:0:
433,245,161935,1,0,0:2:0:0:
367,298,162101,2,0,P|295:300|207:272,1,154.000004699707,8|4,2:2|1:2,0:0:0:0:
99,154,162768,6,0,P|105:121|120:76,1,77.0000023498536,10|0,0:2|0:2,0:0:0:0:
179,20,163101,1,2,0:2:0:0:
257,52,163268,2,0,P|299:57|337:50,1,77.0000023498536,2|8,0:1|0:2,0:2:0:0:
409,14,163601,2,0,P|463:16|481:122,1,154.000004699707,2|0,0:1|0:2,0:2:0:0:
510,183,164101,1,10,0:2:0:0:
432,218,164268,2,0,P|397:208|351:202,1,77.0000023498536,2|0,0:1|0:2,0:2:0:0:
278,262,164601,5,2,0:2:0:0:
195,281,164768,1,8,0:2:0:0:
155,206,164935,2,0,P|171:135|131:50,1,154.000004699707,6|0,0:1|0:2,0:2:0:0:
74,19,165435,1,8,0:2:0:0:
74,19,165601,1,0,0:2:0:0:
21,85,165768,2,0,P|5:156|45:241,1,154.000004699707,0|8,0:2|0:2,0:0:0:0:
131,297,166268,6,2,P|204:270|281:275,1,154.000004699707,6|0,0:2|0:2,0:1:0:0:
351,317,166768,1,8,0:2:0:0:
440,302,166935,1,0,0:1:0:0:
440,302,167018,1,0,0:2:0:0:
440,302,167101,2,0,P|468:231|453:157,1,154.000004699707,2|12,0:2|0:2,0:0:0:0:
343,27,167768,6,0,P|293:25|248:15,1,77.0000023498536,6|0,0:2|0:2,0:2:0:0:
193,62,168101,2,0,P|186:99|186:138,1,77.0000023498536,10|0,0:2|0:2,0:2:0:0:
239,204,168435,2,0,P|289:206|334:216,1,77.0000023498536,0|2,0:2|0:2,0:0:0:0:
353,286,168768,1,8,0:2:0:0:
303,355,168935,2,0,P|253:353|208:343,1,77.0000023498536,2|0,0:1|0:2,0:2:0:0:
140,384,169268,2,0,P|146:346|146:307,1,77.0000023498536,2|8,0:1|0:2,0:2:0:0:
85,248,169601,2,0,P|46:247|8:241,1,77.0000023498536,2|0,0:1|0:2,0:0:0:0:
59,149,169935,6,0,P|64:110|75:73,1,77.0000023498536,2|8,0:2|0:2,0:0:0:0:
147,29,170268,2,0,B|239:30|191:87|298:79,1,154.000004699707,2|0,0:1|0:2,0:2:0:0:
376,79,170768,2,0,P|374:28|362:-24,1,77.0000023498536,10|0,0:2|0:2,0:2:0:0:
292,87,171101,1,2,0:2:0:0:
292,87,171268,2,0,P|294:138|306:190,1,77.0000023498536,2|8,0:1|0:2,0:2:0:0:
394,210,171601,5,2,0:2:0:0:
394,210,171685,1,0,0:2:0:0:
394,210,171768,2,0,P|456:231|461:326,1,154.000004699707,2|8,0:1|0:2,0:0:0:0:
407,367,172268,2,0,P|357:350|253:350,1,154.000004699707,2|2,0:1|0:1,0:0:0:0:
177,380,172768,1,8,0:2:0:0:
96,352,172935,1,0,0:2:0:0:
96,352,173018,1,0,0:2:0:0:
96,352,173101,2,0,P|96:313|105:273,1,77.0000023498536,4|0,0:2|0:2,0:2:0:0:
172,206,173435,5,10,0:2:0:0:
248,242,173601,1,0,0:2:0:0:
322,202,173768,1,2,0:2:0:0:
397,239,173935,2,0,B|436:248|436:248|470:234,1,77.0000023498536,2|8,0:1|0:2,0:2:0:0:
504,156,174268,1,2,0:1:0:0:
504,156,174435,2,0,P|500:104|405:63,1,154.000004699707,0|8,0:2|0:2,0:1:0:0:
331,3,174935,5,2,0:2:0:0:
262,52,175101,2,0,B|195:81|195:81|107:37,1,154.000004699707,2|10,0:1|0:2,0:0:0:0:
66,108,175601,2,0,P|40:118|-4:150,1,77.0000023498536,2|0,0:1|0:2,0:2:0:0:
12,230,175935,2,0,P|26:265|50:296,1,77.0000023498536,2|8,0:1|0:2,0:2:0:0:
137,331,176268,1,2,0:2:0:0:
137,331,176351,1,0,0:2:0:0:
137,331,176435,2,0,P|195:308|307:320,1,154.000004699707,0|8,0:2|0:2,0:0:0:0:
372,371,176935,6,2,L|345:193,1,154.000004699707,6|0,0:2|0:2,0:1:0:0:
328,133,177435,1,12,0:2:0:0:
328,133,177601,1,0,0:2:0:0:
235,123,177768,1,2,0:2:0:0:
208,211,177935,2,0,L|193:269,5,38.5000011749268,8|8|8|8|8|8,3:2|3:2|3:2|3:2|3:2|3:2,0:0:0:0:
192,275,178435,6,0,P|139:282|84:241,1,112,6|2,0:2|0:2,0:1:0:0:
6,140,179101,1,10,0:1:0:0:
6,140,179268,2,0,L|19:78,1,56,0|0,0:2|0:2,0:0:0:0:
87,50,179601,2,0,P|140:57|195:16,1,112,2|8,1:2|0:2,0:2:0:0:
256,64,180101,1,2,1:2:0:0:
401,4,180435,2,0,L|389:79,1,56,10|0,0:1|0:2,0:0:0:0:
380,140,180768,1,10,0:2:0:0:
380,140,180935,1,8,0:2:0:0:
463,147,181101,6,0,B|499:169|499:169|474:260,1,112,2|2,1:2|0:2,0:2:0:0:
428,369,181768,1,14,0:1:0:0:
428,369,181935,2,0,L|414:293,1,56,0|0,0:2|0:2,0:0:0:0:
376,236,182268,2,0,P|342:270|250:236,1,140,10|10,0:2|0:2,0:2:0:0:
207,188,182768,1,0,1:2:0:0:
207,188,182935,1,8,0:2:0:0:
250,118,183101,1,12,0:2:0:0:
139,19,183435,1,8,0:2:0:0:
139,19,183601,1,8,0:2:0:0:
76,79,183768,6,0,L|83:210,1,112,6|2,1:2|0:2,0:2:0:0:
22,323,184435,1,10,0:1:0:0:
22,323,184601,2,0,P|53:307|93:309,1,56,0|0,0:2|0:2,0:0:0:0:
145,337,184935,2,0,P|187:359|253:333,1,112,2|8,1:2|0:2,0:2:0:0:
293,277,185435,2,0,P|277:223|283:150,1,112,2|10,1:2|0:1,0:2:0:0:
351,56,186101,1,12,0:2:0:0:
351,56,186268,1,8,0:2:0:0:
420,115,186435,6,0,L|412:180,1,56,2|8,1:2|0:2,0:0:0:0:
456,236,186768,2,0,L|497:242,2,28,8|8|8,0:3|0:3|0:3,0:0:0:0:
399,291,187101,1,8,0:2:0:0:
353,226,187268,1,4,0:3:0:0:
353,226,187351,1,4,0:3:0:0:
353,226,187435,1,4,0:3:0:0:
283,272,187601,6,0,P|247:272|210:246,1,62.9999980773926,8|0,0:2|0:2,0:2:0:0:
192,255,187851,2,0,L|188:207,1,31.4999990386963,8|8,0:2|0:2,0:0:0:0:
244,137,188101,2,0,P|261:98|241:37,1,94.499997116089,8|8,0:2|0:2,0:2:0:0:
218,45,188435,2,0,L|174:33,3,31.4999990386963,8|8|4|4,0:3|0:3|0:3|0:3,0:0:0:0:
157,45,188768,2,0,L|113:33,3,31.4999990386963,8|8|4|4,0:3|0:3|0:3|0:3,0:0:0:0:
90,48,189101,6,0,P|52:111|70:211,2,154.000004699707,6|8|0,1:1|0:2|1:2,0:2:0:0:
177,78,189935,2,0,P|221:85|257:69,1,77.0000023498536,2|8,1:2|0:2,0:2:0:0:
330,37,190268,1,2,1:1:0:0:
330,37,190351,1,0,1:2:0:0:
330,37,190435,1,0,1:2:0:0:
402,79,190601,2,0,P|407:131|388:164,1,77.0000023498536,2|8,1:2|0:2,0:2:0:0:
322,193,190935,2,0,P|285:181|248:188,1,77.0000023498536,2|0,0:2|1:2,0:2:0:0:
177,260,191268,6,0,B|160:333|213:366|213:366|244:355,1,154.000004699707,2|2,1:1|0:2,0:2:0:0:
327,328,191768,1,2,1:1:0:0:
327,328,191935,1,0,1:2:0:0:
403,364,192101,2,0,P|455:362|482:337,1,77.0000023498536,10|0,0:1|0:2,0:0:0:0:
511,271,192435,1,2,1:1:0:0:
494,188,192601,2,0,L|477:94,1,77.0000023498536,0|8,1:2|0:2,0:0:0:0:
404,72,192935,5,2,1:1:0:0:
404,72,193018,1,0,1:2:0:0:
404,72,193101,2,0,B|376:103|336:100|336:100|320:58|281:44,1,154.000004699707,0|10,1:2|0:2,0:0:0:0:
201,63,193601,2,0,P|188:91|187:158,1,77.0000023498536,2|0,0:1|1:2,0:2:0:0:
242,197,193935,2,0,P|255:225|256:292,1,77.0000023498536,2|8,1:1|0:2,0:2:0:0:
199,354,194268,5,8,3:2:0:0:
199,354,194351,1,8,3:2:0:0:
199,354,194435,2,0,B|126:330|130:391|48:362,1,154.000004699707,6|8,1:1|0:2,0:2:0:0:
1,293,194935,2,0,P|6:253|26:205,1,77.0000023498536,2|0,0:1|1:2,0:2:0:0:
72,155,195268,1,0,1:1:0:0:
72,155,195351,1,0,1:2:0:0:
72,155,195435,2,0,P|67:115|47:67,1,77.0000023498536,0|0,1:2|0:2,0:0:0:0:
116,13,195768,5,2,1:1:0:0:
186,60,195935,1,0,1:2:0:0:
267,36,196101,2,0,P|311:19|352:17,1,77.0000023498536,10|0,0:1|1:2,0:0:0:0:
424,33,196435,1,2,0:1:0:0:
476,98,196601,2,0,P|483:135|478:173,1,77.0000023498536,0|8,1:2|0:2,0:0:0:0:
394,250,196935,6,2,P|306:211|201:232,1,181.999991668702,6|0,0:2|1:2,0:1:0:0:
155,272,197435,1,10,0:2:0:0:
196,345,197601,2,0,P|230:361|277:362,1,77.0000023498536,2|0,0:1|1:2,0:2:0:0:
360,354,197935,1,2,1:1:0:0:
360,354,198018,1,0,1:2:0:0:
360,354,198101,1,8,0:2:0:0:
414,275,198268,6,2,B|402:211|402:211|415:180|415:180|393:71,1,181.999991668702,6|10,1:2|0:1,0:1:0:0:
343,33,198768,1,8,0:3:0:0:
343,33,198935,1,10,0:1:0:0:
279,88,199101,1,4,0:3:0:0:
203,49,199268,2,0,L|163:31,5,38.5000011749268,8|8|8|8|8|8,3:2|3:2|3:2|3:2|3:2|3:2,0:0:0:0:
129,28,199768,6,0,P|85:89|93:185,2,154.000004699707,6|8|0,0:1|0:2|1:2,0:2:0:0:
212,13,200601,1,2,1:1:0:0:
279,64,200768,1,8,0:2:0:0:
358,34,200935,2,0,P|402:95|394:191,1,154.000004699707,2|2,1:1|1:1,0:0:0:0:
351,240,201435,1,8,0:2:0:0:
351,240,201601,2,0,P|314:229|259:224,1,77.0000023498536,2|0,0:1|1:2,0:2:0:0:
203,179,201935,2,0,P|164:183|127:194,1,77.0000023498536,2|8,1:1|0:2,0:2:0:0:
61,263,202268,6,2,B|42:337|102:372|102:372|132:354|166:346,1,167.999994873047,6|0,1:1|1:2,0:1:0:0:
222,338,202768,2,2,P|267:361|310:364,1,77.0000023498536,8|0,0:2|0:2,0:1:0:0:
380,343,203101,1,10,0:1:0:0:
380,343,203185,1,8,0:2:0:0:
380,343,203268,2,0,P|391:285|391:245,1,77.0000023498536,8|10,0:2|0:2,0:0:0:0:
323,192,203601,6,2,B|234:165|249:234|161:204,1,167.999994873047,6|8,1:2|0:3,0:1:0:0:
85,242,204101,1,8,0:2:0:0:
43,180,204268,1,8,0:2:0:0:
43,180,204351,1,8,0:2:0:0:
43,180,204435,2,0,L|40:99,2,77.0000023498536,8|4|8,0:3|0:3|0:2,0:0:0:0:
91,260,204935,6,2,B|201:237|153:306|264:288,1,181.999991668702,6|0,1:1|3:2,0:1:0:0:
329,342,205435,2,0,P|361:343|410:354,1,77.0000023498536,0|8,3:2|0:2,0:0:0:0:
423,359,205685,1,8,0:2:0:0:
440,367,205768,2,0,P|482:350|458:240,1,154.000004699707,8|4,0:2|0:3,0:0:0:0:
411,183,206268,6,2,B|388:221|334:219|334:219|301:165|224:155,1,181.999991668702,6|8,1:2|0:3,2:1:0:0:
243,158,206685,1,8,0:3:0:0:
223,159,206768,2,0,P|180:171|143:164,1,77.0000023498536,4|4,0:3|0:3,0:0:0:0:
81,114,207101,2,0,P|80:69|100:29,1,77.0000023498536,12|8,0:2|0:3,0:0:0:0:
171,9,207435,1,14,0:2:0:0:
246,62,207601,6,0,B|360:84|310:12|433:31,1,195.999994018555,2|8,1:1|0:2,0:2:0:0:
499,99,208101,1,8,0:2:0:0:
499,99,208185,1,8,0:2:0:0:
499,99,208268,1,8,0:3:0:0:
477,181,208435,2,0,L|458:230,5,38.5000011749268,8|8|8|8|4|4,0:2|0:2|0:3|0:3|0:3|0:3,0:0:0:0:
442,256,208935,6,2,P|377:261|341:232,1,97.9999970092774,2|0,0:3|0:2,0:1:0:0:
289,155,209268,2,2,P|224:150|188:179,1,97.9999970092774,2|0,0:3|0:2,0:1:0:0:
142,258,209601,2,2,P|77:263|41:234,1,97.9999970092774,6|0,0:2|0:2,0:1:0:0:
4,159,209935,5,10,0:1:0:0:
99,128,210101,1,8,0:3:0:0:
99,128,210268,1,8,0:3:0:0:
24,61,210435,1,4,1:1:0:0:
0,76,215768,6,0,P|101:49|196:99,1,209.999993591309,2|0,0:2|0:2,0:2:0:0:
227,197,216935,2,0,P|304:328|458:288,1,318.499985420228,2|0,0:2|0:2,0:2:0:0:
488,165,218435,5,0,1:2:0:0:
430,104,218601,2,0,L|420:54,2,35,0|0|0,1:2|1:2|1:2,0:0:0:0:
387,177,218935,2,0,L|397:227,2,35,2|0|0,1:2|1:2|1:2,0:0:0:0:
317,130,219268,5,0,1:2:0:0:
317,130,219351,1,0,1:2:0:0:
317,130,219435,2,0,P|277:109|226:105,1,70,8|0,0:2|0:2,0:2:0:0:
235,106,219685,1,8,3:2:0:0:
217,107,219768,2,0,P|183:98|152:81,1,70,8|8,3:2|3:3,0:0:0:0:
93,21,220101,1,8,3:3:0:0:
29,76,220268,2,0,P|17:116|21:163,1,70,8|4,3:2|3:3,0:0:0:0:
76,203,220601,2,0,P|97:196|129:193,5,35,8|8|8|8|8|8,3:2|3:2|3:2|3:2|3:2|3:2,0:0:0:0:
144,210,221101,6,0,B|215:239|215:239|274:185,1,154.000004699707,6|10,0:1|0:2,0:2:0:0:
321,117,221601,1,2,0:1:0:0:
347,284,221935,1,2,0:2:0:0:
421,324,222101,1,8,0:2:0:0:
488,273,222268,2,0,P|512:211|493:124,1,154.000004699707,0|2,0:1|0:2,0:0:0:0:
440,62,222768,1,8,0:2:0:0:
371,110,222935,1,2,0:1:0:0:
302,59,223101,2,0,P|229:26|158:43,1,154.000004699707,0|8,0:0|0:2,0:0:0:0:
81,108,223601,5,2,0:2:0:0:
143,165,223768,2,0,L|220:155,1,77.0000023498536,2|0,0:1|0:2,0:2:0:0:
291,199,224101,2,0,L|368:209,1,77.0000023498536,10|0,0:2|0:2,0:2:0:0:
418,276,224435,1,2,0:2:0:0:
359,337,224601,2,0,L|282:347,1,77.0000023498536,2|8,0:1|0:2,0:2:0:0:
189,315,224935,5,2,0:2:0:0:
189,315,225101,2,0,B|163:236|217:248|197:165,2,154.000004699707,2|10|0,0:1|0:2|0:2,0:0:0:0:
129,375,225935,1,0,0:2:0:0:
52,337,226101,2,0,P|31:271|65:170,1,154.000004699707,8|4,2:2|1:2,0:0:0:0:
173,73,226768,6,0,P|211:75|248:61,1,77.0000023498536,10|0,0:2|0:2,0:0:0:0:
320,18,227101,1,2,0:2:0:0:
397,53,227268,2,0,P|416:83|414:145,1,77.0000023498536,2|8,0:1|0:2,0:0:0:0:
357,181,227601,2,0,B|319:163|319:163|255:177|256:252,1,154.000004699707,2|0,0:1|0:2,0:2:0:0:
251,328,228101,1,10,0:2:0:0:
319,378,228268,2,0,P|363:377|399:362,1,77.0000023498536,2|0,0:1|0:2,0:2:0:0:
476,313,228601,5,2,0:2:0:0:
419,249,228768,1,8,0:2:0:0:
482,192,228935,2,0,P|501:132|470:31,1,154.000004699707,6|0,0:1|0:2,0:2:0:0:
400,17,229435,1,8,0:2:0:0:
400,17,229601,1,0,0:2:0:0:
330,66,229768,2,0,P|311:126|342:227,1,154.000004699707,0|8,0:2|0:2,0:0:0:0:
402,296,230268,6,2,P|321:265|244:270,1,154.000004699707,6|0,1:2|0:0,0:1:0:0:
172,311,230768,1,8,0:2:0:0:
103,262,230935,1,0,0:1:0:0:
103,262,231018,1,0,0:2:0:0:
103,262,231101,2,0,P|86:193|110:102,1,154.000004699707,2|12,0:2|0:2,0:0:0:0:
245,20,231768,6,0,L|241:121,1,77.0000023498536,6|0,0:2|0:2,0:0:0:0:
259,179,232101,2,0,L|255:280,1,77.0000023498536,10|0,0:2|0:2,0:0:0:0:
295,330,232435,2,0,P|340:320|386:332,1,77.0000023498536,0|2,0:2|0:2,0:0:0:0:
436,379,232768,1,8,0:2:0:0:
499,323,232935,2,0,L|503:222,1,77.0000023498536,2|0,0:1|0:2,0:2:0:0:
442,185,233268,2,0,L|446:84,1,77.0000023498536,2|8,0:1|0:2,0:2:0:0:
387,45,233601,2,0,P|342:55|296:43,1,77.0000023498536,2|0,0:1|0:2,0:0:0:0:
221,4,233935,5,2,0:2:0:0:
181,79,234101,1,8,0:2:0:0:
235,143,234268,2,0,P|253:204|224:308,1,154.000004699707,2|0,0:1|0:2,0:2:0:0:
178,354,234768,2,0,L|89:365,1,77.0000023498536,10|0,0:2|0:2,0:2:0:0:
25,325,235101,1,2,0:2:0:0:
25,325,235268,2,0,P|15:280|19:242,1,77.0000023498536,2|8,0:1|0:2,0:0:0:0:
51,160,235601,5,2,0:2:0:0:
51,160,235685,1,0,0:2:0:0:
51,160,235768,2,0,P|99:187|195:145,1,154.000004699707,2|8,0:1|0:2,0:0:0:0:
239,232,236268,2,0,P|287:259|383:217,1,154.000004699707,2|2,0:1|0:1,0:0:0:0:
439,283,236768,1,8,0:2:0:0:
495,220,236935,1,0,0:2:0:0:
495,220,237018,1,0,0:2:0:0:
495,220,237101,2,0,P|498:181|490:142,1,77.0000023498536,4|0,0:2|0:0,0:0:0:0:
451,53,237435,5,10,0:2:0:0:
376,93,237601,1,0,0:2:0:0:
302,50,237768,1,2,0:2:0:0:
236,104,237935,2,0,P|228:141|231:179,1,77.0000023498536,2|8,0:1|0:2,0:2:0:0:
282,254,238268,1,2,0:1:0:0:
282,254,238435,2,0,P|361:240|437:247,1,154.000004699707,0|8,0:2|0:2,0:1:0:0:
512,310,238935,5,2,0:2:0:0:
447,364,239101,2,0,P|368:378|292:371,1,154.000004699707,2|10,0:1|0:2,0:0:0:0:
218,335,239601,2,0,P|201:297|180:264,1,77.0000023498536,2|0,0:1|0:2,0:2:0:0:
107,219,239935,2,0,P|56:224|21:222,1,77.0000023498536,2|8,0:1|0:2,0:2:0:0:
89,138,240268,1,2,0:2:0:0:
89,138,240351,1,0,0:2:0:0:
89,138,240435,2,0,P|100:87|217:46,1,154.000004699707,0|8,0:2|0:2,0:0:0:0:
266,93,240935,6,2,B|334:127|334:127|417:81,1,154.000004699707,6|0,0:2|0:2,0:1:0:0:
476,34,241435,1,12,0:2:0:0:
476,34,241601,1,0,0:2:0:0:
487,125,241768,1,2,0:2:0:0:
402,89,241935,2,0,L|346:67,5,38.5000011749268,8|8|8|8|8|8,3:2|3:2|3:2|3:2|3:2|3:2,0:0:0:0:
334,90,242435,6,0,B|301:148|363:164|335:225,1,140,4|0,1:1|0:2,0:2:0:0:
288,288,242935,2,0,P|239:272|191:276,1,70,2|8,1:2|0:2,0:2:0:0:
176,334,243268,2,0,P|141:337|108:350,1,70,2|0,0:2|0:2,0:0:0:0:
36,323,243601,2,0,P|21:298|23:181,1,140,2|10,0:2|0:2,0:2:0:0:
62,126,244101,1,0,1:2:0:0:
128,165,244268,2,0,L|149:251,2,70,0|8|0,0:2|0:2|0:2,0:0:0:0:
169,99,244768,2,0,L|185:30,1,70,8|8,0:2|0:2,0:2:0:0:
270,50,245101,6,0,P|327:27|425:37,1,140,6|0,1:2|0:2,0:2:0:0:
470,69,245601,2,0,L|484:160,1,70,2|8,1:2|0:2,0:2:0:0:
481,215,245935,2,0,L|467:306,1,70,2|0,0:2|0:2,0:2:0:0:
416,339,246268,2,0,P|379:342|331:324,1,70,6|0,1:2|0:2,0:2:0:0:
280,290,246601,1,8,3:2:0:0:
280,290,246685,1,8,3:2:0:0:
280,290,246768,2,0,L|271:243,3,35,8|8|8|8,3:2|3:2|3:2|3:2,0:0:0:0:
253,226,247101,2,0,L|244:179,3,35,8|8|8|8,3:2|3:2|3:2|3:2,0:0:0:0:
226,162,247435,2,0,L|217:115,3,35,8|8|8|8,3:2|3:2|3:2|3:2,0:0:0:0:
199,98,247768,6,0,P|145:82|61:169,1,167.999994873047,6|8,1:1|0:2,0:2:0:0:
82,245,248268,2,0,P|40:251|1:271,1,83.9999974365235,2|8,0:1|0:2,0:0:0:0:
33,365,248601,2,0,P|74:358|114:339,1,83.9999974365235,2|8,0:1|0:2,0:0:0:0:
187,272,248935,5,2,0:1:0:0:
187,272,249101,1,8,0:2:0:0:
264,322,249268,1,2,0:1:0:0:
264,322,249435,1,8,0:2:0:0:
335,264,249601,1,2,0:1:0:0:
335,264,249768,2,0,L|315:173,1,83.9999974365235,8|0,0:2|0:2,0:0:0:0:
241,128,250101,2,0,L|249:75,3,41.9999987182618,8|8|8|8,3:2|3:2|3:2|3:2,0:0:0:0:
274,53,250435,6,2,P|325:43|368:44,1,83.9999974365235,2|0,0:1|0:1,0:1:0:0:
426,116,250768,2,0,P|467:117|508:126,1,83.9999974365235,10|0,0:1|0:2,0:2:0:0:
503,226,251101,1,2,0:1:0:0:
503,226,251268,2,2,P|461:224|420:215,1,83.9999974365235,14|0,0:2|0:2,0:1:0:0:
343,281,251601,2,2,P|302:271|260:270,1,83.9999974365235,14|0,0:2|0:2,0:1:0:0:
172,322,251935,1,2,0:1:0:0:
109,243,252101,1,8,0:2:0:0:
197,191,252268,1,8,3:2:0:0:
197,191,252351,1,8,3:2:0:0:
197,191,252435,2,0,L|215:141,6,41.9999987182618,8|8|8|8|4|4|14,3:2|3:2|3:3|3:3|3:3|3:3|3:1,0:0:0:0:
