osu file format v14

[General]
AudioFilename: Special Life!.mp3
AudioLeadIn: 0
PreviewTime: 59195
Countdown: 0
SampleSet: Soft
StackLeniency: 0.7
Mode: 0
LetterboxInBreaks: 0
WidescreenStoryboard: 1

[Editor]
DistanceSpacing: 1.5
BeatDivisor: 4
GridSize: 4
TimelineZoom: 1.6

[Metadata]
Title:Special Life! (TV Size)
TitleUnicode:Special Life!(TV Size)
Artist:KOTOKO
ArtistUnicode:KOTOKO
Creator:Darksonic
Version:Insane!
Source:仮面のメイドガイ
Tags:kamen no maid guy opening madhouse hazu- japanese anime pop jpop j-pop the masked
BeatmapID:2015773
BeatmapSetID:962716

[Difficulty]
HPDrainRate:6
CircleSize:4
OverallDifficulty:8
ApproachRate:9
SliderMultiplier:1.6
SliderTickRate:1

[Events]
//Background and Video events
0,0,"BG.jpg",0,0
Video,-100,"Special Life!.mp4"
//Break Periods
//Storyboard Layer 0 (Background)
//Storyboard Layer 1 (Fail)
//Storyboard Layer 2 (Pass)
//Storyboard Layer 3 (Foreground)
//Storyboard Layer 4 (Overlay)
//Storyboard Sound Samples

[TimingPoints]
615,333.333333333333,4,2,1,30,1,0
615,-200,4,2,1,30,0,0
2781,-100,4,2,1,60,0,0
3281,-100,4,2,1,60,0,0
16614,-133.333333333333,4,2,1,50,0,0
27281,-100,4,2,1,60,0,0
48614,-166.666666666667,4,2,1,50,0,0
56864,-166.666666666667,4,2,1,10,0,0
56947,-100,4,2,1,60,0,0
58447,-250,4,2,1,30,0,0
58947,-250,4,2,1,10,0,0
59281,-86.9565217391304,4,2,1,70,0,1
69614,-86.9565217391304,4,2,1,70,0,0
69948,-86.9565217391304,4,2,1,70,0,1
83281,-100,4,2,1,60,0,0
85947,-100,4,2,1,60,0,0
87614,-100,4,2,1,40,0,0
88281,-100,4,2,1,30,0,0
88614,-100,4,2,1,20,0,0
88948,-100,4,2,1,10,0,0
89281,-100,4,2,1,5,0,0

[Colours]
Combo1 : 255,119,119
Combo2 : 255,172,89
Combo3 : 32,162,223

[HitObjects]
360,144,615,6,0,L|363:223,1,80,0|2,3:2|1:2,0:0:0:0:
344,144,1281,2,0,L|347:223,1,80,0|2,3:2|1:2,0:0:0:0:
328,144,1948,2,0,L|331:223,1,80,0|2,3:2|1:2,0:0:0:0:
312,144,2614,1,0,3:2:0:0:
196,216,2781,5,8,0:0:0:0:
328,296,2948,1,8,0:0:0:0:
312,144,3114,1,8,0:0:0:0:
179,216,3281,6,0,P|172:254|177:294,1,80,6|0,0:0|1:2,0:0:0:0:
256,352,3614,1,8,0:0:0:0:
399,251,3781,2,0,P|323:232|248:255,1,160,2|0,3:2|3:2,0:0:0:0:
380,344,4281,2,0,L|459:335,1,80,10|0,0:0|1:2,0:0:0:0:
484,164,4614,6,0,L|404:172,1,80,2|0,3:2|1:2,0:0:0:0:
308,184,4948,1,8,0:0:0:0:
192,63,5114,2,0,P|264:41|315:97,1,160,2|0,3:2|3:2,0:0:0:0:
188,180,5614,2,0,P|148:184|112:168,1,80,10|0,0:0|1:2,0:0:0:0:
220,264,5948,6,0,P|259:259|295:275,1,80,2|0,3:2|1:2,0:0:0:0:
240,356,6281,1,8,0:0:0:0:
184,175,6448,2,0,P|263:167|338:192,1,160,2|0,3:2|3:2,0:0:0:0:
404,335,6948,2,0,P|418:298|421:259,1,80,10|0,0:0|1:2,0:0:0:0:
355,115,7281,6,0,P|340:152|337:191,1,80,2|0,3:2|1:2,0:0:0:0:
436,176,7614,1,8,0:0:0:0:
284,76,7781,2,0,B|240:64|204:88|204:88|172:112|132:108,1,160,2|0,3:2|3:2,0:0:0:0:
32,224,8281,2,0,P|71:216|111:217,1,80,10|0,0:0|1:2,0:0:0:0:
248,316,8614,6,0,P|208:323|168:322,1,80,2|0,3:2|1:2,0:0:0:0:
204,228,8948,1,8,0:0:0:0:
352,136,9114,2,0,P|367:214|364:294,1,160,2|0,3:2|3:2,0:0:0:0:
268,176,9614,2,0,P|260:136|261:96,1,80,10|0,0:0|1:2,0:0:0:0:
416,28,9948,6,0,P|424:68|423:108,1,80,2|0,3:2|1:2,0:0:0:0:
356,180,10281,1,8,0:0:0:0:
192,128,10448,2,0,P|264:97|344:102,1,160,2|0,3:2|3:2,0:0:0:0:
248,228,10948,2,0,L|168:216,1,80,10|0,0:0|1:2,0:0:0:0:
280,316,11281,6,0,L|120:292,1,160,6|8,0:0|0:0,0:0:0:0:
60,216,11781,1,2,3:2:0:0:
100,72,11948,2,0,P|121:104|124:144,1,80,0|0,1:2|3:2,0:0:0:0:
60,216,12281,1,10,0:0:0:0:
200,208,12448,2,0,L|277:187,1,80,0|2,1:2|3:2,0:0:0:0:
304,92,12781,1,0,1:2:0:0:
200,208,12948,5,10,0:0:0:0:
356,223,13114,2,0,P|367:186|362:146,1,80,8|0,1:2|1:2,0:0:0:0:
192,208,13448,5,2,3:2:0:0:
352,224,13614,1,10,0:0:0:0:
184,208,13781,1,8,0:0:0:0:
244,352,13948,6,0,P|321:361|383:315,1,160,6|8,0:0|0:0,0:0:0:0:
272,172,14448,2,0,P|209:125|132:135,1,160,2|8,3:2|0:0,0:0:0:0:
167,283,14948,2,0,P|183:247|183:207,1,80,10|0,0:0|1:2,0:0:0:0:
44,240,15281,5,0,1:2:0:0:
200,288,15448,1,10,0:0:0:0:
308,172,15614,1,8,0:0:0:0:
200,288,15781,1,10,0:0:0:0:
184,132,15948,5,2,3:2:0:0:
292,16,16114,1,8,0:0:0:0:
348,152,16281,1,2,3:2:0:0:
292,16,16448,1,8,0:0:0:0:
348,152,16614,6,0,P|402:175|461:170,1,120.000004577637,6|0,0:0|1:2,0:0:0:0:
292,96,17114,1,0,1:2:0:0:
292,96,17281,2,0,P|237:72|178:77,1,120.000004577637,2|0,3:2|1:2,0:0:0:0:
112,152,17781,1,0,1:2:0:0:
224,232,17948,6,0,L|230:172,1,60.0000022888184,2|0,3:2|0:0,0:0:0:0:
144,288,18281,2,0,L|137:228,1,60.0000022888184,2|0,1:2|0:0,0:0:0:0:
316,261,18614,6,0,L|322:195,1,60.0000022888184,2|0,3:2|0:0,0:0:0:0:
228,322,18948,2,0,L|220:256,1,60.0000022888184,2|0,1:2|0:0,0:0:0:0:
144,168,19281,6,0,L|137:228,1,60.0000022888184,2|0,3:2|0:0,0:0:0:0:
236,160,19614,2,0,L|229:100,1,60.0000022888184,2|0,1:2|0:0,0:0:0:0:
164,56,19948,1,2,3:2:0:0:
164,56,20114,1,0,0:0:0:0:
60,192,20281,2,0,L|67:132,1,60.0000022888184,2|0,1:2|0:0,0:0:0:0:
247,31,20614,6,0,P|275:43|293:66,1,60.0000022888184,2|0,3:2|0:0,0:0:0:0:
432,132,20948,2,0,P|406:147|377:149,1,60.0000022888184,10|0,1:2|0:0,0:0:0:0:
300,152,21281,1,10,1:2:0:0:
172,56,21448,1,0,0:0:0:0:
292,209,21614,2,0,P|303:181|299:151,1,60.0000022888184,10|0,3:2|0:0,0:0:0:0:
96,131,21948,6,0,P|151:117|195:155,1,120.000004577637,6|0,0:0|1:2,0:0:0:0:
292,280,22448,1,0,1:2:0:0:
296,284,22614,2,0,P|252:321|196:307,1,120.000004577637,2|0,3:2|1:2,0:0:0:0:
195,155,23114,1,0,1:2:0:0:
392,132,23281,6,0,L|408:189,1,60.0000022888184,2|0,3:2|0:0,0:0:0:0:
248,152,23614,2,0,L|231:94,1,60.0000022888184,2|0,1:2|0:0,0:0:0:0:
403,154,23948,6,0,L|397:225,1,60.0000022888184,2|0,3:2|0:0,0:0:0:0:
233,115,24281,2,0,L|238:43,1,60.0000022888184,2|0,1:2|0:0,0:0:0:0:
304,168,24614,6,0,L|298:239,1,60.0000022888184,2|0,3:2|0:0,0:0:0:0:
196,276,24948,1,2,1:2:0:0:
136,180,25114,1,0,0:0:0:0:
304,168,25281,2,0,P|362:160|418:180,1,120.000004577637,2|2,3:2|1:2,0:0:0:0:
452,268,25781,1,8,0:0:0:0:
308,276,25948,5,10,0:0:0:0:
160,156,26114,2,0,L|162:96,1,60.0000022888184,10|0,0:0|0:0,0:0:0:0:
303,311,26448,5,10,0:0:0:0:
141,124,26614,2,0,L|158:48,1,60.0000022888184,10|0,0:0|0:0,0:0:0:0:
368,100,26948,2,0,L|350:176,1,60.0000022888184,10|0,0:0|0:0,0:0:0:0:
259,248,27281,6,0,P|190:283|113:267,1,160,6|10,0:0|0:0,0:0:0:0:
32,216,27781,1,0,0:0:0:0:
84,84,27948,1,2,1:2:0:0:
216,160,28114,2,0,P|256:168|300:156,1,80,2|8,1:2|0:0,0:0:0:0:
392,84,28448,1,2,0:0:0:0:
256,84,28614,1,0,3:2:0:0:
408,84,28781,2,0,P|448:76|492:88,1,80,2|8,1:2|0:0,0:0:0:0:
472,180,29114,1,2,1:2:0:0:
332,220,29281,2,0,P|324:180|336:136,1,80,2|0,1:2|0:0,0:0:0:0:
472,196,29614,2,0,P|480:236|468:280,1,80,10|0,0:0|0:0,0:0:0:0:
332,304,29948,6,0,B|280:300|260:260|260:260|220:244|189:255,1,160,2|8,3:2|0:0,0:0:0:0:
108,204,30448,1,2,0:0:0:0:
68,344,30614,2,0,L|147:350,1,80,2|0,1:2|1:2,0:0:0:0:
108,204,30948,2,0,L|28:197,1,80,10|0,0:0|0:0,0:0:0:0:
160,272,31281,1,2,3:2:0:0:
255,279,31448,1,0,1:2:0:0:
396,335,31614,2,0,P|411:299|404:260,1,80,10|0,0:0|0:0,0:0:0:0:
340,140,31948,1,2,1:2:0:0:
435,133,32114,1,0,1:2:0:0:
272,96,32281,2,0,P|256:132|263:171,1,80,10|2,0:0|1:2,0:0:0:0:
435,133,32614,6,0,P|442:94|426:57,1,80,2|0,3:2|0:0,0:0:0:0:
352,188,32948,2,0,P|366:224|398:247,1,80,10|0,0:0|0:0,0:0:0:0:
356,88,33281,2,0,B|276:80|276:80|198:98,1,160,2|8,1:2|0:0,0:0:0:0:
48,172,33781,2,0,L|136:148,1,80,2|0,0:0|3:2,0:0:0:0:
288,156,34114,2,0,L|200:180,1,80,2|8,1:2|0:0,0:0:0:0:
180,268,34448,1,2,0:0:0:0:
348,211,34614,2,0,P|364:175|363:135,1,80,2|0,1:2|1:2,0:0:0:0:
244,60,34948,2,0,P|206:74|178:102,1,80,10|0,0:0|0:0,0:0:0:0:
180,268,35281,6,0,P|246:233|235:159,1,160,2|8,3:2|0:0,0:0:0:0:
140,180,35781,1,2,0:0:0:0:
328,160,35948,2,0,P|335:198|330:238,1,80,2|0,1:2|1:2,0:0:0:0:
248,364,36281,2,0,P|240:325|245:285,1,80,10|0,0:0|0:0,0:0:0:0:
412,328,36614,1,2,3:2:0:0:
316,320,36781,1,0,1:2:0:0:
464,248,36948,2,0,L|468:160,1,80,10|0,0:0|0:0,0:0:0:0:
344,108,37281,1,2,1:2:0:0:
340,204,37448,1,0,1:2:0:0:
256,88,37614,1,10,0:0:0:0:
252,184,37781,1,2,1:2:0:0:
351,75,37948,6,0,P|330:42|296:21,1,80,2|0,3:2|0:0,0:0:0:0:
164,92,38281,2,0,L|243:88,1,80,10|0,0:0|0:0,0:0:0:0:
316,216,38614,2,0,P|361:153|351:75,1,160,2|8,1:2|0:0,0:0:0:0:
228,192,39114,2,0,L|238:271,1,80,2|0,0:0|3:2,0:0:0:0:
120,348,39448,2,0,L|109:268,1,80,2|8,1:2|0:0,0:0:0:0:
228,192,39781,1,2,0:0:0:0:
371,288,39948,2,0,P|339:310|300:317,1,80,2|0,1:2|1:2,0:0:0:0:
368,180,40281,2,0,P|400:157|439:150,1,80,10|0,0:0|0:0,0:0:0:0:
300,221,40614,6,0,B|276:181|299:139|299:139|320:109|303:68,1,160,0|8,3:2|0:0,0:0:0:0:
208,48,41114,1,2,0:0:0:0:
208,196,41281,2,0,P|215:235|233:270,1,80,2|0,1:2|1:2,0:0:0:0:
393,254,41614,2,0,P|386:215|368:180,1,80,10|0,0:0|0:0,0:0:0:0:
300,320,41948,1,2,3:2:0:0:
396,332,42114,1,0,1:2:0:0:
464,200,42281,2,0,P|472:161|468:122,1,80,10|0,0:0|0:0,0:0:0:0:
336,48,42614,1,2,1:2:0:0:
268,116,42781,1,0,1:2:0:0:
324,244,42948,1,10,0:0:0:0:
392,176,43114,1,2,1:2:0:0:
239,199,43281,6,0,P|200:202|163:219,1,80,2|0,3:2|0:0,0:0:0:0:
96,344,43614,2,0,P|135:341|172:324,1,80,10|0,0:0|0:0,0:0:0:0:
260,288,43948,1,2,1:2:0:0:
280,132,44114,2,0,P|253:162|239:199,1,80,2|8,1:2|0:0,0:0:0:0:
376,276,44448,2,0,B|400:200|400:200|384:121,1,160,2|2,0:0|1:2,0:0:0:0:
320,48,44948,1,8,0:0:0:0:
400,200,45114,1,2,0:0:0:0:
397,46,45281,2,0,P|359:38|320:48,1,80,2|0,1:2|1:2,0:0:0:0:
400,200,45614,2,0,P|439:209|478:199,1,80,10|0,0:0|0:0,0:0:0:0:
316,184,45948,6,0,P|238:166|160:186,1,160,2|8,3:2|0:0,0:0:0:0:
124,276,46448,1,2,0:0:0:0:
236,168,46614,2,0,L|229:88,1,80,2|0,1:2|1:2,0:0:0:0:
68,144,46948,2,0,L|74:224,1,80,10|2,0:0|0:0,0:0:0:0:
136,348,47281,1,0,3:2:0:0:
200,280,47448,1,2,1:2:0:0:
352,336,47614,2,0,P|313:343|274:340,1,80,10|0,0:0|0:0,0:0:0:0:
224,212,47948,1,2,1:2:0:0:
288,136,48114,1,0,1:2:0:0:
140,132,48281,1,10,0:0:0:0:
172,292,48448,1,10,0:0:0:0:
135,107,48614,6,0,P|88:107|44:125,1,95.9999970703126,6|0,0:0|0:0,0:0:0:0:
64,200,49114,1,0,0:0:0:0:
172,292,49281,2,0,P|219:292|263:274,1,95.9999970703126,2|8,1:2|0:0,0:0:0:0:
240,200,49781,1,0,1:2:0:0:
411,194,49948,6,0,P|364:194|320:212,1,95.9999970703126,2|0,3:2|0:0,0:0:0:0:
440,320,50448,1,0,0:0:0:0:
440,320,50614,2,0,L|442:272,1,47.9999985351563,2|0,1:2|0:0,0:0:0:0:
364,288,50948,1,0,3:2:0:0:
232,304,51114,1,10,0:0:0:0:
364,259,51281,6,0,P|367:213|339:174,1,95.9999970703126,2|0,3:2|0:0,0:0:0:0:
264,152,51781,1,0,0:0:0:0:
132,192,51948,2,0,P|170:219|217:217,1,95.9999970703126,2|8,1:2|0:0,0:0:0:0:
264,152,52448,1,0,1:2:0:0:
111,188,52614,6,0,P|104:235|108:282,1,95.9999970703126,2|0,3:2|0:0,0:0:0:0:
248,348,53114,1,0,0:0:0:0:
248,347,53281,2,0,P|251:324|252:300,1,47.9999985351563,2|0,1:2|0:0,0:0:0:0:
111,188,53614,1,10,0:0:0:0:
120,356,53781,1,8,0:0:0:0:
240,224,53948,6,0,P|240:177|208:142,1,95.9999970703126,6|0,0:0|0:0,0:0:0:0:
140,104,54448,1,0,0:0:0:0:
15,180,54614,2,0,L|115:188,1,95.9999970703126,2|8,1:2|0:0,0:0:0:0:
72,260,55114,1,2,1:2:0:0:
140,104,55281,6,0,L|240:112,1,95.9999970703126,2|0,3:2|0:0,0:0:0:0:
288,180,55781,1,0,0:0:0:0:
413,147,55948,2,0,L|408:100,1,47.9999985351563,2|0,1:2|0:0,0:0:0:0:
296,48,56281,1,2,1:2:0:0:
288,204,56448,1,8,0:0:0:0:
288,204,56531,1,8,0:0:0:0:
288,204,56614,6,0,L|279:282,1,71.9999978027344,12|0,0:0|0:0,0:0:0:0:
215,312,56948,6,0,P|176:319|137:315,1,80,2|0,3:2|1:2,0:0:0:0:
248,128,57281,2,0,P|287:120|326:124,1,80,10|8,0:0|0:0,0:0:0:0:
448,204,57614,1,10,0:0:0:0:
344,340,57781,1,8,0:0:0:0:
332,200,57948,5,2,3:2:0:0:
326,124,58114,1,0,1:2:0:0:
288,60,58281,1,8,0:0:0:0:
215,39,58448,6,0,P|168:35|121:45,1,96,2|0,3:2|0:0,0:0:0:0:
164,236,59281,6,0,P|208:248|253:244,1,92.0000017547608,6|0,0:0|1:2,0:0:0:0:
284,140,59614,1,8,0:0:0:0:
411,223,59781,2,0,P|335:260|353:343,1,184.000003509522,2|0,3:2|3:2,0:0:0:0:
456,304,60281,1,10,0:0:0:0:
456,152,60448,1,0,1:2:0:0:
272,208,60614,6,0,P|252:252|252:300,1,92.0000017547608,2|0,3:2|1:2,0:0:0:0:
368,160,60948,2,0,P|366:114|347:72,1,92.0000017547608,10|0,0:0|3:2,0:0:0:0:
240,40,61281,1,2,1:2:0:0:
120,140,61448,1,0,3:2:0:0:
280,136,61614,2,0,P|237:120|192:127,1,92.0000017547608,10|0,0:0|1:2,0:0:0:0:
208,296,61948,6,0,P|274:250|215:196,1,184.000003509522,2|8,3:2|0:0,0:0:0:0:
140,344,62448,2,0,P|224:376|309:346,1,184.000003509522,2|0,3:2|3:2,0:0:0:0:
443,275,62948,2,0,P|400:260|354:259,1,92.0000017547608,10|0,0:0|1:2,0:0:0:0:
468,360,63281,1,2,3:2:0:0:
467,196,63448,2,0,P|479:151|481:105,1,92.0000017547608,0|8,1:2|0:0,0:0:0:0:
335,35,63781,2,0,P|254:67|243:154,1,184.000003509522,2|0,3:2|3:2,0:0:0:0:
332,296,64281,2,0,P|340:250|333:205,1,92.0000017547608,10|0,0:0|1:2,0:0:0:0:
152,200,64614,6,0,P|170:242|200:276,1,92.0000017547608,6|0,0:0|1:2,0:0:0:0:
240,124,64948,2,0,P|201:97|157:86,1,92.0000017547608,10|0,0:0|3:2,0:0:0:0:
52,116,65281,1,2,1:2:0:0:
12,264,65448,1,0,3:2:0:0:
152,200,65614,1,10,0:0:0:0:
112,348,65781,2,0,P|202:357|281:314,1,184.000003509522,2|0,1:2|1:2,0:0:0:0:
284,160,66281,1,8,0:0:0:0:
284,159,66448,2,0,P|253:193|242:237,1,92.0000017547608,2|0,3:2|1:2,0:0:0:0:
384,200,66781,2,0,P|414:166|425:122,2,92.0000017547608,0|10|0,3:2|0:0|1:2,0:0:0:0:
340,92,67281,6,0,P|306:62|262:51,1,92.0000017547608,2|0,3:2|1:2,0:0:0:0:
132,168,67614,2,0,P|176:157|210:126,1,92.0000017547608,10|0,0:0|3:2,0:0:0:0:
124,56,67948,1,2,1:2:0:0:
24,184,68114,1,0,3:2:0:0:
160,272,68281,1,10,0:0:0:0:
128,87,68448,2,0,P|111:128|132:168,1,92.0000017547608,2|2,1:2|3:2,0:0:0:0:
312,136,68781,5,8,0:0:0:0:
144,168,68948,1,8,0:0:0:0:
324,132,69114,2,0,P|342:218|285:287,1,184.000003509522,2|0,3:2|3:2,0:0:0:0:
232,132,69614,1,10,0:0:0:0:
164,276,69781,1,8,0:0:0:0:
164,276,69864,1,8,0:0:0:0:
163,276,69948,6,0,P|119:288|74:281,1,92.0000017547608,14|0,0:0|1:2,0:0:0:0:
96,172,70281,1,8,0:0:0:0:
248,264,70448,2,0,P|326:232|304:150,1,184.000003509522,2|0,3:2|3:2,0:0:0:0:
156,87,70948,2,0,P|138:130|136:176,1,92.0000017547608,10|0,0:0|1:2,0:0:0:0:
232,116,71281,5,2,3:2:0:0:
372,60,71448,1,0,1:2:0:0:
220,120,71614,1,8,0:0:0:0:
344,224,71781,2,0,B|324:128|324:128|280:53,1,184.000003509522,2|0,3:2|3:2,0:0:0:0:
119,47,72281,2,0,P|140:88|179:111,1,92.0000017547608,10|0,0:0|1:2,0:0:0:0:
280,280,72614,6,0,L|259:190,1,92.0000017547608,2|0,3:2|1:2,0:0:0:0:
184,272,72948,1,8,0:0:0:0:
364,288,73114,2,0,L|322:108,1,184.000003509522,2|2,3:2|3:2,0:0:0:0:
196,40,73614,1,10,0:0:0:0:
112,172,73781,1,0,1:2:0:0:
239,268,73948,6,0,P|180:334|91:337,1,184.000003509522,2|8,3:2|0:0,0:0:0:0:
144,132,74448,2,0,P|233:134|292:201,1,184.000003509522,2|0,3:2|3:2,0:0:0:0:
328,304,74948,1,10,0:0:0:0:
476,244,75114,1,0,1:2:0:0:
355,143,75281,6,0,P|332:104|296:76,1,92.0000017547608,6|0,0:0|1:2,0:0:0:0:
192,40,75614,1,8,0:0:0:0:
160,216,75781,2,0,P|242:231|265:150,1,184.000003509522,2|0,3:2|3:2,0:0:0:0:
116,84,76281,2,0,P|71:92|35:120,1,92.0000017547608,10|0,0:0|1:2,0:0:0:0:
104,260,76614,5,2,3:2:0:0:
35,119,76781,1,0,1:2:0:0:
108,272,76948,1,8,0:0:0:0:
239,171,77114,2,0,P|150:158|68:198,1,184.000003509522,2|0,3:2|3:2,0:0:0:0:
200,304,77614,2,0,P|244:315|289:308,1,92.0000017547608,10|0,0:0|1:2,0:0:0:0:
352,176,77948,6,0,P|269:153|222:225,1,184.000003509522,2|8,3:2|0:0,0:0:0:0:
398,250,78448,2,0,B|440:214|432:166|432:166|424:114|467:91,1,184.000003509522,2|0,3:2|3:2,0:0:0:0:
352,88,78948,1,10,0:0:0:0:
188,76,79114,1,0,1:2:0:0:
352,88,79281,6,0,P|323:173|247:221,1,184.000003509522,2|8,3:2|0:0,0:0:0:0:
156,160,79781,1,0,3:2:0:0:
264,24,79948,2,0,P|271:69|265:114,1,92.0000017547608,2|0,1:2|3:2,0:0:0:0:
160,76,80281,1,10,0:0:0:0:
40,176,80448,1,2,1:2:0:0:
140,295,80614,6,0,P|170:213|115:143,1,184.000003509522,6|8,0:0|0:0,0:0:0:0:
16,192,81114,1,0,1:2:0:0:
140,295,81281,2,0,P|222:325|292:270,1,184.000003509522,2|8,3:2|0:0,0:0:0:0:
288,112,81781,1,2,1:2:0:0:
136,80,81948,1,0,1:2:0:0:
200,224,82114,5,10,0:0:0:0:
296,92,82281,1,8,0:0:0:0:
444,156,82448,1,10,0:0:0:0:
347,287,82614,6,0,P|308:310|263:319,1,92.0000017547608,2|8,3:2|0:0,0:0:0:0:
296,91,82948,2,0,P|334:68|379:59,1,92.0000017547608,2|8,3:2|0:0,0:0:0:0:
228,196,83281,6,0,L|148:206,1,80,2|0,3:2|0:0,0:0:0:0:
272,108,83614,2,0,L|192:118,1,80,2|0,1:2|0:0,0:0:0:0:
264,240,83948,6,0,L|184:250,1,80,2|0,3:2|0:0,0:0:0:0:
236,64,84281,2,0,L|156:74,1,80,2|0,1:2|0:0,0:0:0:0:
312,176,84614,6,0,L|391:165,1,80,2|0,3:2|0:0,0:0:0:0:
312,324,84948,2,0,L|232:334,1,80,2|0,1:2|0:0,0:0:0:0:
160,172,85281,5,2,3:2:0:0:
312,176,85448,1,0,0:0:0:0:
161,249,85614,2,0,P|154:210|159:171,1,80,2|8,1:2|0:0,0:0:0:0:
288,252,85948,1,6,0:0:0:0:
256,192,86031,12,0,89281,0:0:0:0:
