osu file format v14

[General]
AudioFilename: Special Life!.mp3
AudioLeadIn: 0
PreviewTime: 59195
Countdown: 0
SampleSet: Soft
StackLeniency: 0.7
Mode: 0
LetterboxInBreaks: 0
WidescreenStoryboard: 1

[Editor]
DistanceSpacing: 1.5
BeatDivisor: 4
GridSize: 4
TimelineZoom: 1

[Metadata]
Title:Special Life! (TV Size)
TitleUnicode:Special Life!(TV Size)
Artist:KOTOKO
ArtistUnicode:KOTOKO
Creator:Darksonic
Version:Hard!
Source:仮面のメイドガイ
Tags:kamen no maid guy opening madhouse hazu- japanese anime pop jpop j-pop the masked
BeatmapID:2015772
BeatmapSetID:962716

[Difficulty]
HPDrainRate:5
CircleSize:4
OverallDifficulty:6
ApproachRate:7.5
SliderMultiplier:1.4
SliderTickRate:1

[Events]
//Background and Video events
0,0,"BG.jpg",0,0
Video,-100,"Special Life!.mp4"
//Break Periods
//Storyboard Layer 0 (Background)
//Storyboard Layer 1 (Fail)
//Storyboard Layer 2 (Pass)
//Storyboard Layer 3 (Foreground)
//Storyboard Layer 4 (Overlay)
//Storyboard Sound Samples

[TimingPoints]
615,333.333333333333,4,2,1,30,1,0
615,-200,4,2,1,30,0,0
2781,-100,4,2,1,60,0,0
3281,-100,4,2,1,60,0,0
16614,-133.333333333333,4,2,1,50,0,0
27281,-100,4,2,1,60,0,0
48614,-166.666666666667,4,2,1,50,0,0
56864,-166.666666666667,4,2,1,10,0,0
56947,-100,4,2,1,60,0,0
58447,-250,4,2,1,30,0,0
58947,-250,4,2,1,10,0,0
59281,-100,4,2,1,70,0,1
69614,-100,4,2,1,70,0,0
69948,-100,4,2,1,70,0,1
83281,-100,4,2,1,60,0,0
85948,-100,4,2,1,60,0,0
87614,-100,4,2,1,40,0,0
88281,-100,4,2,1,30,0,0
88614,-100,4,2,1,20,0,0
88947,-100,4,2,1,10,0,0
89281,-100,4,2,1,5,0,0

[Colours]
Combo1 : 255,119,119
Combo2 : 255,172,89
Combo3 : 32,162,223

[HitObjects]
192,132,615,6,0,L|52:120,3,140,0|0|0|0,3:2|3:2|3:2|3:2,0:0:0:0:
43,200,2781,5,8,0:0:0:0:
78,272,2948,1,8,0:0:0:0:
157,283,3114,1,8,0:0:0:0:
220,232,3281,6,0,P|246:209|280:206,1,70,6|0,0:0|1:2,0:0:0:0:
279,285,3614,1,8,0:0:0:0:
349,245,3781,2,0,B|366:173|366:173|349:109,1,140,2|0,3:2|3:2,0:0:0:0:
283,66,4281,2,0,P|249:58|214:60,1,70,10|0,0:0|1:2,0:0:0:0:
204,139,4614,6,0,P|169:140|135:133,1,70,2|0,3:2|1:2,0:0:0:0:
88,68,4948,1,8,0:0:0:0:
50,139,5114,2,0,P|41:207|64:273,1,140,2|0,3:2|3:2,0:0:0:0:
126,324,5614,2,0,L|195:333,1,70,10|0,0:0|1:2,0:0:0:0:
220,257,5948,6,0,L|289:248,1,70,2|0,3:2|1:2,0:0:0:0:
332,316,6281,1,8,0:0:0:0:
398,270,6448,2,0,P|425:207|410:140,1,140,2|0,3:2|3:2,0:0:0:0:
335,170,6948,2,0,P|299:173|262:160,1,70,10|0,0:0|1:2,0:0:0:0:
276,83,7281,6,0,P|242:72|208:75,1,70,2|0,3:2|1:2,0:0:0:0:
134,105,7614,1,8,0:0:0:0:
170,175,7781,2,0,P|218:226|284:249,1,140,2|0,3:2|3:2,0:0:0:0:
355,213,8281,2,0,P|370:178|369:143,1,70,10|0,0:0|1:2,0:0:0:0:
290,149,8614,6,0,P|275:114|276:79,1,70,2|0,3:2|1:2,0:0:0:0:
341,37,8948,1,8,0:0:0:0:
419,48,9114,2,0,P|474:88|479:156,1,140,2|0,3:2|3:2,0:0:0:0:
438,225,9614,2,0,L|368:232,1,70,10|0,0:0|1:2,0:0:0:0:
348,310,9948,6,0,L|278:302,1,70,2|0,3:2|1:2,0:0:0:0:
222,245,10281,1,8,0:0:0:0:
168,303,10448,2,0,B|103:269|103:269|80:206,1,140,2|0,3:2|3:2,0:0:0:0:
95,128,10948,2,0,P|114:99|146:85,1,70,10|0,0:0|1:2,0:0:0:0:
168,163,11281,6,0,P|237:157|300:185,1,140,6|8,0:0|0:0,0:0:0:0:
326,262,11781,1,2,3:2:0:0:
400,231,11948,1,0,1:2:0:0:
392,151,12114,2,0,P|392:116|377:85,1,70,0|10,3:2|0:0,0:0:0:0:
300,64,12448,6,0,B|268:44|236:68|236:68|200:96|168:72,1,140,0|0,1:2|1:2,0:0:0:0:
97,43,12948,1,10,0:0:0:0:
97,42,13114,2,0,P|74:69|68:103,1,70,8|0,1:2|1:2,0:0:0:0:
68,183,13448,1,2,3:2:0:0:
142,214,13614,1,10,0:0:0:0:
220,193,13781,1,8,0:0:0:0:
247,117,13948,6,0,P|252:53|190:35,1,140,6|8,0:0|0:0,0:0:0:0:
116,69,14448,2,0,P|110:133|172:151,1,140,2|8,3:2|0:0,0:0:0:0:
247,117,14948,2,0,P|280:107|315:108,1,70,10|0,0:0|1:2,0:0:0:0:
385,145,15281,5,0,1:2:0:0:
422,216,15448,1,10,0:0:0:0:
409,295,15614,2,0,P|390:325|359:341,1,70,8|10,0:0|0:0,0:0:0:0:
296,290,15948,5,2,3:2:0:0:
233,341,16114,1,8,0:0:0:0:
177,282,16281,2,0,P|145:268|124:240,1,70,2|8,3:2|0:0,0:0:0:0:
200,203,16614,6,0,P|236:168|243:116,1,105.000004005432,6|0,0:0|1:2,0:0:0:0:
84,76,17281,2,0,P|47:111|41:163,1,105.000004005432,2|0,3:2|1:2,0:0:0:0:
199,203,17948,6,0,L|258:204,1,52.5000020027161,2|0,3:2|0:0,0:0:0:0:
247,287,18281,2,0,L|306:288,1,52.5000020027161,2|0,1:2|0:0,0:0:0:0:
335,214,18614,2,0,L|395:215,1,52.5000020027161,2|0,3:2|0:0,0:0:0:0:
383,297,18948,2,0,L|443:298,1,52.5000020027161,2|0,1:2|0:0,0:0:0:0:
479,230,19281,5,2,3:2:0:0:
479,230,19448,1,0,0:0:0:0:
448,154,19614,2,0,P|439:129|423:109,1,52.5000020027161,2|0,1:2|0:0,0:0:0:0:
346,81,19948,1,2,3:2:0:0:
296,143,20114,2,0,L|243:149,1,52.5000020027161,0|2,0:0|1:2,0:0:0:0:
163,157,20448,1,0,0:0:0:0:
163,240,20614,6,0,L|110:244,1,52.5000020027161,2|0,3:2|0:0,0:0:0:0:
111,162,20948,2,0,L|163:157,1,52.5000020027161,10|0,1:2|0:0,0:0:0:0:
244,148,21281,2,0,P|278:191|278:242,1,105.000004005432,10|10,1:2|3:2,0:0:0:0:
117,200,21948,6,0,L|100:96,1,105.000004005432,6|0,0:0|1:2,0:0:0:0:
250,39,22614,2,0,L|267:143,1,105.000004005432,2|0,3:2|1:2,0:0:0:0:
230,301,23281,6,0,L|220:246,1,52.5000020027161,2|0,3:2|0:0,0:0:0:0:
287,203,23614,2,0,L|297:258,1,52.5000020027161,2|0,1:2|0:0,0:0:0:0:
375,276,23948,2,0,L|364:220,1,52.5000020027161,2|0,3:2|0:0,0:0:0:0:
431,177,24281,2,0,L|441:232,1,52.5000020027161,2|0,1:2|0:0,0:0:0:0:
447,313,24614,5,2,3:2:0:0:
447,313,24781,1,0,0:0:0:0:
375,276,24948,2,0,P|361:253|364:214,1,52.5000020027161,2|0,1:2|0:0,0:0:0:0:
360,145,25281,2,0,P|342:97|296:74,1,105.000004005432,2|2,3:2|1:2,0:0:0:0:
218,93,25781,1,8,0:0:0:0:
148,135,25948,5,10,0:0:0:0:
148,135,26114,1,10,0:0:0:0:
278,241,26448,1,10,0:0:0:0:
278,241,26614,1,10,0:0:0:0:
304,81,26948,1,10,0:0:0:0:
148,135,27281,6,0,P|78:156|59:217,1,140,6|10,0:0|0:0,0:0:0:0:
168,332,27948,1,2,1:2:0:0:
246,342,28114,2,0,P|281:346|315:338,1,70,2|8,1:2|0:0,0:0:0:0:
377,287,28448,1,2,0:0:0:0:
374,206,28614,1,0,3:2:0:0:
319,148,28781,2,0,P|284:144|250:152,1,70,2|8,1:2|0:0,0:0:0:0:
196,212,29114,1,2,1:2:0:0:
196,211,29281,2,0,P|131:233|73:197,1,140,2|10,1:2|0:0,0:0:0:0:
146,54,29948,6,0,P|219:44|280:69,1,140,2|8,3:2|0:0,0:0:0:0:
332,129,30448,1,2,0:0:0:0:
391,184,30614,2,0,P|457:183|484:123,2,140,2|10|2,1:2|0:0|3:2,0:0:0:0:
305,321,31614,1,10,0:0:0:0:
212,190,31948,2,0,L|142:196,1,70,2|0,1:2|1:2,0:0:0:0:
152,277,32281,2,0,L|82:283,1,70,10|2,0:0|1:2,0:0:0:0:
43,213,32614,6,0,P|31:144|57:80,2,140,2|10|2,3:2|0:0|1:2,0:0:0:0:
177,299,33614,1,8,0:0:0:0:
177,299,33781,2,0,P|214:303|251:297,1,70,2|0,0:0|3:2,0:0:0:0:
273,222,34114,2,0,P|315:169|296:104,1,140,2|2,1:2|0:0,0:0:0:0:
221,77,34614,2,0,P|186:72|151:74,1,70,2|0,1:2|1:2,0:0:0:0:
152,154,34948,2,0,P|120:168|92:189,1,70,10|0,0:0|0:0,0:0:0:0:
160,236,35281,6,0,P|183:300|247:323,1,140,2|8,3:2|0:0,0:0:0:0:
301,263,35781,1,2,0:0:0:0:
367,218,35948,2,0,P|344:154|280:130,2,140,2|10|2,1:2|0:0|3:2,0:0:0:0:
210,175,36948,1,10,0:0:0:0:
103,298,37281,2,0,L|98:228,1,70,2|0,1:2|1:2,0:0:0:0:
29,187,37614,2,0,L|24:117,1,70,10|2,0:0|1:2,0:0:0:0:
94,75,37948,6,0,P|161:53|230:59,1,140,2|10,3:2|0:0,0:0:0:0:
234,140,38448,1,0,0:0:0:0:
234,140,38614,2,0,P|303:145|369:124,1,140,2|8,1:2|0:0,0:0:0:0:
423,183,39114,2,0,P|447:120|415:61,2,140,2|2|2,0:0|1:2|0:0,0:0:0:0:
358,233,39948,1,2,1:2:0:0:
253,109,40281,1,10,0:0:0:0:
211,264,40614,6,0,P|144:285|74:290,1,140,2|8,3:2|0:0,0:0:0:0:
56,213,41114,1,2,0:0:0:0:
66,133,41281,2,0,P|95:71|161:53,2,140,2|10|2,1:2|0:0|3:2,0:0:0:0:
218,192,42281,1,10,0:0:0:0:
311,60,42614,2,0,P|345:56|380:58,1,70,2|0,1:2|1:2,0:0:0:0:
446,105,42948,2,0,P|450:139|448:174,1,70,10|2,0:0|1:2,0:0:0:0:
369,193,43281,6,0,P|359:262|364:331,2,140,2|10|2,3:2|0:0|1:2,0:0:0:0:
448,174,44114,2,0,P|450:139|446:105,1,70,2|8,1:2|0:0,0:0:0:0:
378,62,44448,2,0,L|238:75,2,140,2|2|2,0:0|1:2|0:0,0:0:0:0:
446,105,45281,1,2,1:2:0:0:
327,213,45614,1,10,0:0:0:0:
238,75,45948,6,0,P|165:77|121:131,1,140,2|8,3:2|0:0,0:0:0:0:
140,203,46448,1,2,0:0:0:0:
198,259,46614,2,0,B|227:281|263:253|263:253|295:229|327:249,2,140,2|10|0,1:2|0:0|3:2,0:0:0:0:
140,203,47448,1,2,1:2:0:0:
93,137,47614,2,0,L|82:67,1,70,10|0,0:0|0:0,0:0:0:0:
155,32,47948,2,0,L|166:102,1,70,2|0,1:2|1:2,0:0:0:0:
203,173,48281,1,10,0:0:0:0:
248,105,48448,1,10,0:0:0:0:
319,66,48614,6,0,P|359:54|402:56,1,83.9999974365235,6|0,0:0|0:0,0:0:0:0:
391,140,49114,1,0,0:0:0:0:
391,140,49281,2,0,P|432:138|473:126,1,83.9999974365235,2|8,1:2|0:0,0:0:0:0:
337,214,49948,6,0,P|295:215|254:227,1,83.9999974365235,2|0,3:2|0:0,0:0:0:0:
210,295,50448,1,0,0:0:0:0:
210,295,50614,2,0,L|126:283,1,83.9999974365235,2|0,1:2|3:2,0:0:0:0:
78,219,51114,1,10,0:0:0:0:
111,145,51281,6,0,P|113:103|132:66,1,83.9999974365235,2|0,3:2|0:0,0:0:0:0:
212,44,51781,1,0,0:0:0:0:
212,44,51948,2,0,P|253:46|290:65,1,83.9999974365235,2|8,1:2|0:0,0:0:0:0:
319,224,52614,6,0,P|356:244|398:246,1,83.9999974365235,2|0,3:2|0:0,0:0:0:0:
459,195,53114,1,0,0:0:0:0:
459,195,53281,2,0,P|421:174|379:172,1,83.9999974365235,2|10,1:2|0:0,0:0:0:0:
305,145,53781,1,8,0:0:0:0:
230,176,53948,6,0,B|185:195|185:195|149:195,1,83.9999974365235,6|0,0:0|0:0,0:0:0:0:
86,145,54448,1,0,0:0:0:0:
86,145,54614,2,0,P|93:104|122:74,1,83.9999974365235,2|8,1:2|0:0,0:0:0:0:
202,68,55114,1,2,1:2:0:0:
250,133,55281,6,0,P|291:137|333:131,1,83.9999974365235,2|0,3:2|0:0,0:0:0:0:
396,79,55781,1,0,0:0:0:0:
459,129,55948,2,0,P|464:149|467:170,1,41.9999987182618,2|0,1:2|0:0,0:0:0:0:
434,245,56281,1,2,1:2:0:0:
370,294,56448,1,8,0:0:0:0:
370,294,56531,1,8,0:0:0:0:
370,294,56614,2,0,L|309:309,1,62.9999980773926,12|0,0:0|0:0,0:0:0:0:
270,322,56948,5,2,3:2:0:0:
201,280,57114,1,0,1:2:0:0:
272,242,57281,2,0,P|286:200|285:169,1,70,10|8,0:0|0:0,0:0:0:0:
211,145,57614,1,10,0:0:0:0:
234,67,57781,1,8,0:0:0:0:
314,82,57948,6,0,L|384:87,2,70,2|0|8,3:2|1:2|0:0,0:0:0:0:
234,67,58448,6,0,P|195:54|154:61,1,84,2|0,3:2|0:0,0:0:0:0:
41,181,59281,6,0,P|73:193|108:194,1,70,6|0,0:0|1:2,0:0:0:0:
184,163,59614,1,8,0:0:0:0:
263,181,59781,2,0,P|329:189|360:248,1,140,2|0,3:2|3:2,0:0:0:0:
335,325,60281,1,10,0:0:0:0:
260,352,60448,1,0,1:2:0:0:
202,295,60614,6,0,P|191:261|195:227,1,70,2|0,3:2|1:2,0:0:0:0:
263,181,60948,2,0,P|266:146|256:113,1,70,10|0,0:0|3:2,0:0:0:0:
196,59,61281,1,2,1:2:0:0:
119,37,61448,1,0,3:2:0:0:
56,89,61614,2,0,P|45:121|45:156,1,70,10|0,0:0|1:2,0:0:0:0:
122,131,61948,6,0,P|191:138|249:177,1,140,2|8,3:2|0:0,0:0:0:0:
208,248,62448,2,0,P|265:286|334:294,1,140,2|0,3:2|3:2,0:0:0:0:
390,237,62948,2,0,P|412:209|427:178,1,70,10|0,0:0|1:2,0:0:0:0:
363,129,63281,2,0,P|378:97|399:70,2,70,2|0|8,3:2|1:2|0:0,0:0:0:0:
287,101,63781,2,0,P|218:88|151:107,1,140,2|0,3:2|3:2,0:0:0:0:
96,166,64281,2,0,P|82:196|80:232,1,70,10|0,0:0|1:2,0:0:0:0:
149,276,64614,6,0,B|216:300|216:300|282:282,2,140,6|10|2,0:0|0:0|1:2,0:0:0:0:
80,231,65448,1,0,3:2:0:0:
76,311,65614,1,10,0:0:0:0:
149,275,65781,2,0,P|208:243|224:177,1,140,2|0,1:2|1:2,0:0:0:0:
218,98,66281,1,8,0:0:0:0:
218,98,66448,2,0,P|275:62|340:82,1,140,2|0,3:2|3:2,0:0:0:0:
383,151,66948,2,0,L|452:158,1,70,10|0,0:0|1:2,0:0:0:0:
474,236,67281,6,0,L|334:221,1,140,2|10,3:2|0:0,0:0:0:0:
176,225,67948,1,2,1:2:0:0:
255,210,68114,1,0,3:2:0:0:
296,140,68281,1,10,0:0:0:0:
271,64,68448,2,0,P|252:34|221:20,1,70,2|2,1:2|3:2,0:0:0:0:
150,58,68781,5,8,0:0:0:0:
73,34,68948,1,8,0:0:0:0:
94,112,69114,2,0,P|69:187|76:250,1,140,2|0,3:2|3:2,0:0:0:0:
117,321,69614,1,10,0:0:0:0:
155,250,69781,5,8,0:0:0:0:
155,250,69864,1,8,0:0:0:0:
155,250,69948,1,14,0:0:0:0:
117,321,70114,1,0,1:2:0:0:
184,367,70281,1,8,0:0:0:0:
238,307,70448,2,0,P|307:293|374:311,1,140,2|0,3:2|3:2,0:0:0:0:
439,356,70948,2,0,P|451:323|448:288,1,70,10|0,0:0|1:2,0:0:0:0:
388,235,71281,6,0,P|384:200|396:167,1,70,2|0,3:2|1:2,0:0:0:0:
423,91,71614,1,8,0:0:0:0:
343,83,71781,2,0,P|281:52|216:71,1,140,2|0,3:2|3:2,0:0:0:0:
207,152,72281,2,0,L|137:160,1,70,10|0,0:0|1:2,0:0:0:0:
120,240,72614,6,0,L|189:231,2,70,2|0|8,3:2|1:2|0:0,0:0:0:0:
45,207,73114,2,0,P|38:273|88:319,1,140,2|2,3:2|3:2,0:0:0:0:
168,319,73614,2,0,P|203:316|238:322,1,70,10|0,0:0|1:2,0:0:0:0:
311,355,73948,6,0,P|378:356|405:296,1,140,2|8,3:2|0:0,0:0:0:0:
333,260,74448,2,0,P|360:199|426:200,1,140,2|0,3:2|3:2,0:0:0:0:
487,255,74948,1,10,0:0:0:0:
402,119,75281,6,0,P|367:118|334:131,1,70,6|0,0:0|1:2,0:0:0:0:
267,175,75614,1,8,0:0:0:0:
267,175,75781,2,0,P|203:198|136:180,1,140,2|0,3:2|3:2,0:0:0:0:
80,122,76281,2,0,P|79:87|92:55,1,70,10|0,0:0|1:2,0:0:0:0:
171,40,76614,5,2,3:2:0:0:
248,19,76781,1,0,1:2:0:0:
313,66,76948,1,8,0:0:0:0:
310,145,77114,2,0,P|334:207|400:221,1,140,2|0,3:2|3:2,0:0:0:0:
446,157,77614,2,0,P|453:122|450:88,1,70,10|0,0:0|1:2,0:0:0:0:
377,53,77948,6,0,B|308:34|308:34|239:36,1,140,2|8,3:2|0:0,0:0:0:0:
162,64,78448,2,0,P|113:110|124:176,1,140,2|0,3:2|3:2,0:0:0:0:
188,225,78948,1,10,0:0:0:0:
245,167,79114,1,0,1:2:0:0:
291,234,79281,6,0,B|325:245|361:221|361:221|388:201|424:208,1,140,2|8,3:2|0:0,0:0:0:0:
402,284,79781,2,0,P|413:317|400:350,1,70,0|2,3:2|1:2,0:0:0:0:
321,354,80114,1,0,3:2:0:0:
241,343,80281,1,10,0:0:0:0:
196,277,80448,1,2,1:2:0:0:
195,195,80614,6,0,P|198:128|252:89,1,140,6|8,0:0|0:0,0:0:0:0:
411,129,81281,2,0,P|408:196|354:235,1,140,2|8,3:2|0:0,0:0:0:0:
195,195,81948,1,0,1:2:0:0:
135,140,82114,6,0,L|65:133,2,70,10|8|10,0:0|0:0|0:0,0:0:0:0:
195,195,82614,1,2,3:2:0:0:
237,265,82781,2,0,L|306:271,1,70,8|2,0:0|3:2,0:0:0:0:
387,278,83114,1,8,0:0:0:0:
345,208,83281,6,0,P|350:173|344:138,1,70,2|0,3:2|0:0,0:0:0:0:
303,69,83614,2,0,P|268:64|233:70,1,70,2|0,1:2|0:0,0:0:0:0:
166,115,83948,2,0,P|161:149|167:184,1,70,2|0,3:2|0:0,0:0:0:0:
208,254,84281,2,0,P|242:258|277:252,1,70,2|0,1:2|0:0,0:0:0:0:
345,208,84614,6,0,P|379:203|414:209,1,70,2|0,3:2|0:0,0:0:0:0:
445,285,84948,2,0,P|410:289|375:283,1,70,2|0,1:2|0:0,0:0:0:0:
345,208,85281,2,0,P|310:203|275:209,1,70,2|0,3:2|0:0,0:0:0:0:
278,289,85614,2,0,P|244:294|210:288,1,70,2|10,1:2|0:0,0:0:0:0:
169,219,85948,1,6,0:0:0:0:
256,192,86031,12,0,89281,0:0:0:0:
