osu file format v14

[General]
AudioFilename: Special Life!.mp3
AudioLeadIn: 0
PreviewTime: 59195
Countdown: 0
SampleSet: Soft
StackLeniency: 0.7
Mode: 0
LetterboxInBreaks: 0
WidescreenStoryboard: 1

[Editor]
DistanceSpacing: 1.5
BeatDivisor: 4
GridSize: 4
TimelineZoom: 1.5

[Metadata]
Title:Special Life! (TV Size)
TitleUnicode:Special Life!(TV Size)
Artist:KOTOKO
ArtistUnicode:KOTOKO
Creator:Darksonic
Version:Easy!
Source:仮面のメイドガイ
Tags:kamen no maid guy opening madhouse hazu- japanese anime pop jpop j-pop the masked
BeatmapID:2015771
BeatmapSetID:962716

[Difficulty]
HPDrainRate:3
CircleSize:3
OverallDifficulty:3
ApproachRate:3
SliderMultiplier:1
SliderTickRate:1

[Events]
//Background and Video events
0,0,"BG.jpg",0,0
Video,-100,"Special Life!.mp4"
//Break Periods
//Storyboard Layer 0 (Background)
//Storyboard Layer 1 (Fail)
//Storyboard Layer 2 (Pass)
//Storyboard Layer 3 (Foreground)
//Storyboard Layer 4 (Overlay)
//Storyboard Sound Samples

[TimingPoints]
615,333.333333333333,4,2,1,60,1,0
615,-100,4,2,1,30,0,0
3281,-100,4,2,1,60,0,0
16614,-100,4,2,1,50,0,0
27281,-100,4,2,1,60,0,0
48614,-100,4,2,1,50,0,0
56947,-100,4,2,1,60,0,0
58447,-100,4,2,1,30,0,0
58947,-100,4,2,1,10,0,0
59281,-100,4,2,1,70,0,1
69614,-100,4,2,1,70,0,0
69948,-100,4,2,1,70,0,1
83281,-100,4,2,1,60,0,0
85948,-100,4,2,1,60,0,0
87614,-100,4,2,1,40,0,0
88281,-100,4,2,1,30,0,0
88614,-100,4,2,1,20,0,0
88948,-100,4,2,1,10,0,0
89281,-100,4,2,1,5,0,0

[Colours]
Combo1 : 255,119,119
Combo2 : 255,172,89
Combo3 : 32,162,223

[HitObjects]
256,192,615,12,0,1948,3:2:0:0:
344,128,3281,6,0,P|232:53|163:168,1,300,6|10,0:0|0:0,0:0:0:0:
236,204,4614,2,0,P|167:319|55:244,1,300,2|10,3:2|0:0,0:0:0:0:
27,168,5948,6,0,P|155:95|295:136,1,300,2|10,3:2|0:0,0:0:0:0:
328,212,7281,2,0,P|434:281|456:156,1,300,2|10,3:2|0:0,0:0:0:0:
400,100,8614,6,0,B|312:104|272:32|272:32|216:84|136:73,1,300,2|10,3:2|0:0,0:0:0:0:
60,99,9948,2,0,P|33:234|164:273,1,300,2|10,3:2|0:0,0:0:0:0:
236,236,11281,5,6,0:0:0:0:
372,316,11948,1,0,1:2:0:0:
374,158,12614,2,0,P|356:55|264:55,1,200,2|0,3:2|1:2,0:0:0:0:
200,76,13614,1,10,0:0:0:0:
148,136,13948,6,0,P|60:140|92:232,2,200,6|0|0,0:0|1:2|1:2,0:0:0:0:
216,176,15614,2,0,P|263:191|312:187,1,100,8|2,0:0|3:2,0:0:0:0:
349,113,16281,1,2,3:2:0:0:
330,34,16614,5,6,0:0:0:0:
168,40,17281,2,0,P|100:112|112:208,1,200,2|2,3:2|3:2,0:0:0:0:
256,276,18614,1,2,3:2:0:0:
364,156,19281,6,0,P|384:56|320:68,1,200,2|2,3:2|3:2,0:0:0:0:
244,68,20281,1,2,1:2:0:0:
192,132,20614,2,0,P|172:232|236:220,2,200,2|10|6,3:2|1:2|0:0,0:0:0:0:
324,224,22614,5,2,3:2:0:0:
212,340,23281,1,2,3:2:0:0:
72,264,23948,1,2,3:2:0:0:
144,120,24614,6,0,P|244:72|328:120,1,200,2|2,3:2|3:2,0:0:0:0:
356,176,25614,1,2,1:2:0:0:
324,249,25948,2,0,B|252:204|190:269|190:269|125:338|56:294,1,300,10|10,0:0|0:0,0:0:0:0:
59,211,27281,6,0,P|61:114|133:49,1,200,6|2,0:0|1:2,0:0:0:0:
292,48,28614,2,0,P|363:113|365:210,1,200,0|2,3:2|1:2,0:0:0:0:
324,280,29614,1,10,0:0:0:0:
256,320,29948,6,0,B|160:344|160:344|62:316,2,200,2|2|2,3:2|1:2|3:2,0:0:0:0:
324,280,31614,2,0,P|380:288|436:312,2,100,10|2|10,0:0|1:2|0:0,0:0:0:0:
308,200,32614,6,0,P|209:186|116:148,1,200,2|2,3:2|1:2,0:0:0:0:
224,32,33948,2,0,P|322:45|415:83,1,200,0|2,3:2|1:2,0:0:0:0:
452,156,34948,1,10,0:0:0:0:
427,232,35281,6,0,P|366:306|269:310,2,200,2|2|2,3:2|1:2|3:2,0:0:0:0:
452,156,36948,2,0,L|476:56,2,100,10|2|10,0:0|1:2|0:0,0:0:0:0:
372,140,37948,6,0,B|348:112|304:108|304:108|236:132|188:88,1,200,2|2,3:2|1:2,0:0:0:0:
44,156,39281,2,0,B|68:184|112:188|112:188|180:164|227:207,1,200,0|2,3:2|1:2,0:0:0:0:
268,276,40281,1,10,0:0:0:0:
340,244,40614,6,0,B|380:152|380:152|360:54,2,200,2|2|2,3:2|1:2|3:2,0:0:0:0:
268,275,42281,2,0,P|247:320|263:367,2,100,10|2|10,0:0|1:2|0:0,0:0:0:0:
340,244,43281,6,0,P|340:124|264:80,1,200,2|2,3:2|1:2,0:0:0:0:
132,132,44614,2,0,P|132:252|208:296,1,200,0|2,3:2|1:2,0:0:0:0:
268,276,45614,1,10,0:0:0:0:
300,200,45948,6,0,P|386:170|430:250,2,200,2|2|0,3:2|1:2|3:2,0:0:0:0:
300,280,47614,2,0,P|256:304|206:308,2,100,10|2|10,0:0|1:2|0:0,0:0:0:0:
300,200,48614,5,6,0:0:0:0:
280,40,49281,1,2,1:2:0:0:
124,60,49948,2,0,B|84:156|107:256,1,200,2|2,3:2|1:2,0:0:0:0:
252,320,51281,5,2,3:2:0:0:
412,296,51948,1,2,1:2:0:0:
292,187,52614,2,0,P|300:92|223:36,1,200,2|2,3:2|1:2,0:0:0:0:
160,88,53614,1,10,0:0:0:0:
80,80,53948,5,6,0:0:0:0:
56,240,54614,1,2,1:2:0:0:
208,288,55281,2,0,P|302:308|374:244,1,200,2|2,3:2|1:2,0:0:0:0:
372,164,56281,1,2,1:2:0:0:
309,107,56614,6,0,B|267:181|189:160|189:160|104:144|68:232|68:232|116:280|166:243,1,400,12|2,0:0|3:2,0:0:0:0:
279,240,58448,2,0,P|344:203|388:143,1,150,2|0,3:2|0:0,0:0:0:0:
385,63,59281,6,0,P|299:22|225:81,2,200,6|0|2,0:0|0:0|3:2,0:0:0:0:
436,124,60948,2,0,P|454:170|452:219,2,100,10|2|10,0:0|1:2|0:0,0:0:0:0:
368,168,61948,6,0,P|307:238|225:194,1,200,2|0,3:2|0:0,0:0:0:0:
244,116,62948,1,10,0:0:0:0:
168,88,63281,2,0,P|86:44|26:114,1,200,2|0,3:2|0:0,0:0:0:0:
84,172,64281,1,10,0:0:0:0:
36,240,64614,6,0,P|104:310|201:319,2,200,6|2|0,0:0|1:2|0:0,0:0:0:0:
72,168,66281,1,8,0:0:0:0:
148,143,66614,2,0,P|197:136|247:139,1,100,0|10,1:2|0:0,0:0:0:0:
252,220,67281,6,0,P|349:210|417:140,2,200,2|2|2,3:2|1:2|3:2,0:0:0:0:
136,192,69114,2,0,P|69:211|45:291,1,150,2|10,3:2|0:0,0:0:0:0:
122,272,69948,6,0,P|191:250|214:182,2,150,14|2|10,0:0|3:2|0:0,0:0:0:0:
136,192,71281,2,0,P|66:170|43:102,2,150,2|2|10,3:2|3:2|0:0,0:0:0:0:
124,112,72614,2,0,P|145:42|213:19,2,150,2|2|10,3:2|3:2|0:0,0:0:0:0:
204,100,73948,2,0,P|217:199|141:273,1,200,2|0,3:2|1:2,0:0:0:0:
92,324,74948,1,10,0:0:0:0:
163,359,75281,6,0,P|238:360|301:322,2,150,6|2|10,0:0|3:2|0:0,0:0:0:0:
184,280,76614,2,0,P|109:279|46:317,2,150,2|2|10,0:0|3:2|0:0,0:0:0:0:
204,200,77948,2,0,P|278:200|341:162,2,150,2|2|10,3:2|3:2|0:0,0:0:0:0:
220,120,79281,2,0,P|121:119|37:169,1,200,2|2,3:2|1:2,0:0:0:0:
20,248,80281,1,10,0:0:0:0:
68,312,80614,5,6,0:0:0:0:
228,324,81281,1,2,3:2:0:0:
324,195,81948,2,0,P|389:127|356:37,1,200,0|2,1:2|3:2,0:0:0:0:
276,44,82948,1,2,3:2:0:0:
264,124,83281,6,0,B|214:154|172:110|172:110|127:63|84:90,2,200,2|2|2,3:2|3:2|3:2,0:0:0:0:
276,44,84948,1,2,1:2:0:0:
356,56,85281,2,0,P|408:76|440:120,2,100,2|2|6,3:2|1:2|0:0,0:0:0:0:
256,192,86114,12,0,89281,0:0:0:0:
