osu file format v14

[General]
AudioFilename: audio.mp3
AudioLeadIn: 0
PreviewTime: 61
Countdown: 0
SampleSet: Soft
StackLeniency: 0.3
Mode: 0
LetterboxInBreaks: 0
WidescreenStoryboard: 1

[Editor]
Bookmarks: 27315,54357,83089,127033,186188,213230,228442,241963
DistanceSpacing: 1
BeatDivisor: 4
GridSize: 4
TimelineZoom: 1.5

[Metadata]
Title:Sociometry
TitleUnicode:Sociometry
Artist:KOTOKO
ArtistUnicode:KOTOKO
Creator:Shurelia
Version:Hard
Source:灼眼のシャナⅡ
Tags:Reiji Maigo Shakugan no Shana II 2 Japanese Anime Pop ED Ending silent rock
BeatmapID:3282070
BeatmapSetID:1598443

[Difficulty]
HPDrainRate:5
CircleSize:4
OverallDifficulty:6
ApproachRate:6.5
SliderMultiplier:1.6
SliderTickRate:1

[Events]
//Background and Video events
0,0,"shanabg.jpg",0,0
//Break Periods
2,17596,22959
//Storyboard Layer 0 (Background)
//Storyboard Layer 1 (Fail)
//Storyboard Layer 2 (Pass)
//Storyboard Layer 3 (Foreground)
//Storyboard Layer 4 (Overlay)
//Storyboard Sound Samples

[TimingPoints]
273,422.535211267606,4,2,1,60,1,0
273,-100,4,2,1,60,0,0
16540,-100,4,2,1,50,0,0
16751,-100,4,2,1,40,0,0
23934,-100,4,2,1,30,0,0
24357,-100,4,2,1,35,0,0
24780,-100,4,2,1,40,0,0
25202,-100,4,2,1,45,0,0
25625,-100,4,2,1,50,0,0
26047,-100,4,2,1,55,0,0
26470,-100,4,2,1,60,0,0
26892,-100,4,2,1,65,0,0
27315,-100,4,2,1,70,0,0
83089,-90.9090909090909,4,2,1,80,0,1
113512,-100,4,2,1,70,0,0
155765,-90.9090909090909,4,2,1,80,0,1
186188,-100,4,2,1,50,0,0
199709,-100,4,2,1,60,0,0
211540,-100,4,2,1,70,0,0
228442,-100,4,2,1,80,0,1
228653,-90.9090909090909,4,2,1,80,0,1
258864,-100,4,2,1,70,0,0
272491,-100,4,2,1,20,0,0
272808,-100,4,2,1,30,0,0
273230,-100,4,2,1,40,0,0
273653,-100,4,2,1,50,0,0
274075,-100,4,2,1,60,0,0
274498,-100,4,2,1,70,0,0
274920,-100,4,2,1,80,0,0
275343,-100,4,2,1,20,0,0

[Colours]
Combo1 : 255,128,64
Combo2 : 255,0,0

[HitObjects]
20,45,273,6,0,B|109:97|233:11|334:55,1,320,2|0,0:0|0:0,0:0:0:0:
334,55,1540,1,2,0:0:0:0:
435,107,1963,2,0,P|346:224|445:333,1,320,2|0,0:0|0:0,0:0:0:0:
445,333,3230,1,2,0:0:0:0:
448,219,3653,6,0,B|361:207|260:313|140:292,1,320,2|0,0:0|0:0,0:0:0:0:
141,291,4920,2,0,P|132:253|104:225,1,80,2|0,0:0|0:0,0:0:0:0:
87,146,5343,2,0,B|197:106|275:275|383:275|453:233|480:149|429:107,1,480,2|2,0:0|0:0,0:0:0:0:
344,155,7033,6,0,B|415:261|364:358|268:392|138:333,1,400,2|2,0:0|0:0,0:0:0:0:
19,140,8512,1,2,0:0:0:0:
19,140,8723,2,0,P|73:92|28:36,1,160,2|0,0:0|0:0,0:0:0:0:
54,240,9568,2,0,P|8:296|63:343,1,160,2|0,0:0|0:0,0:0:0:0:
63,343,10413,6,0,B|124:361|171:317|220:333,1,160,2|0,0:0|0:0,0:0:0:0:
293,366,11047,1,2,0:0:0:0:
369,342,11258,2,0,P|419:286|395:213,1,160,2|2,0:0|0:0,0:0:0:0:
346,150,11892,1,0,0:0:0:0:
408,102,12103,2,0,B|286:119|251:48|174:76,1,240,2|0,0:0|0:0,0:0:0:0:
129,143,12949,1,0,0:0:0:0:
129,143,13371,1,2,0:0:0:0:
129,143,13794,1,2,0:0:0:0:
256,192,13899,12,0,17174,0:0:0:0:
256,192,23934,12,8,26892,0:0:0:0:
256,192,27315,6,0,L|256:16,1,160,6|8,3:2|3:2,0:0:0:0:
176,28,27949,1,0,0:0:0:0:
96,28,28160,2,0,L|4:28,1,80,2|2,3:2|0:0,0:0:0:0:
12,108,28582,5,8,3:2:0:0:
32,108,28688,1,0,0:0:0:0:
52,108,28794,1,0,0:0:0:0:
71,108,28899,1,0,0:0:0:0:
91,108,29005,1,2,3:2:0:0:
256,284,29427,1,8,0:0:0:0:
488,216,29850,1,0,3:0:0:0:
312,48,30273,1,8,3:2:0:0:
312,48,30695,5,2,3:2:0:0:
312,48,30801,1,0,0:0:0:0:
312,48,30906,1,2,0:0:0:0:
388,88,31118,1,8,3:2:0:0:
320,128,31329,1,2,0:0:0:0:
248,92,31540,1,2,3:2:0:0:
248,12,31751,1,2,0:0:0:0:
176,48,31963,1,8,3:2:0:0:
176,48,32068,1,0,0:0:0:0:
176,48,32174,1,2,0:0:0:0:
100,20,32385,6,0,L|20:20,1,80,2|2,3:2|0:0,0:0:0:0:
116,104,32808,2,0,L|32:104,2,80,8|2|2,3:2|0:0|3:2,0:0:0:0:
100,188,33442,1,2,0:0:0:0:
148,272,33653,2,0,L|64:272,1,80,8|0,3:2|0:0,0:0:0:0:
176,360,34075,6,0,L|364:360,1,160,2|8,3:2|3:2,0:0:0:0:
412,328,34709,2,0,B|440:284|388:208|420:160,1,160,2|2,0:0|0:0,0:0:0:0:
488,136,35343,1,8,3:2:0:0:
420,96,35554,1,2,0:0:0:0:
420,96,35660,1,0,0:0:0:0:
420,96,35765,6,0,B|376:68|300:120|252:88,1,160,2|8,3:2|3:2,0:0:0:0:
208,36,36399,2,0,B|164:8|88:60|40:28,1,160,2|0,0:0|0:0,0:0:0:0:
12,104,37033,1,8,3:2:0:0:
188,312,37456,5,2,3:2:0:0:
256,272,37667,1,0,0:0:0:0:
324,312,37878,1,8,3:2:0:0:
188,72,38301,5,2,3:2:0:0:
256,112,38512,1,0,0:0:0:0:
324,72,38723,1,8,3:2:0:0:
256,272,39146,5,2,3:2:0:0:
256,192,39357,1,8,0:0:0:0:
256,112,39568,1,8,3:2:0:0:
416,20,39991,1,8,3:2:0:0:
416,20,40096,1,8,0:0:0:0:
416,104,40308,1,8,0:0:0:0:
416,104,40413,1,8,3:2:0:0:
416,191,40625,1,2,3:2:0:0:
416,191,40730,1,0,0:0:0:0:
416,191,40836,6,0,L|80:191,1,320,6|0,3:2|3:0,0:0:0:0:
12,312,42103,1,8,0:0:0:0:
12,312,42315,1,2,0:0:0:0:
88,356,42526,1,2,3:2:0:0:
88,356,42632,1,0,0:0:0:0:
88,356,42737,1,0,0:0:0:0:
148,300,42949,1,8,3:2:0:0:
148,300,43160,1,2,0:0:0:0:
236,304,43371,1,0,3:0:0:0:
236,304,43477,1,0,0:0:0:0:
236,304,43582,1,2,0:0:0:0:
312,276,43794,1,8,3:2:0:0:
336,200,44005,1,0,0:0:0:0:
300,128,44216,6,0,B|240:152|144:144|88:56,1,240,2|0,3:2|0:0,0:0:0:0:
20,96,45061,1,0,3:0:0:0:
20,96,45273,2,0,L|20:200,1,80,2|8,0:0|3:2,0:0:0:0:
100,188,45695,2,0,L|100:292,2,80,2|2|0,0:0|3:2|0:0,0:0:0:0:
180,280,46329,2,0,L|180:384,2,80,8|2|0,3:2|0:0|3:0,0:0:0:0:
256,252,46963,1,2,0:0:0:0:
256,252,47068,1,0,0:0:0:0:
256,252,47174,1,8,3:2:0:0:
256,252,47596,6,0,P|260:172|196:196,3,160,2|8|0|8,3:2|0:0|3:2|3:2,0:0:0:0:
176,256,49075,1,2,0:0:0:0:
124,196,49287,1,2,3:2:0:0:
112,116,49498,1,0,0:0:0:0:
188,96,49709,2,0,L|199:12,1,80,8|2,3:2|0:0,0:0:0:0:
276,64,50132,2,0,B|332:96|396:32|460:76,1,160,2|8,3:2|3:2,0:0:0:0:
496,232,50977,5,2,3:2:0:0:
496,232,51082,1,0,0:0:0:0:
496,232,51188,1,0,0:0:0:0:
432,280,51399,1,8,0:0:0:0:
432,280,51611,1,2,0:0:0:0:
356,260,51822,2,0,B|296:244|232:272|204:336,1,160,2|8,3:2|3:2,0:0:0:0:
136,312,52456,1,2,0:0:0:0:
136,312,52561,1,0,0:0:0:0:
136,312,52667,1,2,3:2:0:0:
24,128,53089,5,8,3:2:0:0:
106,147,53301,1,0,0:0:0:0:
106,147,53406,1,8,0:0:0:0:
159,86,53618,1,8,0:0:0:0:
241,106,53830,1,8,0:0:0:0:
241,106,53935,1,8,3:2:0:0:
241,106,54357,6,0,B|297:138|361:74|425:118,1,160,6|8,3:2|3:2,0:0:0:0:
470,140,54991,1,0,0:0:0:0:
412,194,55202,1,0,3:0:0:0:
412,194,55308,1,0,0:0:0:0:
412,194,55413,1,0,0:0:0:0:
486,224,55625,1,8,3:2:0:0:
486,224,55836,1,2,0:0:0:0:
421,270,56047,2,0,B|365:302|301:238|237:282,1,160,2|8,3:2|3:2,0:0:0:0:
184,281,56681,1,0,0:0:0:0:
139,347,56892,1,2,3:2:0:0:
72,323,57103,1,2,0:0:0:0:
72,323,57209,1,0,0:0:0:0:
72,323,57315,1,8,3:2:0:0:
113,254,57526,1,2,0:0:0:0:
55,198,57737,6,0,P|81:125|37:62,1,160,2|8,3:2|0:0,0:0:0:0:
199,65,58371,2,0,P|155:128|181:200,1,160,0|2,0:0|0:0,0:0:0:0:
242,148,59005,1,8,3:2:0:0:
242,148,59111,1,0,0:0:0:0:
242,148,59216,1,2,0:0:0:0:
282,78,59427,2,0,P|309:50|321:12,1,80,2|0,3:2|0:0,0:0:0:0:
333,138,59850,2,0,P|372:136|407:118,1,80,8|0,3:2|0:0,0:0:0:0:
290,215,60273,2,0,P|318:242|356:254,1,80,2|2,3:2|0:0,0:0:0:0:
223,275,60695,1,8,3:2:0:0:
223,275,60801,1,0,0:0:0:0:
223,275,60906,1,2,0:0:0:0:
222,355,61118,6,0,L|62:356,2,160,2|8|0,3:2|0:0|3:0,0:0:0:0:
292,318,62174,2,0,L|451:315,1,160,2|2,0:0|0:0,0:0:0:0:
451,315,62808,1,2,3:2:0:0:
420,241,63019,1,0,0:0:0:0:
463,174,63230,1,8,3:2:0:0:
421,105,63442,1,2,0:0:0:0:
476,47,63653,2,0,B|415:65|375:28|317:43,1,160,2|8,3:2|3:2,0:0:0:0:
17,124,64498,5,2,3:2:0:0:
17,124,64603,1,0,0:0:0:0:
17,124,64709,1,0,0:0:0:0:
64,59,64920,1,8,3:2:0:0:
139,84,65132,1,2,0:0:0:0:
90,147,65343,2,0,L|110:225,1,80,2|0,3:2|0:0,0:0:0:0:
188,210,65765,2,0,L|168:288,1,80,8|2,3:2|0:0,0:0:0:0:
88,300,66188,1,2,3:2:0:0:
138,361,66399,1,8,0:0:0:0:
217,352,66611,1,8,3:1:0:0:
277,185,67033,1,8,3:2:0:0:
277,185,67139,1,8,0:0:0:0:
263,106,67350,1,8,0:0:0:0:
325,56,67561,1,8,0:0:0:0:
325,56,67667,1,8,0:0:0:0:
387,107,67878,6,0,B|446:119|465:88|466:45,2,120,6|2|0,3:2|0:0|0:0,0:0:0:0:
380,187,68723,2,0,L|385:266,1,80,2|0,3:2|0:0,0:0:0:0:
471,187,69146,2,0,L|465:266,1,80,8|0,3:2|0:0,0:0:0:0:
425,335,69568,2,0,L|307:357,2,120,2|2|0,3:2|0:0|0:0,0:0:0:0:
385,266,70413,2,0,L|305:260,1,80,2|0,3:2|0:0,0:0:0:0:
241,309,70836,2,0,L|161:314,1,80,8|0,3:2|0:0,0:0:0:0:
81,312,71258,6,0,B|83:264|74:241|30:211,2,120,2|2|2,3:2|0:0|0:0,0:0:0:0:
161,237,72103,2,0,B|159:188|168:165|211:135,2,120,2|0|2,3:2|0:0|0:0,0:0:0:0:
91,148,72949,2,0,B|92:99|83:76|40:46,2,120,2|2|2,3:2|0:0|0:0,0:0:0:0:
167,56,73794,2,0,P|243:44|301:94,1,160,2|8,3:2|3:2,0:0:0:0:
308,174,74427,1,0,0:0:0:0:
308,174,74533,1,0,0:0:0:0:
308,174,74639,6,0,L|305:293,2,120,6|2|0,3:2|0:0|0:0,0:0:0:0:
388,169,75484,2,0,L|467:157,1,80,2|0,3:2|0:0,0:0:0:0:
468,77,75906,2,0,L|388:65,1,80,8|0,3:2|0:0,0:0:0:0:
308,62,76329,2,0,L|188:64,2,120,2|2|0,3:2|0:0|0:0,0:0:0:0:
278,136,77174,2,0,L|299:212,1,80,2|0,3:2|0:0,0:0:0:0:
190,142,77596,2,0,L|211:218,1,80,8|0,3:2|0:0,0:0:0:0:
118,105,78019,6,0,P|60:109|19:67,2,120,2|2|2,3:2|0:0|0:0,0:0:0:0:
190,142,78864,2,0,P|247:137|288:179,2,120,2|0|2,3:2|0:0|0:0,0:0:0:0:
132,196,79709,1,2,3:2:0:0:
180,303,80026,1,2,0:0:0:0:
300,292,80343,1,2,0:0:0:0:
348,228,80554,1,2,3:2:0:0:
348,228,80765,1,0,0:0:0:0:
375,152,80977,1,8,3:2:0:0:
375,152,81188,1,0,0:0:0:0:
452,180,81399,1,4,1:0:0:0:
256,192,81505,12,0,82667,0:0:0:0:
344,192,83089,5,6,3:2:0:0:
300,268,83301,1,2,0:0:0:0:
212,268,83512,1,8,3:1:0:0:
168,192,83723,1,2,0:0:0:0:
256,192,83934,2,0,L|256:76,1,88.000002685547,2|0,3:2|0:0,0:0:0:0:
168,104,84357,2,0,L|168:16,2,88.000002685547,8|2|2,3:1|3:2|3:2,0:0:0:0:
344,276,85096,2,0,L|344:128,1,132.00000402832,2|2,0:0|0:0,0:0:0:0:
344,56,85625,1,2,3:2:0:0:
344,56,85836,1,0,0:0:0:0:
344,56,86047,1,8,3:1:0:0:
344,56,86470,5,2,3:2:0:0:
344,56,86575,1,0,0:0:0:0:
344,56,86681,1,0,0:0:0:0:
264,16,86892,1,8,3:1:0:0:
180,44,87103,1,0,0:0:0:0:
148,124,87315,2,0,B|76:164|60:212|88:288,1,176.000005371094,2|8,3:2|3:1,0:0:0:0:
156,316,87949,1,2,0:0:0:0:
240,288,88160,5,2,3:2:0:0:
364,328,88477,1,2,0:0:0:0:
432,216,88794,1,2,0:0:0:0:
360,164,89005,1,2,3:2:0:0:
412,84,89216,1,0,0:0:0:0:
412,84,89322,1,0,0:0:0:0:
412,84,89427,1,8,3:1:0:0:
412,84,89850,6,0,L|212:84,2,176.000005371094,2|8|2,3:2|3:1|3:2,0:0:0:0:
507,84,90906,1,0,0:0:0:0:
507,84,91012,1,0,0:0:0:0:
507,84,91118,1,8,0:1:0:0:
200,192,91540,2,0,L|332:192,2,132.00000402832,2|2|2,3:2|0:0|0:0,0:0:0:0:
122,192,92385,1,2,3:2:0:0:
41,192,92596,1,0,0:0:0:0:
41,192,92702,1,0,0:0:0:0:
41,192,92808,1,8,3:1:0:0:
41,192,93230,6,0,B|75:132|3:72|51:0,1,176.000005371094,2|8,3:2|3:1,0:0:0:0:
124,44,93864,1,2,3:2:0:0:
388,52,94287,1,2,0:0:0:0:
388,52,94392,1,0,0:0:0:0:
388,52,94498,1,8,3:1:0:0:
336,124,94709,1,2,0:0:0:0:
392,192,94920,5,10,3:2:0:0:
392,192,95132,1,8,0:0:0:0:
424,272,95343,1,8,3:1:0:0:
424,272,95554,1,10,0:0:0:0:
368,340,95765,1,10,3:2:0:0:
368,340,95871,1,8,0:0:0:0:
280,340,96082,1,8,0:0:0:0:
280,340,96188,1,8,3:1:0:0:
192,340,96399,1,8,0:0:0:0:
192,340,96505,1,8,0:0:0:0:
192,340,96611,6,0,B|-4:340,1,176.000005371094,6|8,3:2|3:1,0:0:0:0:
16,252,97244,1,2,0:0:0:0:
104,252,97456,2,0,L|104:160,1,88.000002685547,2|0,3:2|0:0,0:0:0:0:
191,164,97878,1,8,3:1:0:0:
268,124,98089,1,2,0:0:0:0:
252,36,98301,5,2,3:2:0:0:
380,4,98618,1,2,0:0:0:0:
492,72,98934,1,2,0:0:0:0:
500,160,99146,1,2,3:2:0:0:
424,196,99357,1,0,0:0:0:0:
424,196,99463,1,0,0:0:0:0:
424,196,99568,1,8,3:1:0:0:
424,196,99991,6,0,L|424:296,2,88.000002685547,2|2|8,3:2|0:0|3:1,0:0:0:0:
336,252,100625,2,0,L|336:352,1,88.000002685547,2|2,0:0|3:2,0:0:0:0:
248,296,101047,2,0,L|248:396,1,88.000002685547,0|8,0:0|3:1,0:0:0:0:
160,340,101470,2,0,L|160:252,1,88.000002685547,2|2,0:0|3:2,0:0:0:0:
72,156,101998,1,2,0:0:0:0:
184,84,102315,1,2,0:0:0:0:
256,132,102526,1,2,3:2:0:0:
328,84,102737,1,0,0:0:0:0:
328,84,102843,1,0,0:0:0:0:
328,84,102949,1,8,3:1:0:0:
328,84,103371,6,0,L|504:84,2,176.000005371094,2|8|2,3:2|3:1|3:2,0:0:0:0:
231,84,104427,1,0,0:0:0:0:
231,84,104533,1,0,0:0:0:0:
231,84,104639,1,8,3:1:0:0:
136,344,105061,2,0,L|-12:344,2,132.00000402832,2|2|2,3:2|0:0|0:0,0:0:0:0:
234,344,105906,1,2,3:2:0:0:
329,344,106118,1,2,0:0:0:0:
329,344,106223,1,0,0:0:0:0:
329,344,106329,1,8,3:1:0:0:
329,344,106751,6,0,B|356:288|392:264|488:300,1,176.000005371094,2|8,3:2|3:1,0:0:0:0:
408,148,107385,2,0,B|381:204|345:228|249:192,1,176.000005371094,2|2,0:0|0:0,0:0:0:0:
184,160,108019,1,8,3:1:0:0:
184,160,108230,1,2,0:0:0:0:
100,180,108442,6,0,L|100:368,3,176.000005371094,2|8|2|8,3:2|3:1|3:2|3:1,0:0:0:0:
16,376,109920,1,0,0:0:0:0:
256,192,110132,12,8,111399,3:1:0:0:
256,192,111822,5,2,3:2:0:0:
168,192,112033,1,8,0:0:0:0:
80,192,112244,1,8,3:1:0:0:
168,280,112561,1,8,0:0:0:0:
256,280,112773,1,8,0:0:0:0:
343,280,112984,1,8,0:0:0:0:
343,280,113089,2,0,L|428:280,4,44.0000013427735,8|8|2|2|6,3:1|0:0|0:3|0:3|3:2,0:0:0:0:
116,360,113934,5,8,3:2:0:0:
20,140,114357,1,2,3:2:0:0:
236,36,114780,1,8,3:2:0:0:
456,128,115202,6,0,L|456:236,2,80,2|0|8,3:2|0:0|3:2,0:0:0:0:
375,128,115836,2,0,L|375:40,2,80,0|2|0,0:0|3:2|0:0,0:0:0:0:
304,164,116470,1,8,3:2:0:0:
304,164,116892,6,0,B|240:180|196:136|120:160,1,160,2|8,3:2|3:2,0:0:0:0:
180,228,117526,2,0,B|116:244|72:200|-4:224,1,160,2|2,0:0|0:0,0:0:0:0:
52,292,118160,2,0,L|52:376,1,80,8|2,3:2|0:0,0:0:0:0:
132,372,118582,2,0,B|196:356|240:400|316:376,1,160,2|8,3:2|3:2,0:0:0:0:
256,308,119216,2,0,B|320:292|364:336|440:312,1,160,2|2,0:0|0:0,0:0:0:0:
471,260,119850,1,8,3:2:0:0:
471,260,119956,1,0,0:0:0:0:
471,260,120061,1,0,0:0:0:0:
384,236,120273,5,2,3:2:0:0:
384,156,120484,1,2,0:0:0:0:
384,76,120695,2,0,L|292:76,2,80,8|2|2,3:2|0:0|3:2,0:0:0:0:
432,12,121329,2,0,L|512:12,2,80,2|8|0,0:0|3:2|0:0,0:0:0:0:
472,92,121963,6,0,L|472:184,1,80,2|2,3:2|0:0,0:0:0:0:
392,184,122385,2,0,L|392:276,2,80,8|0|2,3:2|0:0|3:2,0:0:0:0:
312,232,123019,1,2,0:0:0:0:
240,272,123230,2,0,L|240:364,1,80,8|0,3:2|0:0,0:0:0:0:
148,352,123653,5,2,3:2:0:0:
148,272,123864,1,2,0:0:0:0:
148,192,124075,1,8,3:2:0:0:
364,32,124498,5,2,3:2:0:0:
364,112,124709,1,2,0:0:0:0:
364,192,124920,1,8,3:2:0:0:
124,192,125343,5,2,3:2:0:0:
204,196,125554,1,0,0:0:0:0:
204,196,125660,1,8,0:0:0:0:
368,196,126082,1,8,0:0:0:0:
368,196,126188,2,0,L|428:196,6,40,8|8|8|8|8|8|8,3:2|0:0|3:2|0:0|3:2|0:0|3:2,0:0:0:0:
484,356,127033,6,0,B|372:356|372:356|284:296|284:296|182:296,1,320,6|0,3:2|3:0,0:0:0:0:
24,296,128301,1,8,3:2:0:0:
80,240,128512,1,2,0:0:0:0:
80,240,128618,1,0,0:0:0:0:
80,240,128723,1,2,3:2:0:0:
32,176,128934,1,0,0:0:0:0:
32,176,129146,1,8,3:2:0:0:
80,116,129357,1,0,0:0:0:0:
80,116,129463,1,0,0:0:0:0:
80,116,129568,1,2,3:2:0:0:
32,52,129780,1,2,0:0:0:0:
112,48,129991,1,8,3:2:0:0:
172,116,130202,1,2,0:0:0:0:
172,116,130308,1,0,0:0:0:0:
172,116,130413,6,0,B|284:116|284:116|372:56|372:56|473:56,1,320,2|0,3:2|3:0,0:0:0:0:
480,136,131470,1,2,0:0:0:0:
408,172,131681,2,0,L|408:252,1,80,8|2,3:2|0:0,0:0:0:0:
332,224,132103,2,0,L|332:304,2,80,2|0|8,3:2|0:0|3:2,0:0:0:0:
260,264,132737,1,0,0:0:0:0:
260,264,132949,2,0,L|260:344,1,80,2|2,3:2|0:0,0:0:0:0:
188,308,133371,1,8,3:2:0:0:
132,364,133582,1,2,0:0:0:0:
132,364,133688,1,0,0:0:0:0:
131,363,133794,6,0,P|99:292|34:247,1,160,2|8,3:2|3:2,0:0:0:0:
32,168,134427,2,0,P|103:135|148:70,1,160,2|0,3:2|3:0,0:0:0:0:
212,120,135061,1,8,3:2:0:0:
280,180,135273,1,2,0:0:0:0:
280,180,135378,1,0,0:0:0:0:
280,180,135484,1,2,3:2:0:0:
360,196,135695,1,0,0:0:0:0:
360,196,135906,1,8,3:2:0:0:
448,200,136118,1,2,0:0:0:0:
448,200,136223,1,0,0:0:0:0:
448,200,136329,1,2,3:2:0:0:
468,276,136540,1,0,0:0:0:0:
468,112,136751,1,8,3:2:0:0:
468,112,137174,6,0,L|228:112,1,240,2|2,3:2|0:0,0:0:0:0:
228,32,138019,2,0,L|148:31,1,80,2|0,3:2|0:0,0:0:0:0:
68,32,138442,1,8,3:2:0:0:
68,112,138653,1,2,0:0:0:0:
148,112,138864,5,2,3:2:0:0:
144,192,139075,1,8,0:0:0:0:
144,272,139287,1,8,3:1:0:0:
144,352,139498,1,8,0:0:0:0:
228,356,139709,1,0,0:0:0:0:
228,356,139815,1,8,0:0:0:0:
308,352,140026,1,8,0:0:0:0:
392,356,140237,1,8,0:0:0:0:
392,356,140343,1,8,0:0:0:0:
392,276,140554,6,0,L|512:276,2,120,6|2|0,3:2|0:0|0:0,0:0:0:0:
392,196,141399,2,0,L|392:116,1,80,2|0,3:2|0:0,0:0:0:0:
312,116,141822,2,0,L|312:196,1,80,8|0,3:2|0:0,0:0:0:0:
232,196,142244,2,0,L|112:196,2,120,2|2|0,3:2|0:0|0:0,0:0:0:0:
232,276,143089,2,0,L|232:356,1,80,2|0,3:2|0:0,0:0:0:0:
152,356,143512,2,0,L|152:276,1,80,8|0,3:2|0:0,0:0:0:0:
76,276,143934,6,0,P|16:281|28:336,2,120,2|2|2,3:2|0:0|0:0,0:0:0:0:
195,190,144780,2,0,P|149:162|120:208,2,120,2|0|2,3:2|0:0|0:0,0:0:0:0:
316,292,145625,2,0,P|314:238|260:240,2,120,2|2|2,3:2|0:0|0:0,0:0:0:0:
176,304,146470,2,0,L|136:68,1,240,2|0,3:2|0:0,0:0:0:0:
212,36,147315,6,0,L|234:153,2,120,6|2|0,3:2|0:0|0:0,0:0:0:0:
292,24,148160,2,0,L|371:31,1,80,2|0,3:2|0:0,0:0:0:0:
452,44,148582,2,0,L|459:123,1,80,10|0,3:2|0:0,0:0:0:0:
428,200,149005,2,0,L|308:192,2,120,2|2|0,3:2|0:0|0:0,0:0:0:0:
476,264,149850,2,0,L|472:344,1,80,2|0,3:2|0:0,0:0:0:0:
392,348,150273,2,0,L|312:344,1,80,10|0,3:2|0:0,0:0:0:0:
232,352,150695,6,0,P|174:364|117:348,2,120,2|2|2,3:2|0:0|0:0,0:0:0:0:
264,280,151540,2,0,L|240:162,2,120,2|0|2,3:2|0:0|0:0,0:0:0:0:
312,344,152385,1,2,3:2:0:0:
396,240,152702,1,2,0:0:0:0:
396,120,153019,1,2,0:0:0:0:
340,60,153230,1,2,3:2:0:0:
340,60,153442,1,0,0:0:0:0:
263,39,153653,1,8,3:2:0:0:
263,39,153864,1,0,0:0:0:0:
280,116,154075,1,4,1:1:0:0:
256,192,154181,12,0,155343,0:0:0:0:
356,192,155765,5,6,3:2:0:0:
300,260,155977,1,2,0:0:0:0:
212,260,156188,1,8,3:1:0:0:
156,192,156399,1,2,0:0:0:0:
256,192,156611,2,0,L|256:16,1,176.000005371094,2|8,3:2|3:1,0:0:0:0:
356,110,157244,1,0,0:0:0:0:
356,110,157456,2,0,P|441:109|499:172,1,176.000005371094,2|8,3:2|3:1,0:0:0:0:
404,200,158089,1,2,0:0:0:0:
404,200,158301,2,0,L|408:375,2,176.000005371094,2|8|2,3:2|3:1|3:2,0:0:0:0:
328,288,159357,5,0,0:0:0:0:
264,348,159568,2,0,L|176:348,1,88.000002685547,8|0,3:1|0:0,0:0:0:0:
84,260,159991,2,0,L|172:260,2,88.000002685547,2|0|8,3:2|0:0|3:1,0:0:0:0:
84,260,160625,1,2,0:0:0:0:
84,171,160836,2,0,P|149:169|210:192,2,132.00000402832,2|2|2,3:2|0:0|0:0,0:0:0:0:
16,116,161681,1,2,3:2:0:0:
24,36,161892,1,0,0:0:0:0:
24,36,161998,1,0,0:0:0:0:
24,36,162103,1,8,3:1:0:0:
112,36,162315,1,0,0:0:0:0:
112,36,162526,6,0,B|177:28|213:88|281:58,2,176.000005371094,2|8|2,3:2|3:1|3:2,0:0:0:0:
232,164,163794,1,8,3:1:0:0:
344,300,164216,2,0,B|396:293|420:324|474:308,2,132.00000402832,2|2|2,3:2|0:0|0:0,0:0:0:0:
271,351,165061,2,0,P|255:311|259:268,1,88.000002685547,2|0,3:2|0:0,0:0:0:0:
340,132,165484,2,0,P|344:175|328:216,1,88.000002685547,8|0,3:1|0:0,0:0:0:0:
244,184,165906,6,0,B|192:168|128:228|73:187,1,176.000005371094,2|8,3:2|3:1,0:0:0:0:
246,96,166540,2,0,B|194:80|130:140|76:100,1,176.000005371094,2|2,0:0|0:0,0:0:0:0:
76,100,167174,1,8,3:1:0:0:
73,187,167385,1,2,0:0:0:0:
72,276,167596,5,10,3:2:0:0:
160,276,167808,1,8,0:0:0:0:
248,276,168019,1,8,3:1:0:0:
336,276,168230,1,10,0:0:0:0:
424,280,168442,1,10,3:2:0:0:
424,280,168547,1,8,0:0:0:0:
512,280,168758,1,8,0:0:0:0:
512,280,168864,1,8,3:1:0:0:
472,360,169075,1,8,0:0:0:0:
472,360,169181,1,8,0:0:0:0:
472,360,169287,6,0,L|296:360,1,176.000005371094,6|8,3:2|3:1,0:0:0:0:
216,360,169920,1,2,0:0:0:0:
216,360,170026,1,0,0:0:0:0:
216,360,170132,1,2,3:2:0:0:
128,359,170343,1,0,0:0:0:0:
128,359,170554,2,0,P|126:316|104:279,1,88.000002685547,8|2,3:1|0:0,0:0:0:0:
64,200,170977,2,0,L|239:184,1,176.000005371094,2|8,3:2|3:1,0:0:0:0:
239,184,171611,1,2,0:0:0:0:
288,112,171822,1,2,3:2:0:0:
288,112,171927,1,0,0:0:0:0:
288,112,172033,1,0,0:0:0:0:
376,112,172244,1,8,3:1:0:0:
431,179,172456,1,0,0:0:0:0:
332,184,172667,6,0,L|325:271,1,88.000002685547,2|2,3:2|0:0,0:0:0:0:
431,179,173089,2,0,L|437:91,1,88.000002685547,8|2,3:1|0:0,0:0:0:0:
384,32,173512,2,0,L|208:40,1,176.000005371094,2|8,3:2|3:1,0:0:0:0:
124,48,174146,1,2,0:0:0:0:
124,48,174251,1,0,0:0:0:0:
124,48,174357,1,2,3:2:0:0:
36,148,174674,1,2,0:0:0:0:
128,244,174991,1,2,0:0:0:0:
128,244,175202,1,2,3:2:0:0:
72,312,175413,1,0,0:0:0:0:
72,312,175625,1,8,3:1:0:0:
160,328,175836,1,0,0:0:0:0:
160,328,176047,6,0,B|217:328|217:328|264:296|264:296|325:296,2,176.000005371094,2|8|2,3:2|3:1|3:2,0:0:0:0:
256,180,177315,1,8,3:1:0:0:
360,40,177737,2,0,B|408:40|408:40|444:24|444:24|488:24,2,132.00000402832,2|2|2,3:2|0:0|0:0,0:0:0:0:
272,40,178582,2,0,L|184:40,1,88.000002685547,2|0,3:2|0:0,0:0:0:0:
96,40,179005,1,8,3:1:0:0:
8,40,179216,1,0,0:0:0:0:
96,40,179427,6,0,B|80:96|116:160|96:214,1,176.000005371094,2|8,3:2|3:1,0:0:0:0:
184,304,180061,2,0,B|168:248|204:184|184:129,1,176.000005371094,2|2,0:0|0:0,0:0:0:0:
272,128,180695,1,8,3:1:0:0:
360,124,180906,1,2,0:0:0:0:
448,120,181118,2,0,L|455:295,3,176.000005371094,2|8|2|8,3:2|3:1|3:2|3:1,0:0:0:0:
368,304,182596,1,2,0:0:0:0:
280,314,182808,2,0,L|104:322,4,176.000005371094,2|8|2|8|0,3:2|3:1|3:2|3:1|3:2,0:0:0:0:
256,148,184920,1,8,3:1:0:0:
256,148,185132,1,8,0:0:0:0:
204,76,185343,1,8,3:1:0:0:
204,76,185554,1,8,3:1:0:0:
256,4,185765,1,8,3:1:0:0:
256,4,185977,1,8,3:1:0:0:
308,76,186188,1,2,0:0:0:0:
308,76,186611,6,0,L|128:76,1,160,2|0,0:3|0:0,0:0:0:0:
148,156,187244,2,0,L|52:156,1,80,2|2,0:0|0:3,0:0:0:0:
204,308,187878,2,0,L|384:308,1,160,2|2,0:0|0:3,0:0:0:0:
364,228,188511,2,0,L|460:228,1,80
444,67,189146,1,2,0:3:0:0:
284,69,189568,1,2,0:0:0:0:
284,69,189991,6,0,L|284:248,1,160,2|2,0:3|0:0,0:0:0:0:
204,228,190624,2,0,L|204:324,1,80,2|2,0:0|0:3,0:0:0:0:
508,360,191258,2,0,L|507:180,1,160,2|0,0:0|0:0,0:0:0:0:
428,200,191891,2,0,L|428:104,1,80
284,69,192526,1,0,0:0:0:0:
140,24,192949,6,0,B|84:32|36:68|16:120,1,160,2|2,0:0|0:3,0:0:0:0:
80,164,193582,2,0,B|136:172|184:208|204:260,1,160
160,320,194216,1,2,0:3:0:0:
372,360,194639,2,0,B|428:352|476:316|496:264,1,160,2|2,0:0|0:3,0:0:0:0:
432,220,195272,2,0,B|376:212|328:176|308:124,1,160
352,64,195906,1,2,0:3:0:0:
172,268,196329,6,0,L|352:268,3,160,2|2|2|2,0:0|0:3|0:0|0:3,0:0:0:0:
96,72,198019,2,0,L|96:244,1,160,2|2,0:0|0:3,0:0:0:0:
416,312,198864,2,0,L|416:140,1,160,2|2,0:0|0:3,0:0:0:0:
356,12,199709,6,0,B|284:76|164:112|32:48,1,320,2|0,0:0|0:0,0:0:0:0:
16,244,200977,1,8,0:0:0:0:
156,372,201399,2,0,B|228:308|348:272|480:336,2,320,2|0|2,0:0|0:0|0:0,0:0:0:0:
4,324,203512,1,8,0:0:0:0:
68,184,203934,2,0,L|68:84,2,80,2|0|8,0:0|0:0|0:0,0:0:0:0:
148,132,204568,2,0,L|148:28,1,80,2|2,0:0|0:0,0:0:0:0:
256,192,205202,2,0,L|256:380,2,160,8|0|8,0:0|0:0|0:0,0:0:0:0:
500,124,206470,6,0,P|407:86|454:217,1,320,2|0,0:0|0:0,0:0:0:0:
416,300,207526,2,0,L|308:300,1,80,2|8,0:0|0:0,0:0:0:0:
296,232,207949,2,0,L|188:232,1,80
168,168,208371,2,0,L|84:168,1,80,2|8,0:0|0:0,0:0:0:0:
8,304,209005,1,2,0:0:0:0:
48,24,209850,6,0,B|104:12|172:28|192:112,1,160,2|8,0:0|0:0,0:0:0:0:
256,116,210484,1,2,0:0:0:0:
329,83,210695,2,0,B|340:28|408:12|464:24,1,160,2|8,0:0|0:0,0:0:0:0:
508,88,211329,1,2,0:0:0:0:
256,192,211540,12,8,212808,0:0:0:0:
64,48,213230,6,0,L|86:206,1,160,6|8,3:2|3:2,0:0:0:0:
100,284,213864,1,0,0:0:0:0:
116,360,214075,2,0,L|194:344,1,80,2|0,3:2|0:0,0:0:0:0:
280,332,214498,1,8,3:2:0:0:
280,332,214603,1,0,0:0:0:0:
280,332,214709,1,0,0:0:0:0:
360,320,214920,6,0,L|344:160,1,160,2|8,3:2|3:2,0:0:0:0:
336,80,215554,1,0,0:0:0:0:
256,80,215765,2,0,L|176:83,1,80,2|0,3:2|0:0,0:0:0:0:
104,92,216188,1,8,3:2:0:0:
104,92,216294,1,0,0:0:0:0:
104,92,216399,1,0,0:0:0:0:
104,172,216611,6,0,L|263:160,1,160,2|8,3:2|3:2,0:0:0:0:
256,80,217244,2,0,L|415:68,1,160
420,148,217878,1,8,3:2:0:0:
420,148,218089,1,2,0:0:0:0:
420,148,218301,1,2,3:2:0:0:
420,228,218512,1,0,0:0:0:0:
420,308,218723,1,8,3:2:0:0:
160,312,219146,1,2,3:2:0:0:
160,232,219357,1,0,0:0:0:0:
160,152,219568,1,8,3:2:0:0:
160,152,219991,6,0,L|0:152,1,160,2|8,3:2|3:2,0:0:0:0:
4,232,220625,2,0,L|84:232,2,80,0|2|0,0:0|3:2|0:0,0:0:0:0:
12,320,221258,1,8,3:2:0:0:
12,320,221364,1,0,0:0:0:0:
12,320,221470,1,0,0:0:0:0:
92,316,221681,2,0,L|252:316,1,160,2|8,3:2|3:2,0:0:0:0:
332,316,222315,2,0,L|412:316,2,80,0|2|0,0:0|3:2|0:0,0:0:0:0:
336,244,222948,1,8,3:2:0:0:
336,244,223054,1,0,0:0:0:0:
336,244,223160,1,0,0:0:0:0:
416,240,223371,5,2,3:2:0:0:
456,152,223582,1,0,0:0:0:0:
444,56,223794,1,8,3:2:0:0:
172,36,224216,1,2,3:2:0:0:
132,124,224427,1,0,0:0:0:0:
144,220,224639,1,8,3:2:0:0:
144,220,225061,6,0,L|132:260,1,40,2|8,3:2|0:0,0:0:0:0:
164,368,225378,2,0,L|176:328,1,40,8|2,0:0|3:2,0:0:0:0:
292,252,225695,1,8,0:0:0:0:
292,252,225801,1,8,0:0:0:0:
292,252,225906,2,0,L|307:288,1,40,2|0,3:2|0:0,0:0:0:0:
344,204,226118,2,0,L|375:228,1,40,2|0,3:2|0:0,0:0:0:0:
372,136,226329,2,0,L|411:141,1,40,8|0,3:2|0:0,0:0:0:0:
356,64,226540,2,0,L|392:48,1,40,2|0,3:2|0:0,0:0:0:0:
292,24,226751,1,4,1:0:0:0:
256,192,226857,12,0,228019,0:0:0:0:
256,60,228442,5,6,3:2:0:0:
256,148,228653,1,2,0:0:0:0:
256,236,228864,1,8,3:1:0:0:
256,324,229075,1,2,0:0:0:0:
184,376,229287,2,0,B|112:376|112:376|112:244,1,176.000005371094,2|8,3:2|3:1,0:0:0:0:
168,204,229920,2,0,L|168:116,1,88.000002685547,2|2,0:0|3:2,0:0:0:0:
280,20,230449,1,2,0:0:0:0:
280,20,230554,1,8,3:1:0:0:
368,60,230765,1,2,0:0:0:0:
368,60,230871,1,0,0:0:0:0:
368,60,230977,1,2,3:2:0:0:
416,136,231188,1,0,0:0:0:0:
364,208,231399,1,8,3:1:0:0:
364,208,231822,6,0,L|272:208,1,88.000002685547,2|0,3:2|0:0,0:0:0:0:
212,268,232244,1,8,3:1:0:0:
212,268,232456,1,2,0:0:0:0:
124,252,232667,1,2,3:2:0:0:
76,180,232878,1,0,0:0:0:0:
84,92,233089,1,8,3:1:0:0:
160,44,233301,1,2,0:0:0:0:
240,84,233512,2,0,L|296:84,1,44.0000013427735,2|0,3:2|0:0,0:0:0:0:
384,16,233829,2,0,L|328:16,1,44.0000013427735,2|8,0:0|3:1,0:0:0:0:
376,104,234146,1,2,0:0:0:0:
324,176,234357,1,2,3:2:0:0:
384,252,234568,1,2,0:0:0:0:
384,252,234674,1,0,0:0:0:0:
384,252,234780,1,8,3:1:0:0:
384,252,235202,6,0,L|192:252,2,176.000005371094,2|8|2,3:2|3:1|3:2,0:0:0:0:
472,252,236258,1,0,0:0:0:0:
472,252,236364,1,0,0:0:0:0:
472,252,236470,1,8,0:1:0:0:
212,88,236892,2,0,L|344:88,2,132.00000402832,2|2|2,3:2|0:0|0:0,0:0:0:0:
126,88,237737,1,2,3:2:0:0:
44,88,237948,1,0,0:0:0:0:
44,88,238054,1,0,0:0:0:0:
44,88,238160,1,8,3:1:0:0:
44,88,238582,6,0,B|16:136|-8:180|16:280,1,176.000005371094,2|8,3:2|3:1,0:0:0:0:
72,320,239216,2,0,L|167:333,1,88.000002685547,2|0,0:0|0:0,0:0:0:0:
236,288,239639,2,0,L|331:301,1,88.000002685547,2|8,0:0|3:1,0:0:0:0:
392,356,240061,1,2,0:0:0:0:
468,312,240273,5,2,3:2:0:0:
468,312,240484,1,8,0:0:0:0:
496,232,240695,1,8,3:1:0:0:
496,232,240906,1,8,0:0:0:0:
440,168,241118,1,10,3:2:0:0:
440,168,241223,1,8,0:0:0:0:
452,84,241434,1,8,0:0:0:0:
452,84,241540,1,8,3:1:0:0:
400,16,241751,1,8,0:0:0:0:
400,16,241857,1,8,0:0:0:0:
400,16,241963,5,6,3:2:0:0:
324,60,242174,1,2,0:0:0:0:
240,40,242385,1,8,3:1:0:0:
240,40,242596,1,2,0:0:0:0:
160,76,242808,2,0,L|158:251,1,176.000005371094,2|8,3:2|3:1,0:0:0:0:
68,340,243442,2,0,L|68:252,1,88.000002685547,2|2,0:0|3:2,0:0:0:0:
28,132,243970,1,2,0:0:0:0:
28,132,244075,1,8,3:1:0:0:
76,56,244287,1,2,0:0:0:0:
160,76,244498,1,2,3:2:0:0:
248,76,244709,1,0,0:0:0:0:
336,76,244920,1,8,3:1:0:0:
428,224,245343,6,0,P|456:257|468:299,1,88.000002685547,2|2,3:2|0:0,0:0:0:0:
428,376,245765,1,8,3:1:0:0:
384,300,245977,1,2,0:0:0:0:
428,376,246188,1,2,3:2:0:0:
348,380,246399,1,0,0:0:0:0:
348,380,246505,1,0,0:0:0:0:
348,380,246611,1,8,3:1:0:0:
300,308,246822,2,0,L|212:311,1,88.000002685547,2|2,0:0|3:2,0:0:0:0:
148,372,247244,1,2,0:0:0:0:
148,372,247456,2,0,L|60:368,1,88.000002685547,8|2,3:1|0:0,0:0:0:0:
64,280,247878,1,2,3:2:0:0:
24,212,248089,1,0,0:0:0:0:
24,212,248195,1,0,0:0:0:0:
24,212,248301,1,8,3:1:0:0:
112,208,248512,1,0,0:0:0:0:
112,208,248723,6,0,B|170:196|210:264|280:219,2,176.000005371094,2|8|2,3:2|3:1|3:2,0:0:0:0:
72,140,249780,1,0,0:0:0:0:
72,140,249885,1,0,0:0:0:0:
72,140,249991,1,8,3:1:0:0:
124,68,250202,1,2,0:0:0:0:
124,68,250413,2,0,B|168:60|208:100|253:75,2,132.00000402832,2|2|2,3:2|0:0|0:0,0:0:0:0:
72,140,251258,1,2,3:2:0:0:
20,68,251470,1,2,0:0:0:0:
20,68,251575,1,0,0:0:0:0:
20,68,251681,1,8,3:1:0:0:
72,140,251892,1,0,0:0:0:0:
92,224,252103,6,0,B|139:267|155:319|115:381,1,176.000005371094,2|8,3:2|3:1,0:0:0:0:
248,340,252737,2,0,B|208:277|224:225|271:182,1,176.000005371094,2|2,0:0|0:0,0:0:0:0:
344,132,253371,1,8,3:1:0:0:
432,148,253582,1,2,0:0:0:0:
364,204,253794,2,0,L|406:374,3,176.000005371094,0|8|2|8,3:0|3:1|3:2|3:1,0:0:0:0:
220,272,255273,1,2,0:0:0:0:
220,272,255484,2,0,L|262:101,3,176.000005371094,2|8|2|8,3:2|3:1|3:2|3:1,0:0:0:0:
456,36,257174,5,10,3:2:0:0:
460,40,257280,1,8,0:0:0:0:
476,132,257491,1,8,0:0:0:0:
476,132,257596,1,8,3:1:0:0:
476,132,258019,1,2,3:2:0:0:
476,132,258125,1,8,0:0:0:0:
492,220,258336,1,8,0:0:0:0:
492,220,258442,2,0,L|496:264,3,44.0000013427735,0|8|8|0,0:0|0:0|3:2|0:0,0:0:0:0:
420,184,258864,6,0,B|308:184|308:184|232:132|232:132|116:132,1,320,6|2,3:2|3:2,0:0:0:0:
36,132,259920,1,0,0:0:0:0:
36,132,260132,2,0,L|36:212,1,80,8|0,3:2|0:0,0:0:0:0:
36,292,260554,2,0,B|148:292|148:292|224:344|224:344|339:344,1,320,2|2,3:2|3:2,0:0:0:0:
420,344,261610,1,0,0:0:0:0:
420,344,261822,1,8,3:2:0:0:
384,284,262033,1,0,0:0:0:0:
384,284,262139,1,0,0:0:0:0:
383,283,262244,6,0,P|387:243|403:206,1,80,2|0,3:2|0:0,0:0:0:0:
452,144,262667,1,8,3:2:0:0:
424,68,262878,1,2,0:0:0:0:
344,56,263089,1,0,3:2:0:0:
344,56,263195,1,0,0:0:0:0:
344,56,263301,1,2,0:0:0:0:
280,100,263512,1,8,3:2:0:0:
208,60,263723,1,2,0:0:0:0:
208,60,263829,1,0,0:0:0:0:
208,60,263934,6,0,P|169:61|129:57,1,80,2|0,3:2|0:0,0:0:0:0:
52,40,264357,1,8,3:2:0:0:
52,40,264568,1,0,0:0:0:0:
68,120,264780,2,0,P|79:158|82:198,1,80,2|0,3:2|0:0,0:0:0:0:
44,272,265202,1,8,3:2:0:0:
44,272,265308,1,0,0:0:0:0:
44,272,265413,1,0,0:0:0:0:
28,352,265625,6,0,L|107:356,1,80,2|0,3:2|0:0,0:0:0:0:
120,276,266047,2,0,L|280:284,1,160,8|2,3:2|3:2,0:0:0:0:
276,364,266681,1,0,0:0:0:0:
352,332,266892,1,8,3:2:0:0:
352,332,266998,1,0,0:0:0:0:
352,332,267103,1,0,0:0:0:0:
400,268,267315,6,0,P|378:195|303:189,1,160,2|8,3:2|3:2,0:0:0:0:
224,200,267949,1,2,0:0:0:0:
168,160,268160,1,2,3:2:0:0:
168,160,268265,1,0,0:0:0:0:
168,160,268371,1,0,0:0:0:0:
240,128,268582,1,8,3:2:0:0:
172,84,268794,1,2,0:0:0:0:
244,48,269005,5,2,3:2:0:0:
324,48,269216,1,0,0:0:0:0:
404,48,269427,1,8,3:2:0:0:
168,160,269850,1,2,3:2:0:0:
88,160,270061,1,0,0:0:0:0:
8,160,270272,1,8,3:2:0:0:
232,284,270695,5,2,3:2:0:0:
336,352,271012,1,8,0:0:0:0:
336,352,271118,1,8,3:1:0:0:
436,288,271434,1,8,0:0:0:0:
436,288,271540,2,0,L|431:248,1,40,8|8,3:2|0:0,0:0:0:0:
364,284,271751,2,0,L|359:244,1,40,8|8,3:2|0:0,0:0:0:0:
292,288,271963,1,8,0:0:0:0:
292,288,272068,1,8,0:0:0:0:
292,288,272174,1,8,0:0:0:0:
140,284,272385,5,4,1:0:0:0:
256,192,272491,12,0,275765,0:0:0:0:
