osu file format v14

[General]
AudioFilename: audio.mp3
AudioLeadIn: 0
PreviewTime: 63203
Countdown: 0
SampleSet: Soft
StackLeniency: 0.7
Mode: 0
LetterboxInBreaks: 0
WidescreenStoryboard: 1

[Editor]
DistanceSpacing: 0.9
BeatDivisor: 4
GridSize: 4
TimelineZoom: 1.8

[Metadata]
Title:Seishun Rocket
TitleUnicode:↑青春ロケット↑
Artist:KOTOKO
ArtistUnicode:KOTOKO
Creator:dragonicz
Version:Hard
Source:すぺーす☆とらぶる
Tags:Short Circuit II Space Trouble nyquill gigachad dako pieter pop japanese eroge vn galgame
BeatmapID:4373491
BeatmapSetID:2087163

[Difficulty]
HPDrainRate:4
CircleSize:3.5
OverallDifficulty:6
ApproachRate:8
SliderMultiplier:1.3
SliderTickRate:1

[Events]
//Background and Video events
0,0,"wfaweag.png",0,0
//Break Periods
2,87005,93045
//Storyboard Layer 0 (Background)
//Storyboard Layer 1 (Fail)
//Storyboard Layer 2 (Pass)
//Storyboard Layer 3 (Foreground)
//Storyboard Layer 4 (Overlay)
//Storyboard Sound Samples

[TimingPoints]
592,291.26213592233,4,2,0,75,1,0
592,-90.9090909090909,4,2,0,75,0,0
9912,-100,4,2,0,75,0,0
19232,-100,4,2,0,60,0,0
21562,-100,4,2,0,70,0,0
23892,-100,4,2,0,65,0,0
33213,-100,4,2,0,70,0,0
42533,-100,4,2,0,60,0,0
54475,-100,4,2,0,70,0,0
63213,-100,4,2,0,55,0,0
63504,-90.9090909090909,4,2,0,85,0,1
82727,-181.818181818182,4,2,0,85,0,1
84475,-90.9090909090909,4,2,0,75,0,0
93795,-90.9090909090909,4,2,0,75,0,0
112436,-90.9090909090909,4,2,0,65,0,0
114766,-90.9090909090909,4,2,0,75,0,0

[Colours]
Combo1 : 245,131,222
Combo2 : 145,202,244
Combo3 : 238,200,83
Combo4 : 60,242,183

[HitObjects]
468,171,592,6,0,L|442:23,2,143.000004364014,2|0|2,3:2|1:0|3:2,0:0:0:0:
417,234,1320,1,2,0:0:0:0:
305,189,1611,2,0,P|237:248|111:255,1,214.500006546021,2|0,0:0|1:0,0:0:0:0:
4,177,2339,5,2,3:2:0:0:
4,177,2485,2,0,L|20:104,1,71.5000021820069,2|0,0:0|1:0,0:0:0:0:
106,94,2776,2,0,L|52:303,1,214.500006546021,2|0,0:0|1:0,0:0:0:0:
169,367,3504,1,2,3:2:0:0:
169,367,3650,1,2,0:0:0:0:
289,321,3941,5,2,0:0:0:0:
302,193,4232,1,2,0:0:0:0:
178,154,4524,1,2,0:0:0:0:
77,229,4815,1,0,3:0:0:0:
77,229,4960,2,0,L|119:365,1,143.000004364014,0|0,1:0|3:0,0:0:0:0:
119,365,5543,6,0,P|186:353|207:289,1,143.000004364014,0|2,1:0|3:2,0:0:0:0:
207,288,5980,1,2,0:0:0:0:
138,183,6271,2,0,P|82:170|12:286,1,214.500006546021,2|0,0:0|1:0,0:0:0:0:
129,290,6999,1,2,3:2:0:0:
129,290,7145,1,2,0:0:0:0:
188,165,7436,1,2,0:0:0:0:
188,165,7582,2,0,L|332:192,2,143.000004364014,2|0|0,3:2|1:0|3:0,0:0:0:0:
87,93,8456,5,0,1:0:0:0:
87,93,8601,1,2,0:0:0:0:
88,221,8892,1,2,0:0:0:0:
205,273,9184,1,2,0:0:0:0:
318,197,9475,1,2,0:0:0:0:
318,197,9621,1,4,1:2:0:0:
268,43,9912,6,0,P|209:52|164:128,1,130,4|0,0:3|1:0,0:0:0:0:
72,73,10494,2,0,L|84:147,2,65,4|4|0,0:3|0:3|1:0,0:0:0:0:
251,130,11077,6,0,P|310:139|355:215,1,130,4|0,0:3|1:0,0:0:0:0:
447,160,11659,2,0,L|435:234,2,65,4|4|0,0:3|0:3|1:0,0:0:0:0:
262,219,12242,6,0,P|203:228|158:304,1,130,4|0,0:3|1:0,0:0:0:0:
66,249,12824,2,0,L|78:323,2,65,4|4|0,0:3|0:3|1:0,0:0:0:0:
123,184,13261,5,2,3:2:0:0:
63,95,13553,1,0,1:0:0:0:
63,95,13698,1,0,1:0:0:0:
63,95,13844,1,2,3:2:0:0:
179,68,14135,1,0,1:0:0:0:
179,68,14281,1,0,1:0:0:0:
181,186,14572,6,0,P|191:244|267:288,1,130,4|0,0:3|1:0,0:0:0:0:
215,382,15154,2,0,L|278:370,2,65,4|4|0,0:3|0:3|1:0,0:0:0:0:
271,204,15737,6,0,P|281:145|357:101,1,130,4|0,0:3|1:0,0:0:0:0:
305,8,16319,2,0,L|378:21,2,65,4|4|0,0:3|0:3|1:0,0:0:0:0:
357,187,16902,6,0,P|367:245|443:289,1,130,4|0,0:3|1:0,0:0:0:0:
391,383,17484,2,0,L|464:369,2,65,4|4|0,0:3|0:3|1:0,0:0:0:0:
331,311,17922,5,2,3:2:0:0:
224,345,18213,1,0,1:0:0:0:
224,345,18358,1,0,1:0:0:0:
224,345,18504,1,2,3:2:0:0:
123,309,18795,1,4,0:3:0:0:
123,309,18941,2,0,L|83:308,2,32.5,4|4|4,0:3|0:3|0:3,0:0:0:0:
158,231,19232,6,0,P|233:222|359:189,1,195,0|0,1:0|1:0,0:0:0:0:
455,249,19960,1,0,1:0:0:0:
498,180,20106,1,0,1:0:0:0:
453,112,20252,1,0,1:0:0:0:
372,111,20397,5,0,1:0:0:0:
372,111,20543,2,0,L|361:59,2,32.5,0|0|0,1:0|1:0|1:0,0:0:0:0:
341,135,20834,2,0,L|197:118,1,130,0|0,1:0|1:0,0:0:0:0:
129,61,21271,1,0,1:0:0:0:
256,192,21562,12,2,23310,0:1:0:0:
26,325,23892,5,2,3:2:0:0:
133,292,24184,1,2,1:2:0:0:
240,259,24475,2,0,L|238:195,2,65,2|0|2,3:2|0:0|1:2,0:0:0:0:
227,345,24912,2,0,P|266:356|377:256,1,195,2|0,0:0|1:0,0:0:0:0:
422,103,25640,6,0,L|507:70,2,65,2|2|2,3:2|0:2|1:2,0:0:0:0:
346,67,26077,2,0,P|307:56|128:38,1,195,2|0,0:0|1:0,0:0:0:0:
29,176,26805,6,0,L|37:249,2,65,2|2|2,3:2|0:2|1:2,0:0:0:0:
84,113,27242,1,2,0:2:0:0:
151,217,27533,1,2,0:2:0:0:
273,157,27825,1,2,0:2:0:0:
339,273,28116,1,2,0:2:0:0:
459,218,28407,1,0,3:2:0:0:
459,218,28553,2,0,P|482:112|490:68,1,130,2|0,3:2|1:0,0:0:0:0:
384,41,29135,2,0,P|371:104|357:168,1,130,0|0,3:0|1:0,0:0:0:0:
202,286,29718,6,0,L|144:258,2,65,2|2|2,3:2|0:2|1:2,0:0:0:0:
263,342,30155,2,0,P|302:318|406:303,1,130,2|2,0:0|0:0,0:0:0:0:
383,301,30591,1,0,1:0:0:0:
450,250,30737,2,0,P|462:190|377:83,1,195,2|2,0:0|1:2,0:0:0:0:
270,51,31465,1,2,3:2:0:0:
192,18,31611,1,0,0:0:0:0:
121,61,31757,1,2,1:2:0:0:
37,30,31902,6,0,P|42:78|52:169,1,130,2|2,0:1|0:0,0:0:0:0:
120,202,32339,2,0,L|196:182,1,65,2|2,1:1|0:1,0:0:0:0:
247,240,32630,2,0,L|323:220,1,65,2|2,3:1|0:1,0:0:0:0:
389,278,32922,1,2,1:0:0:0:
389,278,32994,1,0,1:0:0:0:
389,278,33067,6,0,L|443:263,2,32.5,0|0|2,1:0|1:0|1:0,0:0:0:0:
284,365,33504,1,2,1:2:0:0:
146,320,33795,2,0,L|130:244,2,65,2|2|2,3:2|0:2|1:2,0:0:0:0:
73,361,34232,2,0,P|32:318|30:187,1,195,2|0,0:2|1:2,0:0:0:0:
190,72,34960,6,0,P|185:44|172:7,2,65,2|2|2,3:2|0:2|1:2,0:0:0:0:
256,121,35397,2,0,L|469:99,1,195,2|0,0:2|1:2,0:0:0:0:
449,253,36125,6,0,L|518:268,2,65,2|2|2,3:2|0:2|1:2,0:0:0:0:
378,300,36562,1,2,0:1:0:0:
275,200,36854,1,2,0:1:0:0:
190,321,37145,1,2,0:1:0:0:
72,229,37436,1,2,0:1:0:0:
72,229,37582,2,0,P|99:185|110:95,1,130,0|2,1:2|3:1,0:0:0:0:
161,0,38164,2,0,P|193:55|245:94,1,130,0|0,1:0|3:2,0:0:0:0:
387,57,38747,1,0,1:0:0:0:
387,57,38892,1,2,3:2:0:0:
107,33,39329,5,2,1:0:0:0:
107,33,39475,2,0,P|66:46|114:215,1,260,0|2,3:0|0:0,0:0:0:0:
166,256,40203,6,0,P|243:223|315:216,1,130,2|2,3:1|1:0,0:0:0:0:
416,311,40786,2,0,P|357:338|293:350,1,130,2|2,3:1|1:0,0:0:0:0:
166,256,41368,2,0,L|169:177,1,65,4|4,3:2|3:0,0:0:0:0:
244,141,41659,2,0,L|247:62,1,65,4|4,3:0|3:0,0:0:0:0:
318,22,41951,1,4,3:0:0:0:
418,149,42242,1,0,1:0:0:0:
418,149,42315,1,0,1:0:0:0:
418,149,42388,1,0,1:0:0:0:
356,209,42533,6,0,L|201:196,1,130,4|0,1:3|1:0,0:0:0:0:
109,273,43116,2,0,L|100:351,2,65,4|4|0,3:0|3:0|1:0,0:0:0:0:
226,198,43698,2,0,L|381:185,1,130,4|0,3:0|1:0,0:0:0:0:
473,262,44281,2,0,L|484:331,2,65,4|4|0,3:0|3:0|1:0,0:0:0:0:
512,179,44718,1,2,0:0:0:0:
512,179,44863,1,4,3:0:0:0:
371,35,45446,6,0,P|253:90|126:116,2,260,4|4|4,3:0|3:0|3:0,0:0:0:0:
371,35,46757,1,4,3:0:0:0:
371,35,46902,1,0,1:0:0:0:
214,32,47193,6,0,P|156:59|126:116,1,130,4|0,3:0|1:0,0:0:0:0:
199,231,47776,2,0,P|235:226|277:209,2,65,4|4|0,3:0|3:0|1:0,0:0:0:0:
350,119,48358,6,0,P|407:146|437:203,1,130,4|0,3:0|1:0,0:0:0:0:
365,318,48941,2,0,P|329:313|287:296,2,65,4|4|0,3:0|3:0|1:0,0:0:0:0:
199,231,49524,5,4,3:0:0:0:
75,328,49815,1,0,1:0:0:0:
0,198,50106,1,0,3:2:0:0:
61,145,50252,2,0,L|75:71,2,65,2|2|2,0:0|1:2|0:2,0:0:0:0:
61,145,50689,1,2,3:2:0:0:
199,231,50980,1,0,1:0:0:0:
199,231,51125,2,0,L|401:202,1,195,2|0,0:0|1:0,0:0:0:0:
461,85,51854,5,4,3:0:0:0:
351,22,52145,1,4,1:2:0:0:
239,85,52436,2,0,L|231:154,2,65,4|4|4,3:0|3:0|1:2,0:0:0:0:
359,175,53019,5,4,3:0:0:0:
249,238,53310,1,4,1:2:0:0:
137,175,53601,2,0,L|129:106,2,65,4|4|4,3:0|3:0|1:2,0:0:0:0:
74,230,54038,1,2,0:0:0:0:
74,230,54184,1,0,3:0:0:0:
122,336,54475,1,4,1:2:0:0:
272,354,54766,6,0,L|322:306,1,65,0|4,0:0|1:2,0:0:0:0:
435,321,55203,2,0,L|485:273,1,65,0|4,0:0|1:2,0:0:0:0:
387,206,55640,2,0,L|437:158,1,65,0|4,0:0|1:2,0:0:0:0:
414,45,56077,2,0,L|464:-3,1,65,0|4,0:0|1:2,0:0:0:0:
285,58,56514,6,0,P|220:42|134:32,2,130,2|2|2,3:1|1:2|3:2,0:0:0:0:
347,155,57388,1,0,1:0:0:0:
347,155,57533,2,0,P|396:141|479:128,2,130,2|2|2,0:1|0:0|0:2,0:0:0:0:
296,224,58261,1,2,3:1:0:0:
161,182,58553,1,0,1:0:0:0:
53,281,58844,5,2,3:1:0:0:
197,358,59135,1,2,1:2:0:0:
302,244,59426,1,2,3:2:0:0:
161,169,59718,1,2,1:2:0:0:
161,169,59863,1,2,1:0:0:0:
256,192,60009,12,4,62339,3:2:0:0:
433,98,63213,5,2,1:2:0:0:
346,126,63504,2,0,P|304:90|201:49,1,143.000004364014,2|0,3:2|1:0,0:0:0:0:
152,17,63941,2,0,P|91:36|22:114,1,143.000004364014,2|0,0:0|0:0,0:0:0:0:
71,161,64378,1,2,1:2:0:0:
219,233,64669,6,0,P|209:311|202:397,2,143.000004364014,2|0|0,3:2|1:0|0:0,0:0:0:0:
285,188,65397,1,0,0:0:0:0:
285,188,65543,1,2,1:2:0:0:
443,250,65834,6,0,B|500:210|494:122,1,143.000004364014,2|0,3:2|1:0,0:0:0:0:
424,73,66271,2,0,P|395:44|280:28,1,143.000004364014
253,95,66708,1,0,1:0:0:0:
97,52,66999,1,2,3:2:0:0:
16,261,67436,1,2,0:0:0:0:
236,339,67873,1,2,1:2:0:0:
340,282,68164,6,0,P|350:216|373:135,1,143.000004364014,2|2,3:2|1:2,0:0:0:0:
461,159,68601,2,0,P|441:227|430:298,1,143.000004364014,2|0,3:2|0:0,0:0:0:0:
430,298,69038,1,2,1:2:0:0:
236,339,69329,6,0,P|209:309|183:184,2,143.000004364014,2|0|0,3:2|1:0|0:0,0:0:0:0:
315,310,70058,1,2,0:0:0:0:
318,224,70203,1,2,1:2:0:0:
354,150,70349,1,2,0:0:0:0:
327,72,70494,5,2,3:2:0:0:
183,110,70786,1,0,1:0:0:0:
39,70,71077,2,0,L|26:-5,2,71.5000021820069,2|0|0,3:2|0:0|1:0,0:0:0:0:
20,153,71514,1,2,0:0:0:0:
20,153,71659,2,0,P|35:203|30:308,1,143.000004364014,2|2,3:2|1:2,0:0:0:0:
199,355,72242,2,0,P|262:303|344:270,1,143.000004364014,2|0,3:2|1:0,0:0:0:0:
477,174,72825,6,0,L|442:31,1,143.000004364014,2|0,3:2|1:0,0:0:0:0:
367,0,73261,2,0,P|306:40|232:64,1,143.000004364014,2|2,3:2|0:0,0:0:0:0:
205,138,73698,1,2,1:2:0:0:
68,45,73990,6,0,P|42:82|46:180,1,143.000004364014,2|0,3:2|1:0,0:0:0:0:
53,262,74426,2,0,P|86:296|180:314,1,143.000004364014,2|0,3:2|0:0,0:0:0:0:
220,244,74863,1,2,1:2:0:0:
339,356,75155,6,0,L|498:336,2,143.000004364014,0|0|0,3:2|1:0|0:0,0:0:0:0:
272,308,75883,1,0,0:0:0:0:
272,308,76028,2,0,P|264:248|267:219,1,71.5000021820069,0|0,1:0|0:0,0:0:0:0:
330,186,76320,5,2,3:2:0:0:
185,7,76757,1,2,0:0:0:0:
12,143,77193,1,2,1:2:0:0:
78,275,77485,6,0,L|222:279,1,143.000004364014,2|2,3:2|1:2,0:0:0:0:
284,339,77922,2,0,L|442:322,1,143.000004364014,2|0,3:2|0:0,0:0:0:0:
470,252,78358,1,2,1:2:0:0:
363,144,78650,6,0,P|352:99|342:-5,2,143.000004364014,2|0|2,3:2|1:0|3:2,0:0:0:0:
310,204,79378,1,2,0:2:0:0:
228,196,79524,1,2,1:2:0:0:
156,158,79669,1,2,0:2:0:0:
90,211,79815,6,0,L|16:217,1,71.5000021820069,2|2,3:2|0:2,0:0:0:0:
24,301,80106,2,0,L|95:295,1,71.5000021820069,2|2,1:2|0:0,0:0:0:0:
154,369,80397,2,0,P|314:323|433:273,3,286.000008728028,2|0|0|2,3:2|3:0|3:0|3:2,0:0:0:0:
454,201,82291,5,0,0:0:0:0:
396,143,82436,1,2,1:2:0:0:
390,58,82582,1,2,0:2:0:0:
318,21,82727,2,0,P|158:67|39:117,1,286.000008728028,2|0,3:2|3:0,0:0:0:0:
42,244,84184,1,4,1:2:0:0:
174,219,84475,1,0,0:0:0:0:
256,192,84548,12,2,86805,3:1:0:0:
66,167,93795,6,0,L|35:17,2,143.000004364014,2|2|2,3:2|1:0|3:1,0:0:0:0:
144,199,94524,1,2,0:1:0:0:
263,128,94815,2,0,P|355:114|480:60,1,214.500006546021,2|2,0:1|1:2,0:0:0:0:
504,186,95543,1,2,3:2:0:0:
504,186,95689,2,0,P|461:201|371:262,1,143.000004364014,2|2,0:2|0:2,0:0:0:0:
346,332,96125,2,0,L|190:315,2,143.000004364014,2|0|0,3:1|1:2|3:2,0:0:0:0:
346,332,96854,1,2,0:2:0:0:
460,239,97145,5,2,0:1:0:0:
413,71,97436,1,2,0:1:0:0:
226,30,97727,1,2,0:1:0:0:
106,148,98019,1,0,3:0:0:0:
106,148,98164,2,0,P|151:152|173:259,1,143.000004364014,4|0,1:2|3:0,0:0:0:0:
187,232,98747,6,0,P|242:231|346:234,1,143.000004364014,2|2,1:0|3:1,0:0:0:0:
329,233,99184,1,2,0:1:0:0:
374,370,99475,2,0,P|292:367|131:371,1,214.500006546021,2|2,0:1|1:2,0:0:0:0:
35,328,100203,1,2,3:2:0:0:
35,328,100349,1,2,0:2:0:0:
133,157,100640,1,2,0:2:0:0:
133,157,100786,2,0,P|208:145|299:109,2,143.000004364014,2|0|0,3:1|1:2|3:2,0:0:0:0:
46,24,101659,5,0,1:2:0:0:
46,24,101805,1,2,0:1:0:0:
26,206,102096,1,2,0:1:0:0:
187,302,102388,1,2,0:1:0:0:
342,200,102679,1,0,0:2:0:0:
342,200,102825,2,0,P|387:188|427:180,1,71.5000021820069,4|0,0:2|0:0,0:0:0:0:
491,204,103116,6,0,P|497:270|425:315,1,143.000004364014,4|0,3:0|1:0,0:0:0:0:
275,253,103698,2,0,P|255:207|257:171,2,71.5000021820069,4|4|0,3:0|3:0|1:0,0:0:0:0:
126,151,104281,6,0,P|120:217|192:262,1,143.000004364014,4|0,3:0|1:0,0:0:0:0:
342,200,104863,2,0,P|362:154|360:118,2,71.5000021820069,4|4|0,3:0|3:0|1:0,0:0:0:0:
491,98,105446,6,0,P|497:164|425:209,1,143.000004364014,4|0,3:0|1:0,0:0:0:0:
275,147,106028,2,0,P|255:101|257:65,2,71.5000021820069,4|4|0,3:0|3:0|1:0,0:0:0:0:
260,234,106465,5,2,3:2:0:0:
40,199,106757,2,0,L|25:110,1,71.5000021820069,0|0,1:0|1:0,0:0:0:0:
71,60,107048,1,2,3:2:0:0:
192,115,107339,1,0,1:0:0:0:
192,115,107485,1,0,1:0:0:0:
266,12,107776,6,0,P|332:6|377:78,1,143.000004364014,4|0,3:0|1:0,0:0:0:0:
315,228,108358,2,0,P|269:248|233:246,2,71.5000021820069,4|4|0,3:0|3:0|1:0,0:0:0:0:
214,371,108941,6,0,P|280:377|325:305,1,143.000004364014,4|0,3:0|1:0,0:0:0:0:
262,161,109523,2,0,P|216:141|180:143,2,71.5000021820069,4|4|0,3:0|3:0|1:0,0:0:0:0:
160,12,110106,6,0,P|226:6|271:78,1,143.000004364014,4|0,3:0|1:0,0:0:0:0:
209,228,110688,2,0,P|163:248|127:246,2,71.5000021820069,4|4|0,3:0|3:0|1:0,0:0:0:0:
296,243,111125,5,2,3:2:0:0:
469,139,111417,1,0,1:0:0:0:
388,83,111562,1,0,1:0:0:0:
308,28,111708,1,2,3:2:0:0:
140,127,111999,1,4,3:0:0:0:
140,127,112072,1,4,3:0:0:0:
140,127,112145,2,0,L|124:77,2,35.7500010910034,4|4|4,3:0|3:0|3:0,0:0:0:0:
112,159,112436,6,0,L|88:327,1,143.000004364014,0|0,1:0|0:0,0:0:0:0:
190,318,112873,2,0,L|210:176,1,143.000004364014,4|0,1:2|1:0,0:0:0:0:
293,159,113310,1,0,1:0:0:0:
373,195,113456,1,0,1:0:0:0:
449,151,113602,5,0,1:0:0:0:
449,151,113747,2,0,L|443:108,2,35.7500010910034,0|0|0,1:0|1:0|1:0,0:0:0:0:
492,176,114038,2,0,P|500:214|427:288,1,143.000004364014,0|0,1:0|1:0,0:0:0:0:
436,286,114475,1,0,1:0:0:0:
256,192,114766,12,4,116514,0:0:0:0:
303,321,117096,5,0,1:0:0:0:
385,345,117242,1,0,1:0:0:0:
393,260,117388,1,0,1:0:0:0:
475,284,117533,1,4,1:0:0:0:
