osu file format v14

[General]
AudioFilename: audio.mp3
AudioLeadIn: 0
PreviewTime: 63203
Countdown: 0
SampleSet: Soft
StackLeniency: 0.7
Mode: 0
LetterboxInBreaks: 0
WidescreenStoryboard: 1

[Editor]
Bookmarks: 86795,93785
DistanceSpacing: 0.8
BeatDivisor: 2
GridSize: 4
TimelineZoom: 1.4

[Metadata]
Title:Seishun Rocket
TitleUnicode:↑青春ロケット↑
Artist:KOTOKO
ArtistUnicode:KOTOKO
Creator:dragonicz
Version:GIGACHAD's Easy
Source:すぺーす☆とらぶる
Tags:Short Circuit II Space Trouble nyquill gigachad dako pieter pop japanese eroge vn galgame
BeatmapID:4443764
BeatmapSetID:2087163

[Difficulty]
HPDrainRate:3
CircleSize:3
OverallDifficulty:3
ApproachRate:5
SliderMultiplier:0.9
SliderTickRate:1

[Events]
//Background and Video events
0,0,"wfaweag.png",0,0
//Break Periods
2,87005,92595
//Storyboard Layer 0 (Background)
//Storyboard Layer 1 (Fail)
//Storyboard Layer 2 (Pass)
//Storyboard Layer 3 (Foreground)
//Storyboard Layer 4 (Overlay)
//Storyboard Sound Samples

[TimingPoints]
592,291.26213592233,4,2,0,75,1,0
19232,-100,4,2,0,60,0,0
21562,-100,4,2,0,70,0,0
23892,-100,4,2,0,65,0,0
33213,-100,4,2,0,70,0,0
42533,-100,4,2,0,60,0,0
54475,-100,4,2,0,70,0,0
63213,-100,4,2,0,55,0,0
63504,-100,4,2,0,85,0,0
84475,-100,4,2,0,75,0,0
112436,-100,4,2,0,65,0,0
114766,-100,4,2,0,75,0,0

[Colours]
Combo1 : 0,0,255
Combo2 : 255,0,0
Combo3 : 0,128,0

[HitObjects]
127,82,592,6,0,B|170:77|196:105|196:105|199:137,1,90,2|0,3:2|1:0,0:0:0:0:
125,176,1174,2,0,B|101:239|156:244|116:343,2,135,2|2|0,3:2|0:0|1:0,0:0:0:0:
205,217,2339,1,2,3:2:0:0:
284,174,2630,1,0,1:0:0:0:
358,224,2922,6,0,P|406:237|365:90,1,315,2|2,3:2|0:0,0:0:0:0:
287,91,4232,1,2,0:0:0:0:
219,150,4524,2,0,B|164:154|164:154|146:177|146:177|82:184,1,135,2|0,0:0|1:0,0:0:0:0:
43,101,5252,5,0,3:0:0:0:
178,52,5834,2,0,P|230:38|313:36,2,135,2|2|0,3:2|0:0|1:0,0:0:0:0:
165,142,6999,1,2,3:2:0:0:
174,290,7582,6,0,B|266:312|266:312|362:282,1,180,2|0,3:2|3:0,0:0:0:0:
445,238,8601,1,2,0:0:0:0:
461,149,8892,1,2,0:0:0:0:
410,74,9184,2,0,P|345:56|348:123,1,135,2|4,0:0|1:2,0:0:0:0:
361,196,9912,5,4,0:3:0:0:
221,161,10494,1,4,0:3:0:0:
138,278,11077,2,0,B|3:289|3:289|19:234,1,180,4|4,0:3|0:3,0:0:0:0:
42,105,12242,6,0,B|177:94|177:94|161:149,1,180,4|4,0:3|0:3,0:0:0:0:
234,252,13261,1,2,3:2:0:0:
299,190,13553,1,0,1:0:0:0:
364,251,13844,2,0,P|423:219|449:144,1,135,2|0,3:2|1:0,0:0:0:0:
389,90,14572,5,4,0:3:0:0:
249,126,15154,1,4,0:3:0:0:
166,8,15737,2,0,B|31:-3|31:-3|47:52,1,180,4|4,0:3|0:3,0:0:0:0:
70,181,16902,6,0,B|205:192|205:192|189:137,1,180,4|4,0:3|0:3,0:0:0:0:
262,34,17921,1,2,3:2:0:0:
327,96,18213,1,0,1:0:0:0:
392,35,18504,2,0,P|451:67|477:142,1,135,2|4,3:2|0:3,0:0:0:0:
462,216,19232,5,0,1:0:0:0:
334,172,19669,2,0,B|274:144|274:144|252:215,1,135,0|0,1:0|1:0,0:0:0:0:
170,174,20397,2,0,B|131:180|110:202|110:202|103:161|88:131,2,135,0|0|0,1:0|1:0|1:0,0:0:0:0:
199,88,21562,5,2,0:1:0:0:
328,127,21999,1,2,0:1:0:0:
338,261,22436,1,2,0:1:0:0:
468,296,22873,1,2,0:1:0:0:
511,168,23310,6,2,B|498:130|498:130|512:110|512:110|502:92|502:92|515:79|515:79|499:57|499:57|516:40|516:40|490:8,1,180,2|2,0:1|3:2,1:0:0:0:
412,43,24184,1,2,1:2:0:0:
330,5,24475,2,0,P|289:10|190:51,1,135,2|2,3:2|0:0,0:0:0:0:
243,172,25349,1,0,1:0:0:0:
325,134,25640,6,0,P|366:139|465:180,1,135,2|2,3:2|0:0,0:0:0:0:
469,306,26514,1,0,1:0:0:0:
397,359,26805,2,0,B|338:350|338:350|341:328|309:377|272:357|272:357|250:356,1,135,2|2,3:2|0:2,0:0:0:0:
184,314,27533,1,2,0:2:0:0:
100,348,27825,1,2,0:2:0:0:
23,300,28116,6,0,L|9:154,1,135,2|2,0:2|3:2,0:2:0:0:
34,78,28844,1,0,1:0:0:0:
176,56,29426,1,0,1:0:0:0:
246,111,29718,2,0,B|316:133|316:133|389:111,1,135,2|2,3:2|0:0,0:0:0:0:
448,63,30446,1,2,0:0:0:0:
507,130,30737,6,0,P|502:170|503:264,1,135,2|2,0:0|1:2,0:0:0:0:
423,306,31465,1,2,3:2:0:0:
328,209,31902,2,0,P|272:184|240:241,1,135,2|2,0:1|1:1,0:0:0:0:
224,327,32630,1,2,3:1:0:0:
300,374,32922,1,2,1:0:0:0:
363,310,33213,6,0,B|410:296|410:296|488:302,2,90,2|2|2,1:0|1:2|3:2,0:2:0:0:
257,223,34232,2,2,L|227:60,1,135,2|0,0:2|1:2,0:1:0:0:
156,41,34960,1,2,3:2:0:0:
52,127,35397,2,2,L|82:290,1,135,2|0,0:2|1:2,0:1:0:0:
137,325,36125,6,0,P|195:297|294:301,1,135,2|2,3:2|0:1,0:0:0:0:
342,339,36854,1,2,0:1:0:0:
423,299,37145,1,2,0:1:0:0:
422,209,37436,6,0,P|421:175|458:65,1,135,2|2,0:1|3:1,0:2:0:0:
502,5,38164,1,0,1:0:0:0:
357,3,38747,2,0,B|321:28|321:28|259:17,1,90,0|0,1:0|0:0,0:0:0:0:
186,29,39329,1,2,1:0:0:0:
108,75,39621,2,0,P|96:102|88:184,1,90,0|0,0:0|1:0,0:0:0:0:
109,250,40203,5,2,3:1:0:0:
171,370,40786,1,2,3:1:0:0:
260,362,41077,1,2,1:0:0:0:
326,301,41368,2,0,B|399:293|399:293|416:268,1,90,4|4,3:2|3:0,0:0:0:0:
435,193,41951,1,4,3:0:0:0:
422,103,42242,1,0,1:0:0:0:
346,54,42533,6,0,B|248:28|259:87|166:81,3,180,4|4|4|4,1:3|3:0|3:0|3:0,0:0:0:0:
39,135,44863,1,4,3:0:0:0:
22,278,45446,1,4,3:0:0:0:
134,367,46028,2,0,L|238:339,1,90,4|0,3:0|1:0,0:0:0:0:
232,254,46611,2,0,L|128:226,1,90,4|0,3:0|1:0,0:0:0:0:
66,186,47193,5,4,3:0:0:0:
27,47,47776,1,4,3:0:0:0:
136,140,48358,1,4,3:0:0:0:
105,0,48941,2,0,P|154:-3|215:26,1,90,4|0,3:0|1:0,0:0:0:0:
215,96,49524,6,0,B|252:127|252:127|312:108,1,90,4|0,3:0|1:0,0:0:0:0:
407,28,50397,1,2,1:2:0:0:
477,84,50689,2,0,L|464:250,1,135,2|2,3:2|0:0,0:0:0:0:
359,201,51562,1,0,1:0:0:0:
312,278,51854,6,0,B|277:252|277:252|233:265,1,90,4|4,3:0|1:2,0:0:0:0:
154,309,52436,2,0,B|108:314|108:314|78:282,1,90,4|4,3:0|1:2,0:0:0:0:
92,193,53019,2,0,B|119:158|119:158|164:159,1,90,4|4,3:0|1:2,0:0:0:0:
253,182,53601,2,0,B|298:174|298:174|319:136,1,90,4|4,3:0|1:2,0:0:0:0:
270,59,54184,1,0,3:0:0:0:
183,86,54475,6,0,B|153:67|144:35|144:35|128:65|71:86,2,135,4|4|4,1:2|1:2|1:2,0:0:0:0:
317,101,55786,1,4,1:2:0:0:
366,225,56223,1,4,1:2:0:0:
324,304,56514,6,0,L|136:269,1,180,2|2,3:1|3:2,0:0:0:0:
146,126,57679,2,0,L|334:161,1,180,0|2,0:0|3:1,0:0:0:0:
339,302,58844,1,2,3:1:0:0:
221,384,59426,1,2,3:2:0:0:
132,366,59718,1,2,1:2:0:0:
104,280,60009,6,0,B|223:285|219:173|61:181|71:70|213:69|213:69|298:63|299:143|246:153|246:153|265:195|266:259|266:259|306:219|306:219|347:279,1,720,0|4,0:0|3:2,0:0:0:0:
512,384,63213,1,2,1:2:0:0:
478,300,63504,6,0,B|423:271|423:271|338:293,1,135,2|2,3:2|0:0,0:0:0:0:
235,356,64378,1,2,1:2:0:0:
206,270,64669,2,0,P|194:213|133:125,2,135,2|2|2,3:2|3:2|1:2,0:0:0:0:
160,347,65834,6,0,L|21:321,1,135,2|0,3:2|0:0,0:0:0:0:
5,188,66708,1,0,1:0:0:0:
76,134,66999,2,0,L|215:108,2,135,2|2|2,3:2|0:0|1:2,0:0:0:0:
39,51,68164,6,0,P|99:18|200:3,1,135,2|2,3:2|3:2,0:0:0:0:
293,41,69038,1,2,1:2:0:0:
359,101,69329,1,2,3:2:0:0:
456,7,69766,2,0,P|501:28|523:121,1,135,2|2,3:2|1:2,0:0:0:0:
443,137,70494,6,0,P|435:197|462:294,2,135,2|0|0,3:2|0:0|1:0,0:0:0:0:
473,52,71659,1,2,3:2:0:0:
387,24,71951,1,2,1:2:0:0:
307,65,72242,2,0,L|205:83,1,90,2|0,3:2|1:0,0:0:0:0:
174,159,72825,6,0,B|145:214|145:214|167:299,1,135,2|2,3:2|3:2,0:0:0:0:
277,356,73699,1,2,1:2:0:0:
306,270,73990,2,0,P|318:213|379:125,2,135,2|2|2,3:2|3:2|1:2,0:0:0:0:
352,347,75155,6,0,L|491:321,1,135,0|2,3:2|3:2,0:0:0:0:
507,188,76029,1,0,1:0:0:0:
436,134,76320,2,0,L|297:108,2,135,2|2|2,3:2|0:0|1:2,0:0:0:0:
473,51,77485,6,0,P|413:18|312:3,1,135,2|2,3:2|3:2,0:0:0:0:
234,76,78359,1,2,1:2:0:0:
293,143,78650,1,2,3:2:0:0:
247,269,79087,2,0,L|127:165,1,135,0|2,0:0|1:2,0:0:0:0:
67,136,79815,6,0,B|39:207|84:250|44:320,2,180,2|2|0,3:2|3:2|3:0,0:0:0:0:
105,54,81272,1,0,1:0:0:0:
189,85,81563,2,0,L|291:103,1,90,0|0,3:0|1:0,0:0:0:0:
356,142,82145,6,0,P|388:217|474:172,3,180,2|2|0|2,3:2|3:2|3:0|3:2,0:0:0:0:
256,192,84475,12,2,86805,3:1:0:0:
385,302,93795,6,0,B|342:307|316:279|316:279|313:247,1,90,2|2,3:2|1:0,0:2:0:0:
387,208,94377,2,0,B|411:145|356:140|396:41,2,135,2|2|2,3:1|0:1|1:2,0:0:0:0:
307,167,95542,1,2,3:2:0:0:
228,210,95833,1,0,1:2:0:0:
154,160,96125,6,0,P|70:177|149:326,1,315,2|2,3:1|0:1,0:2:0:0:
225,293,97435,1,2,0:1:0:0:
293,234,97727,2,0,B|348:230|348:230|366:207|366:207|430:200,1,135,2|4,0:1|1:2,0:0:0:0:
469,283,98455,5,0,3:0:0:0:
333,331,99037,2,0,P|281:345|198:347,2,135,2|2|2,3:1|0:1|1:2,0:0:0:0:
347,242,100202,1,2,3:2:0:0:
338,94,100785,6,0,B|250:73|250:73|160:98,1,180,2|0,3:1|3:2,0:2:0:0:
67,146,101804,1,2,0:1:0:0:
51,235,102095,1,2,0:1:0:0:
102,310,102387,2,0,P|167:328|164:261,1,135,2|4,0:1|0:2,0:2:0:0:
151,188,103115,5,4,3:0:0:0:
291,223,103697,1,4,3:0:0:0:
374,106,104280,2,0,B|509:95|509:95|493:150,1,180,4|4,3:0|3:0,0:0:0:0:
466,279,105446,6,0,B|331:290|331:290|347:235,1,180,4|4,3:0|3:0,0:0:0:0:
278,132,106464,1,2,3:2:0:0:
213,194,106756,1,0,1:0:0:0:
148,133,107047,2,0,P|89:165|63:240,1,135,2|0,3:2|1:0,0:0:0:0:
123,294,107775,5,4,3:0:0:0:
263,258,108357,1,4,3:0:0:0:
346,364,108940,2,0,B|481:375|481:375|465:320,1,180,4|4,3:0|3:0,0:0:0:0:
442,203,110105,6,0,B|307:192|307:192|323:247,1,180,4|4,3:0|3:0,0:0:0:0:
250,350,111124,1,2,3:2:0:0:
185,288,111416,1,0,1:0:0:0:
120,349,111707,2,0,P|61:317|35:242,1,135,2|4,3:2|3:0,0:0:0:0:
50,168,112435,5,0,1:0:0:0:
178,212,112872,2,0,B|238:240|238:240|260:169,1,135,4|0,1:2|1:0,0:0:0:0:
342,210,113600,2,0,B|381:204|402:182|402:182|409:223|424:253,2,135,0|0|0,1:0|1:0|1:0,0:0:0:0:
313,296,114765,5,2,0:1:0:0:
184,257,115202,1,2,0:1:0:0:
174,123,115639,1,2,0:1:0:0:
44,88,116076,1,2,0:1:0:0:
8,218,116513,6,0,B|14:237|14:237|7:247|7:247|12:256|12:256|6:262|6:262|14:273|14:273|5:282|5:282|18:298,1,90,4|4,0:0|0:0,0:0:0:0:
102,277,117096,1,0,1:0:0:0:
210,356,117533,2,0,B|251:322|260:296|279:380|317:362|350:310,1,135,4|0,1:0|0:0,0:0:0:0:
