osu file format v14

[General]
AudioFilename: audio.mp3
AudioLeadIn: 0
PreviewTime: 39551
Countdown: 0
SampleSet: Soft
StackLeniency: 0.2
Mode: 0
LetterboxInBreaks: 0
WidescreenStoryboard: 1

[Editor]
DistanceSpacing: 0.4
BeatDivisor: 4
GridSize: 32
TimelineZoom: 2

[Metadata]
Title:Sakura Mau Saka o, Kimi to Aruku
TitleUnicode:桜舞う坂を、君と歩く
Artist:KOTOKO
ArtistUnicode:KOTOKO
Creator:Shiyzo
Version:First Love
Source:初恋1/1
Tags:eroge japanese video game yukic Uta opening 1/1 tone work's catgirl loli female vocal femboy 中山真斗 Masato Nakayama Elements Garden hatsukoi
BeatmapID:2786229
BeatmapSetID:1345339

[Difficulty]
HPDrainRate:6
CircleSize:4.3
OverallDifficulty:8
ApproachRate:8.8
SliderMultiplier:1.5
SliderTickRate:1

[Events]
//Background and Video events
0,0,"uglygrill.jpg",0,0
Video,316,"shiyzo req.mp4"
//Break Periods
//Storyboard Layer 0 (Background)
//Storyboard Layer 1 (Fail)
//Storyboard Layer 2 (Pass)
//Storyboard Layer 3 (Foreground)
//Storyboard Layer 4 (Overlay)
//Storyboard Sound Samples

[TimingPoints]
608.039527370156,365.853658536585,4,2,1,60,1,0
3169,-100,4,2,1,90,0,0
3260,-100,4,2,1,60,0,0
3534,-100,4,2,1,60,0,0
3900,-90.9090909090909,4,2,1,60,0,0
4815,-100,4,2,1,60,0,0
6095,-111.111111111111,4,2,1,60,0,0
6461,-100,4,2,1,60,0,0
6827,-100,4,2,1,60,0,0
7742,-90.9090909090909,4,2,1,60,0,0
9022,-200,4,2,1,60,0,0
9388,-90.9090909090909,4,2,1,60,0,0
10120,-100,4,2,1,60,0,0
14327,-111.111111111111,4,2,1,60,0,0
14693,-90.9090909090909,4,2,1,60,0,0
15242,-125,4,2,17,60,0,0
15333,-125,4,2,1,60,0,0
16248,-125,4,2,1,5,0,0
16339,-90.9090909090909,4,2,1,80,0,0
16431,-90.9090909090909,4,2,1,5,0,0
16705,-100,4,2,1,60,0,0
19632,-100,4,2,1,60,0,0
23839,-100,4,2,33,60,0,0
24571,-90.9090909090909,4,2,1,60,0,0
25486,-100,4,2,1,60,0,0
34815,-100,4,2,33,60,0,0
35547,-100,4,2,1,60,0,0
40120,-111.111111111111,4,2,1,60,0,0
48900,-99.9999999999999,4,2,1,60,0,0
49175,-99.9999999999999,4,2,1,5,0,0
49266,-99.9999999999999,4,2,1,60,0,0
49540,-99.9999999999999,4,2,1,5,0,0
49632,-99.9999999999999,4,2,1,60,0,0
50272,-99.9999999999999,4,2,1,5,0,0
50364,-95.2380952380952,4,2,1,60,0,0
50638,-95.2380952380952,4,2,1,5,0,0
50729,-95.2380952380952,4,2,1,60,0,0
51827,-100,4,2,1,60,0,0
52376,-95.2380952380952,4,2,1,60,0,0
52742,-90.9090909090909,4,2,1,60,0,0
53108,-83.3333333333333,4,2,1,60,0,0
53656,-399.999999999997,4,2,1,60,0,0
53931,-285.714285714284,4,2,1,5,0,0
54022,-76.9230769230769,4,2,1,60,0,0
54388,-125,4,2,1,60,0,0
54754,-62.5,4,2,17,60,0,1
54845,-71.4285714285714,4,2,1,60,0,1
55120,-71.4285714285714,4,2,1,60,0,0
55303,-76.9230769230769,4,2,1,60,0,0
58047,-76.9230769230769,4,2,1,60,0,0
59327,-83.3333333333333,4,2,1,60,0,0
59876,-76.9230769230769,4,2,1,60,0,0
60608,-83.3333333333333,4,2,1,60,0,0
62071,-83.3333333333333,4,2,1,40,0,0
62437,-83.3333333333333,4,2,1,60,0,0
63534,-83.3333333333333,4,2,1,60,0,1
63626,-83.3333333333333,4,2,1,60,0,0
64266,-76.9230769230769,4,2,1,60,0,1
64358,-76.9230769230769,4,2,1,60,0,0
64998,-76.9230769230769,4,2,1,60,0,1
65089,-76.9230769230769,4,2,1,60,0,0
65547,-76.9230769230769,4,2,1,60,0,1
65638,-76.9230769230769,4,2,1,60,0,0
66095,-76.9230769230769,4,2,1,100,0,0
66461,-76.9230769230769,4,2,17,60,0,1
66827,-76.9230769230769,4,2,1,60,0,0
69388,-83.3333333333333,4,2,1,60,0,0
69754,-76.9230769230769,4,2,1,60,0,0
71034,-83.3333333333333,4,2,1,60,0,0
71217,-76.9230769230769,4,2,1,5,0,0
71400,-83.3333333333333,4,2,1,60,0,0
71583,-76.9230769230769,4,2,1,5,0,0
71766,-83.3333333333333,4,2,1,60,0,0
76522,-100,4,2,1,60,0,0
77254,-83.3333333333333,4,2,1,60,0,0
78169,-100,4,2,1,60,0,0
78534,-90.9090909090909,4,2,1,60,0,0
79449,-100,4,2,1,60,0,0
81095,-111.111111111111,4,2,1,60,0,0
81461,-100,4,2,1,60,0,0
82376,-90.9090909090909,4,2,1,60,0,0
83656,-200,4,2,1,60,0,0
84022,-90.9090909090909,4,2,1,60,0,0
84754,-100,4,2,1,60,0,0
89876,-100,4,2,17,60,0,0
89967,-100,4,2,1,60,0,0

[Colours]
Combo1 : 184,205,245
Combo2 : 203,233,133
Combo3 : 186,133,235
Combo4 : 255,187,221
Combo5 : 255,226,138

[HitObjects]
399,344,608,5,12,0:0:0:0:
307,309,790,1,8,0:0:0:0:
342,217,973,1,8,0:0:0:0:
434,252,1156,1,8,0:0:0:0:
434,252,1705,5,12,0:0:0:0:
342,217,1888,1,8,0:0:0:0:
307,309,2071,1,8,0:0:0:0:
399,344,2253,1,8,0:0:0:0:
108,287,2803,5,2,0:0:0:0:
129,273,2894,1,2,0:0:0:0:
141,251,2985,1,8,0:3:0:0:
139,225,3077,1,2,0:0:0:0:
125,205,3169,5,8,0:0:0:0:
89,174,3260,1,2,0:0:0:0:
92,127,3351,1,2,0:0:0:0:
128,96,3443,1,2,0:0:0:0:
174,103,3534,6,0,B|212:129|212:129|267:95|309:104,1,112.5,4|0,0:2|0:0,0:0:0:0:
353,67,3900,2,0,P|363:109|343:157,1,82.5000025177003,12|0,0:2|0:0,0:0:0:0:
300,214,4175,1,8,0:2:0:0:
300,214,4266,1,8,0:0:0:0:
417,107,4449,1,2,0:2:0:0:
486,334,4632,1,2,0:3:0:0:
512,250,4815,6,0,P|452:252|402:319,1,112.5,4|0,0:0|0:0,0:0:0:0:
368,352,5181,1,4,0:3:0:0:
274,154,5364,5,4,0:2:0:0:
224,235,5547,2,0,L|298:245,1,75,4|0,0:2|0:0,0:0:0:0:
95,276,5912,1,2,0:2:0:0:
120,358,6095,2,0,P|70:360|29:331,1,101.249996910095,8|0,0:2|0:0,0:0:0:0:
95,276,6461,6,0,B|119:227|119:227|95:167|50:190,1,112.5,4|0,0:0|0:0,0:0:0:0:
0,164,6827,2,0,P|5:126|37:88,1,75,4|0,1:2|0:0,0:0:0:0:
102,52,7101,1,8,0:0:0:0:
102,52,7193,1,8,0:0:0:0:
161,216,7376,1,4,0:2:0:0:
161,216,7559,1,2,0:3:0:0:
218,13,7742,6,0,B|275:-6|276:38|353:5,1,123.75000377655,4|0,0:0|0:0,0:0:0:0:
424,12,8108,2,0,L|405:67,1,41.2500012588501,4|0,0:2|0:0,0:0:0:0:
346,201,8290,1,8,1:2:0:0:
346,201,8473,6,2,P|348:256|404:255,1,123.75000377655,4|0,0:0|0:0,0:0:0:0:
455,189,8839,1,4,0:3:0:0:
388,354,9022,2,0,L|323:366,1,56.25,4|0,0:0|0:0,0:0:0:0:
322,357,9388,6,0,B|279:312|240:321|240:321|214:362|149:349,1,165.000005035401,4|8,0:0|0:0,0:0:0:0:
154,169,9937,1,8,0:2:0:0:
165,176,10028,1,8,0:0:0:0:
176,183,10120,2,0,L|173:276,1,75,8|2,0:2|1:2,0:0:0:0:
0,309,10486,5,8,3:2:0:0:
80,357,10669,2,0,P|86:310|62:265,1,75,2|0,1:2|0:0,0:0:0:0:
0,141,11034,1,4,0:3:0:0:
80,185,11217,1,2,1:2:0:0:
121,0,11400,6,0,B|144:52|144:52|116:122,1,112.5,8|0,0:2|0:0,0:0:0:0:
80,185,11766,1,4,3:3:0:0:
229,58,11949,2,0,P|277:48|335:77,1,112.5,8|8,1:2|0:0,0:0:0:0:
341,80,12315,5,2,0:0:0:0:
349,77,12406,1,2,0:0:0:0:
357,74,12498,1,2,0:0:0:0:
365,71,12589,1,2,0:0:0:0:
373,68,12681,6,0,L|370:133,1,37.5,4|0,0:0|0:0,0:0:0:0:
497,262,13047,1,2,0:0:0:0:
477,276,13138,1,2,0:0:0:0:
461,288,13229,1,2,0:0:0:0:
439,291,13321,1,2,0:0:0:0:
417,287,13412,6,0,P|404:263|383:250,1,37.5,4|0,0:0|0:0,0:0:0:0:
230,167,13778,5,8,0:3:0:0:
242,334,13961,1,4,0:3:0:0:
243,151,14144,1,4,3:0:0:0:
160,358,14327,6,0,P|119:312|71:316,1,101.249996910095,12|0,0:0|0:0,0:0:0:0:
0,342,14693,2,0,L|10:294,1,41.2500012588501,12|0,0:0|0:0,0:0:0:0:
41,152,14876,1,12,0:0:0:0:
41,152,15242,6,0,P|100:181|39:77,1,330,4|0,0:0|0:0,0:0:0:0:
50,63,16339,2,0,B|45:77|45:77|49:72|91:63,1,41.2500012588501,8|0,0:0|0:0,0:0:0:0:
300,204,16705,6,0,L|204:224,1,75,2|0,0:2|0:0,0:0:0:0:
391,301,17071,2,0,P|402:238|392:218,1,75,8|0,0:0|0:0,0:0:0:0:
369,155,17345,1,8,0:0:0:0:
369,155,17437,1,8,0:0:0:0:
512,46,17620,5,2,0:2:0:0:
422,31,17803,1,2,0:3:0:0:
332,17,17986,2,0,B|294:32|285:67|285:67|245:52|207:70,1,150,8|4,0:2|0:3,0:0:0:0:
14,32,18534,6,0,L|18:120,1,75,10|0,0:2|0:2,0:0:0:0:
24,194,18809,1,8,0:0:0:0:
24,194,18900,1,8,0:2:0:0:
147,245,19083,1,2,1:2:0:0:
0,324,19266,2,0,L|75:327,1,75,8|2,0:0|1:2,0:0:0:0:
241,378,19632,6,0,B|268:358|265:322|265:322|309:274|374:317,1,150,4|8,0:0|0:2,0:0:0:0:
498,362,20181,1,8,0:2:0:0:
490,369,20272,1,8,0:0:0:0:
482,376,20364,2,0,L|475:284,1,75,8|4,0:2|0:3,0:0:0:0:
430,137,20729,1,2,0:3:0:0:
378,205,20912,2,0,P|411:224|469:212,1,75,8|0,0:2|0:2,0:0:0:0:
226,265,21278,1,4,0:3:0:0:
275,337,21461,6,0,P|310:287|306:234,1,112.5,10|0,0:2|0:0,0:0:0:0:
262,170,21827,2,0,B|232:144|232:144|248:97|288:80,1,112.5,2|0,0:2|0:0,0:0:0:0:
349,53,22193,1,8,0:0:0:0:
197,15,22376,1,2,0:2:0:0:
445,0,22559,6,0,B|477:74|426:74|453:150,1,150,4|8,0:0|0:2,0:0:0:0:
504,316,23108,1,8,0:2:0:0:
495,307,23199,1,8,0:0:0:0:
486,298,23290,2,0,L|398:302,1,75,8|8,0:2|0:3,0:0:0:0:
205,340,23656,1,8,0:0:0:0:
278,278,23839,6,0,P|294:320|281:369,1,75,2|0,0:2|0:0,0:0:0:0:
319,153,24205,1,2,0:2:0:0:
272,264,24388,1,2,0:2:0:0:
235,121,24571,2,0,B|196:119|173:93|173:93|113:94|99:151,1,165.000005035401,10|4,0:2|0:3,0:0:0:0:
0,352,25120,2,0,L|15:249,1,82.5000025177003,10|8,0:0|0:0,0:0:0:0:
65,212,25394,1,8,0:0:0:0:
72,221,25486,6,0,B|137:196|142:244|218:217,1,150,8|8,0:0|0:2,0:0:0:0:
374,239,26034,1,8,0:2:0:0:
364,232,26126,1,8,0:0:0:0:
354,226,26217,2,0,L|346:142,1,75,8|4,0:2|0:3,0:0:0:0:
290,364,26583,1,8,0:2:0:0:
454,351,26766,6,0,P|375:364|277:357,1,150,4|0,0:0|0:0,0:0:0:0:
512,256,27315,2,0,L|401:259,1,75,8|0,0:0|0:0,0:0:0:0:
359,233,27589,1,8,0:0:0:0:
359,233,27681,1,8,0:0:0:0:
270,57,27864,5,4,0:3:0:0:
361,86,28047,1,8,0:0:0:0:
452,115,28229,1,2,0:0:0:0:
300,204,28412,6,0,P|263:229|204:224,1,75,6|0,0:0|0:0,0:0:0:0:
121,88,28778,2,0,L|126:184,1,75,8|0,0:0|0:0,0:0:0:0:
112,251,29052,1,8,0:0:0:0:
112,251,29144,1,8,0:0:0:0:
32,64,29327,5,2,3:2:0:0:
121,88,29510,1,2,0:3:0:0:
194,31,29693,2,0,B|227:46|238:86|238:86|293:71|324:89,1,150,10|4,0:0|0:3,0:0:0:0:
496,1,30242,6,0,L|492:83,1,75,8|2,0:0|0:0,0:0:0:0:
494,160,30516,1,8,0:0:0:0:
494,160,30607,1,8,0:0:0:0:
303,94,30790,1,2,3:2:0:0:
396,59,30973,2,0,P|405:89|400:134,1,75,8|2,0:0|1:2,0:0:0:0:
188,220,31339,6,0,B|215:238|256:224|256:224|251:234|251:234|293:221|338:253,1,150,4|8,0:0|0:0,0:0:0:0:
512,279,31888,1,8,0:0:0:0:
504,286,31979,1,8,0:0:0:0:
496,293,32071,2,0,L|489:201,1,75,8|4,0:0|0:3,0:0:0:0:
430,384,32436,1,2,0:3:0:0:
273,310,32620,6,0,P|305:329|346:327,1,75,8|0,0:0|0:0,0:0:0:0:
242,205,32986,2,0,P|210:223|172:223,1,75,2|8,0:0|0:0,0:0:0:0:
6,244,33351,1,8,0:0:0:0:
13,251,33443,1,8,0:0:0:0:
20,258,33534,2,0,L|21:168,1,75,8|4,0:0|0:3,0:0:0:0:
24,10,33900,1,8,0:0:0:0:
177,168,34083,2,0,P|171:145|179:117,1,37.5,2|0,0:0|0:0,0:0:0:0:
183,115,34266,6,0,B|215:189|164:189|191:265,1,150,4|8,0:0|0:0,0:0:0:0:
300,334,34815,2,0,P|268:353|232:350,1,75,2|0,0:0|0:0,0:0:0:0:
380,217,35181,1,2,0:0:0:0:
425,302,35364,1,2,0:0:0:0:
297,228,35547,2,0,L|378:236,1,75,8|0,3:2|0:0,0:0:0:0:
115,268,35912,2,0,L|189:260,1,75,4|0,0:3|0:0,0:0:0:0:
13,233,36278,1,8,0:0:0:0:
88,108,36461,6,0,P|104:145|82:197,1,75,2|2,0:3|0:0,0:0:0:0:
0,43,36827,2,0,L|76:32,1,75,8|2,0:0|0:0,0:0:0:0:
152,0,37101,1,8,0:0:0:0:
152,0,37193,1,8,0:0:0:0:
135,309,37559,6,0,P|178:253|213:250,1,75,8|0,0:0|3:0,0:0:0:0:
257,176,37925,1,2,3:2:0:0:
153,166,38108,1,0,3:0:0:0:
111,81,38290,1,8,3:0:0:0:
11,236,38473,2,0,B|26:194|-4:165|-4:165|-5:127|28:84,2,150,8|4|8,0:3|0:3|0:0,0:0:0:0:
0,247,39571,5,8,0:0:0:0:
122,281,39754,1,8,0:3:0:0:
244,315,39937,1,4,0:3:0:0:
44,132,40120,6,0,P|83:131|67:41,1,134.999995880127,4|2,0:0|0:0,0:0:0:0:
180,0,40669,2,0,L|254:17,1,67.4999979400635,2|2,1:3|0:0,0:0:0:0:
382,61,41034,2,0,L|308:78,1,67.4999979400635,2|8,1:3|0:0,0:0:0:0:
472,1,41400,1,8,0:3:0:0:
491,142,41583,6,0,L|470:275,1,134.999995880127,2|2,1:3|0:0,0:0:0:0:
292,355,42132,2,0,B|364:333|349:378|426:352,1,134.999995880127,2|2,1:3|0:3,0:0:0:0:
222,290,42681,2,0,P|211:252|227:212,1,67.4999979400635,8|2,0:0|0:0,0:0:0:0:
243,137,43047,5,2,1:3:0:0:
243,137,43229,1,2,0:0:0:0:
179,67,43412,2,0,P|144:63|91:94,1,67.4999979400635,2|2,0:0|1:3,0:0:0:0:
260,12,43778,1,2,0:0:0:0:
340,66,43961,2,0,L|342:133,1,67.4999979400635,2|8,0:0|0:0,0:0:0:0:
424,0,44327,1,2,0:0:0:0:
508,88,44510,5,0,1:0:0:0:
451,160,44693,1,2,0:0:0:0:
491,243,44876,1,2,0:0:0:0:
372,212,45059,2,0,B|308:240|308:190|240:218,1,134.999995880127,2|8,1:3|0:3,0:0:0:0:
117,370,45608,1,8,0:0:0:0:
110,384,45973,6,0,L|104:238,1,134.999995880127,4|2,0:0|0:0,0:0:0:0:
16,207,46522,1,8,0:3:0:0:
91,1,46706,2,0,L|94:69,1,67.4999979400635,2|2,0:3|0:0,0:0:0:0:
28,195,47072,2,0,P|22:162|27:129,1,67.4999979400635,8|2,0:2|0:0,0:0:0:0:
241,84,47437,6,0,P|248:125|176:200,1,134.999995880127,2|2,1:3|0:0,0:0:0:0:
369,183,47986,2,0,P|432:212|452:266,1,101.249996910095,2|0,1:3|0:0,0:0:0:0:
432,311,48351,1,8,0:0:0:0:
421,69,48534,1,8,0:0:0:0:
421,69,48900,6,0,P|444:30|514:25,1,112.5,12|0,0:0|0:0,0:0:0:0:
495,96,49266,2,0,P|472:135|402:140,1,112.5,10|0,0:0|0:0,0:0:0:0:
343,95,49632,1,8,0:3:0:0:
291,266,49815,1,4,0:3:0:0:
234,97,49998,2,0,B|260:148|220:153|238:206,1,112.5,8|0,0:3|0:0,0:0:0:0:
209,284,50364,6,0,L|71:293,1,118.124996395111,12|0,0:0|0:0,0:0:0:0:
0,309,50729,2,0,B|17:332|17:332|2:280|32:226,1,118.124996395111,10|0,0:0|0:0,0:0:0:0:
52,167,51095,1,8,0:0:0:0:
87,367,51278,1,4,3:3:0:0:
132,119,51461,1,8,3:0:0:0:
266,356,51827,6,0,P|283:304|266:259,1,75,12|0,0:0|0:0,0:0:0:0:
241,211,52101,1,8,0:0:0:0:
241,211,52193,1,8,0:0:0:0:
367,63,52376,2,0,P|348:109|341:156,1,78.7499975967408,12|0,0:0|0:0,0:0:0:0:
133,77,52742,2,0,L|219:63,1,82.5000025177003,8|0,0:0|0:0,0:0:0:0:
5,147,53108,6,0,B|101:167|101:167|82:183|76:223,1,134.999995880127,12|0,0:0|0:0,0:0:0:0:
89,211,53473,1,12,0:0:0:0:
312,136,53656,6,0,L|347:129,1,28.125,4|0,0:0|0:0,0:0:0:0:
351,139,54022,6,0,P|371:173|361:210,1,48.7499977684022,0|0,3:0|0:0,0:0:0:0:
423,342,54205,2,0,P|394:332|353:333,1,48.7499977684022,4|0,0:0|0:0,0:0:0:0:
206,384,54388,1,8,0:0:0:0:
127,151,54571,1,8,0:0:0:0:
161,180,54662,1,8,0:0:0:0:
161,226,54754,6,0,B|161:249|161:249|110:228|192:131|259:216,1,180,4|0,0:0|0:0,0:0:0:0:
262,278,55120,1,10,1:2:0:0:
469,207,55303,2,0,L|371:212,1,97.4999955368044,2|0,0:2|3:0,0:0:0:0:
466,104,55669,2,0,P|469:52|447:5,1,97.4999955368044,2|10,3:2|1:2,0:0:0:0:
221,170,56034,2,0,B|186:259|255:276|215:359,1,194.999991073609,2|4,3:2|0:3,0:0:0:0:
144,103,56583,1,12,1:2:0:0:
221,170,56766,6,0,B|238:154|271:148|271:148|324:198,1,97.4999955368044,6|0,1:2|3:0,0:0:0:0:
80,291,57132,2,0,P|58:251|63:198,1,97.4999955368044,2|10,3:2|0:0,0:0:0:0:
0,384,57498,1,2,1:2:0:0:
143,227,57681,6,0,B|168:221|194:199|194:199|248:207|269:252,1,146.249993305207,2|0,3:2|0:0,0:0:0:0:
242,328,58047,2,0,B|224:343|224:343|276:323|320:367,1,97.4999955368044,10|8,1:2|0:0,0:0:0:0:
413,371,58321,1,8,0:0:0:0:
401,377,58412,2,0,L|406:270,1,97.4999955368044,8|2,3:2|3:2,0:0:0:0:
512,111,58778,5,10,1:2:0:0:
307,58,58961,2,0,P|350:27|403:27,1,97.4999955368044,6|0,0:0|0:0,0:0:0:0:
442,170,59327,2,0,P|399:201|346:201,1,89.9999972534181,6|8,0:0|0:0,0:0:0:0:
187,7,59693,5,12,0:0:0:0:
198,12,59784,1,8,0:0:0:0:
209,17,59876,2,0,B|196:91|196:91|214:121,1,97.4999955368044,8|4,0:0|0:0,0:0:0:0:
0,71,60242,1,10,1:2:0:0:
95,36,60425,1,2,0:0:0:0:
99,265,60608,6,0,L|75:145,1,89.9999972534181,4|0,1:3|0:0,0:0:0:0:
28,338,60973,1,8,0:0:0:0:
115,383,61156,2,0,P|159:383|196:359,1,89.9999972534181,2|2,0:0|3:2,0:0:0:0:
267,258,61522,1,0,3:0:0:0:
318,339,61705,1,0,1:3:0:0:
398,169,61888,1,8,0:0:0:0:
471,216,62071,6,0,P|433:250|382:248,1,89.9999972534181,8|4,0:3|0:3,0:0:0:0:
512,106,62437,1,10,0:0:0:0:
343,0,62620,2,0,L|341:115,1,89.9999972534181,2|0,1:2|3:0,0:0:0:0:
343,175,62986,1,2,1:3:0:0:
152,0,63169,1,10,0:0:0:0:
204,90,63351,1,2,0:3:0:0:
135,169,63534,5,8,3:2:0:0:
0,75,63717,1,8,0:0:0:0:
248,191,63900,1,12,0:0:0:0:
219,81,64083,1,2,0:0:0:0:
48,248,64266,6,0,B|62:226|62:226|60:300|144:324,1,146.249993305207,4|0,1:3|0:0,0:0:0:0:
210,334,64632,2,0,L|201:284,1,48.7499977684022,4|0,0:0|0:0,0:0:0:0:
137,179,64815,2,0,L|146:229,1,48.7499977684022,2|0,1:2|0:0,0:0:0:0:
183,111,64998,6,0,L|174:61,1,48.7499977684022,4|0,3:2|0:0,0:0:0:0:
273,181,65181,1,2,1:2:0:0:
287,66,65364,1,2,0:0:0:0:
161,130,65547,5,4,3:2:0:0:
301,190,65729,1,2,1:2:0:0:
280,36,65912,1,10,0:0:0:0:
373,264,66095,1,8,0:0:0:0:
351,290,66186,1,2,0:0:0:0:
322,307,66277,1,2,0:0:0:0:
288,313,66369,1,2,0:0:0:0:
255,306,66461,6,0,B|227:294|212:276|212:276|211:349|151:364,1,146.249993305207,4|0,3:2|0:0,0:0:0:0:
47,303,66827,2,0,P|59:247|100:212,1,97.4999955368044,8|10,1:2|3:2,0:0:0:0:
176,144,67101,1,8,0:0:0:0:
166,151,67193,2,0,L|53:134,1,97.4999955368044,8|2,3:2|1:2,0:0:0:0:
329,63,67559,5,8,0:0:0:0:
410,124,67742,2,0,P|428:80|412:18,1,97.4999955368044,2|0,3:2|0:0,0:0:0:0:
247,11,68108,2,0,P|229:55|245:117,1,97.4999955368044,2|8,3:2|0:0,0:0:0:0:
358,232,68473,1,8,0:0:0:0:
355,243,68565,1,8,0:0:0:0:
353,254,68656,2,0,L|448:235,1,97.4999955368044,8|8,0:0|0:3,0:0:0:0:
250,365,69022,2,0,L|345:346,1,97.4999955368044,8|4,0:2|0:3,0:0:0:0:
146,221,69388,6,0,P|130:266|161:347,1,134.999995880127,4|0,3:2|0:0,0:0:0:0:
192,149,69754,2,0,B|166:115|166:115|93:95,1,97.4999955368044,8|8,0:0|0:0,0:0:0:0:
38,62,70028,1,8,0:0:0:0:
38,62,70120,1,8,3:2:0:0:
255,43,70303,2,0,P|330:5|365:11,1,97.4999955368044,2|8,3:2|0:0,0:0:0:0:
491,240,70669,6,0,P|460:187|376:179,1,146.249993305207,4|0,0:0|0:0,0:0:0:0:
479,255,71034,6,0,L|460:119,1,134.999995880127,8|0,1:2|0:0,0:0:0:0:
467,270,71400,6,0,L|446:122,1,134.999995880127,8|0,1:2|0:0,0:0:0:0:
455,285,71766,6,0,L|431:114,1,134.999995880127,8|0,1:2|0:0,0:0:0:0:
280,165,72132,1,2,0:0:0:0:
288,158,72223,1,2,0:0:0:0:
295,151,72315,6,0,L|186:130,1,89.9999972534181,4|0,3:2|0:0,0:0:0:0:
83,24,72681,2,0,P|33:61|36:122,1,89.9999972534181,8|8,0:0|0:0,0:0:0:0:
24,174,72955,1,8,0:0:0:0:
24,174,73047,1,8,3:2:0:0:
174,62,73229,1,0,3:0:0:0:
210,269,73412,1,8,1:2:0:0:
263,178,73595,1,0,3:0:0:0:
17,256,73778,5,8,0:0:0:0:
23,264,73870,1,8,0:0:0:0:
30,273,73961,2,0,P|76:273|116:304,1,89.9999972534181,8|0,0:0|3:0,0:0:0:0:
325,340,74327,2,0,P|276:347|225:333,1,89.9999972534181,8|0,0:0|1:2,0:0:0:0:
402,384,74693,1,0,3:0:0:0:
412,206,74876,2,0,L|400:305,1,89.9999972534181,8|0,1:2|0:0,0:0:0:0:
504,152,75242,6,0,P|481:106|398:82,1,134.999995880127,4|0,3:2|0:0,0:0:0:0:
326,38,75608,2,0,L|322:104,1,44.999998626709,8|0,0:0|0:0,0:0:0:0:
306,204,75790,1,8,0:0:0:0:
303,216,75882,1,8,0:0:0:0:
300,227,75973,2,0,L|198:242,1,89.9999972534181,8|0,3:2|3:0,0:0:0:0:
87,175,76339,1,0,1:0:0:0:
93,372,76522,6,0,B|106:351|93:327|93:327|104:324|104:324|88:296|111:255,1,112.5,12|0,0:0|0:0,0:0:0:0:
113,280,76888,1,4,3:0:0:0:
120,288,76979,1,4,3:0:0:0:
127,296,77071,1,8,3:0:0:0:
2,151,77254,2,0,P|26:141|95:166,1,89.9999972534181,4|0,0:0|0:0,0:0:0:0:
253,45,77620,2,0,L|155:62,1,89.9999972534181,2|8,0:0|0:0,0:0:0:0:
368,76,77986,1,2,0:0:0:0:
164,60,78169,6,0,B|190:98|190:98|156:153|165:195,1,112.5,4|0,0:2|0:0,0:0:0:0:
122,242,78535,2,0,L|212:232,1,82.5000025177003,12|0,0:2|0:0,0:0:0:0:
290,227,78810,1,8,0:2:0:0:
290,227,78901,1,8,0:0:0:0:
356,87,79084,1,2,0:2:0:0:
440,337,79267,1,2,0:3:0:0:
512,286,79450,6,0,P|469:251|413:251,1,112.5,4|0,0:0|0:0,0:0:0:0:
346,296,79816,1,4,0:3:0:0:
454,65,79999,5,4,0:2:0:0:
512,143,80182,2,0,L|438:153,1,75,4|0,0:2|0:0,0:0:0:0:
265,7,80547,1,2,0:2:0:0:
197,64,80729,2,0,P|242:95|297:93,1,112.5,8|0,0:2|0:0,0:0:0:0:
354,144,81096,6,0,B|356:190|356:190|310:220,1,101.249996910095,4|0,0:0|0:0,0:0:0:0:
232,239,81462,2,0,P|228:273|251:318,1,75,4|0,0:2|0:0,0:0:0:0:
297,379,81736,1,8,0:0:0:0:
297,379,81828,1,8,0:0:0:0:
121,296,82011,1,4,0:2:0:0:
121,296,82194,1,2,0:3:0:0:
49,88,82377,6,0,B|30:145|74:146|41:223,1,123.75000377655,4|0,0:0|0:0,0:0:0:0:
0,304,82743,2,0,L|46:289,1,41.2500012588501,4|0,0:2|0:0,0:0:0:0:
193,233,82925,1,8,1:2:0:0:
193,233,83108,6,2,P|191:214|278:193,1,123.75000377655,4|0,0:0|0:0,0:0:0:0:
297,263,83474,1,4,0:3:0:0:
420,46,83657,2,0,L|355:58,1,56.25,4|0,0:0|0:0,0:0:0:0:
355,66,84023,6,0,B|312:21|273:30|273:30|247:71|182:58,1,165.000005035401,4|8,0:0|0:0,0:0:0:0:
46,0,84572,1,8,0:2:0:0:
57,7,84663,1,8,0:0:0:0:
68,14,84755,2,0,L|65:107,1,75,8|2,0:2|1:2,0:0:0:0:
138,258,85121,5,8,3:2:0:0:
207,206,85304,2,0,P|175:178|125:180,1,75,2|0,1:2|0:0,0:0:0:0:
352,96,85669,1,4,0:3:0:0:
269,33,85852,1,2,1:2:0:0:
441,48,86034,6,0,B|464:100|464:100|443:151,1,112.5,8|0,0:2|0:0,0:0:0:0:
398,222,86400,1,4,3:3:0:0:
171,116,86583,2,0,L|292:135,1,112.5,8|8,0:2|0:0,0:0:0:0:
291,135,86949,5,2,0:0:0:0:
299,136,87040,1,2,0:0:0:0:
307,137,87132,1,2,0:0:0:0:
315,139,87223,1,2,0:0:0:0:
323,141,87315,6,0,L|309:77,1,37.5,4|0,0:0|0:0,0:0:0:0:
295,0,87498,1,4,0:3:0:0:
128,63,87681,1,2,0:0:0:0:
91,53,87772,1,2,0:0:0:0:
57,68,87863,1,2,0:0:0:0:
39,100,87955,1,2,0:0:0:0:
45,137,88047,6,0,L|75:175,1,37.5,4|0,0:0|0:0,0:0:0:0:
158,275,88229,1,4,3:0:0:0:
217,36,88412,5,8,0:0:0:0:
150,255,88595,1,4,0:3:0:0:
236,28,88778,1,4,3:0:0:0:
437,158,88961,2,0,P|382:170|324:135,1,112.5,12|0,0:2|0:0,0:0:0:0:
262,124,89327,2,0,L|257:175,1,37.5,4|0,0:0|0:0,0:0:0:0:
240,332,89510,1,4,0:0:0:0:
240,332,89876,5,4,0:0:0:0:
256,192,89967,12,4,92803,0:3:0:0:
256,192,93534,5,8,1:2:0:0:
