osu file format v14

[General]
AudioFilename: audio.mp3
AudioLeadIn: 0
PreviewTime: 59042
Countdown: 0
SampleSet: Soft
StackLeniency: 0.7
Mode: 0
LetterboxInBreaks: 0
WidescreenStoryboard: 1

[Editor]
Bookmarks: 7008,13788,24635,29890,35483,46330,51754,59720,76161,81585,89720
DistanceSpacing: 0.6
BeatDivisor: 4
GridSize: 4
TimelineZoom: 1.8

[Metadata]
Title:SWEET x SWEET
TitleUnicode:SWEET×SWEET
Artist:KOTOKO
ArtistUnicode:KOTOKO
Creator:HeyImJarvis
Version:Nytro's Easy
Source:ネコぱらVol.4 ネコとパティシエのノエル
Tags:nekopara neko to patissier no noeru PHA 神谷礼 Erisu Mayuzumi Fuyuko Lanzhu Lyruke Nytrocide_ japanese pop j-pop jpop video game opening eroge visual novel Kamiya Rei vol 4 volume Works noel of cat and pastry chef ネコとパティシェのノエル short game version cats paradise sweetxsweet
BeatmapID:3078024
BeatmapSetID:1262210

[Difficulty]
HPDrainRate:2.5
CircleSize:2
OverallDifficulty:3
ApproachRate:3.5
SliderMultiplier:0.7
SliderTickRate:1

[Events]
//Background and Video events
0,0,"poggers.jpg",0,0
Video,32,"vanilla_best_waifu.mp4"
//Break Periods
//Storyboard Layer 0 (Background)
//Storyboard Layer 1 (Fail)
//Storyboard Layer 2 (Pass)
//Storyboard Layer 3 (Foreground)
//Storyboard Layer 4 (Overlay)
//Storyboard Sound Samples

[TimingPoints]
738,338.983050847458,4,2,1,40,1,0
738,-100,4,2,1,40,0,0
1585,338.983050847458,4,2,1,60,1,0
1585,-100,4,2,1,60,0,0
7008,-100,4,2,1,70,0,0
9720,-100,4,2,1,80,0,0
12432,-100,4,2,1,40,0,0
13110,-100,4,2,1,80,0,0
13788,-100,4,2,1,80,0,0
23957,-100,4,2,1,5,0,0
24127,-100,4,2,1,50,0,0
24296,-100,4,2,1,60,0,0
24635,-100,4,2,1,60,0,0
25651,-100,4,2,1,50,0,0
29127,-100,4,2,1,20,0,0
29212,-100,4,2,1,60,0,0
29466,-100,4,2,1,20,0,0
29551,-100,4,2,1,60,0,0
29720,-100,4,2,1,80,0,0
29890,-100,4,2,1,60,0,0
35144,-100,4,2,1,80,0,0
35483,-100,4,2,1,70,0,0
46330,-100,4,2,1,70,0,0
48449,-100,4,2,1,20,0,0
48534,-100,4,2,1,70,0,0
48703,-100,4,2,1,70,0,0
51754,-100,4,2,1,80,0,0
59720,-100,4,2,2,90,0,1
60059,-100,4,2,1,100,0,1
60397,-100,4,2,1,90,0,1
76161,-100,4,2,1,60,0,0
77517,-100,4,2,1,65,0,0
78873,-100,4,2,1,70,0,0
80229,-100,4,2,2,80,0,0
80907,-100,4,2,1,80,0,0
81585,-100,4,2,1,70,0,0
89720,-100,4,2,1,75,0,0
95144,-100,4,2,1,20,0,0

[Colours]
Combo1 : 158,135,239
Combo2 : 223,91,81
Combo3 : 247,228,210
Combo4 : 126,218,228

[HitObjects]
14,61,1585,6,0,B|75:32|131:63|131:63|159:42|159:42|229:74|288:41,1,280,4|4,3:2|3:2,0:0:0:0:
479,349,4296,6,0,B|414:387|346:350|346:350|278:373|278:373|197:366,1,280,4|4,3:2|3:2,0:0:0:0:
6,199,7008,6,0,L|175:181,1,140,4|0,3:2|3:2,0:0:0:0:
203,253,8025,1,2,3:2:0:0:
292,237,8364,2,0,L|461:255,1,140,8|8,0:0|0:0,0:0:0:0:
402,71,9720,2,0,L|510:48,2,105,12|4|4,0:0|3:2|3:2,0:0:0:0:
314,46,11076,6,0,B|184:25|184:25|108:59,1,210,14|0,0:0|0:0,0:0:0:0:
56,129,12432,2,0,L|63:206,1,70,4|4,0:0|0:0,0:0:0:0:
108,277,13110,1,8,0:0:0:0:
239,150,13788,6,0,P|314:115|383:135,1,140,4|2,3:2|3:2,0:0:0:0:
443,176,14805,1,8,0:0:0:0:
464,264,15144,2,0,B|419:285|419:285|326:258,1,140,0|0,3:2|3:2,0:0:0:0:
284,181,16161,1,8,0:0:0:0:
223,113,16500,6,0,B|178:92|178:92|85:119,1,140,0|2,3:2|3:2,0:0:0:0:
53,200,17517,1,8,0:0:0:0:
89,283,17856,2,0,L|163:293,1,70,0|8,3:1|0:0,0:0:0:0:
242,329,18534,2,0,L|316:319,1,70,0|10,3:2|0:0,0:0:0:0:
384,265,19212,6,0,P|410:218|381:133,1,140,12|2,3:2|3:2,0:0:0:0:
318,78,20229,1,8,0:0:0:0:
230,104,20568,2,0,L|76:88,1,140,0|0,3:2|3:2,0:0:0:0:
12,136,21585,1,8,0:0:0:0:
9,226,21923,2,0,P|35:292|200:347,1,245,6|6,3:2|0:0,0:0:0:0:
429,312,24296,5,8,3:2:0:0:
474,232,24635,2,0,P|484:168|359:119,1,210,4|2,3:2|3:2,0:0:0:0:
279,113,25991,2,0,B|237:142|179:113|179:113|121:83|78:110,1,210,0|2,3:2|3:2,0:0:0:0:
15,174,27347,1,0,3:2:0:0:
85,232,27686,1,2,3:2:0:0:
75,322,28025,2,0,L|149:330,1,70,2|2,3:2|3:2,0:0:0:0:
209,265,28703,2,0,L|358:252,1,140,2|0,3:2|3:2,0:0:0:0:
434,146,29890,6,0,P|380:118|326:118,1,105,6|10,0:0|0:0,0:0:0:0:
260,165,30737,2,0,L|180:175,1,70,10|10,0:0|0:0,0:0:0:0:
106,139,31415,2,0,L|96:58,1,70,10|10,0:0|0:0,0:0:0:0:
160,3,32093,1,10,0:0:0:0:
296,0,32601,6,0,P|348:36|367:83,1,105,6|10,3:2|0:0,0:0:0:0:
446,113,33449,2,0,P|438:146|433:224,1,105,10|2,0:0|3:2,0:0:0:0:
465,301,34296,1,2,3:2:0:0:
398,363,34635,2,0,P|353:369|288:345,1,105,2|10,3:2|0:0,0:0:0:0:
217,306,35483,6,0,L|64:320,1,140,4|2,3:2|3:2,0:0:0:0:
9,257,36500,1,10,0:0:0:0:
54,178,36839,2,0,L|44:30,1,140,0|2,3:2|3:2,0:0:0:0:
130,5,37856,1,10,0:0:0:0:
209,51,38195,2,0,P|275:72|358:58,1,140,0|2,3:2|3:2,0:0:0:0:
420,13,39212,1,10,0:0:0:0:
494,67,39551,2,0,L|485:207,1,140,2|0,3:2|3:2,0:0:0:0:
307,249,40907,6,0,L|298:168,1,70,4|10,3:2|0:0,0:0:0:0:
308,89,41585,2,0,P|251:46|176:41,1,140,2|0,3:2|3:2,0:0:0:0:
93,40,42601,1,10,0:0:0:0:
47,118,42940,2,0,L|42:193,1,70,2|10,3:2|0:0,0:0:0:0:
70,275,43618,6,0,P|148:310|180:311,1,105,2|2,3:2|3:2,0:0:0:0:
256,300,44466,1,0,3:2:0:0:
346,312,44805,2,0,P|397:302|442:275,1,105,4|10,3:2|0:0,0:0:0:0:
390,100,45991,5,2,3:2:0:0:
306,136,46330,2,0,L|193:122,1,105,14|10,0:0|0:0,0:0:0:0:
129,67,47178,1,2,3:2:0:0:
55,120,47517,1,6,3:2:0:0:
43,347,48364,6,0,P|80:342|121:357,1,70,2|2,3:2|3:2,0:0:0:0:
200,369,49042,2,0,L|315:357,1,105,14|10,0:0|0:0,0:0:0:0:
364,289,49890,1,2,3:2:0:0:
439,340,50229,1,6,0:0:0:0:
474,116,51076,6,0,L|393:113,1,70,2|10,3:2|0:0,0:0:0:0:
328,62,51754,2,0,L|209:65,1,105,6|4,0:0|0:0,0:0:0:0:
142,22,52601,1,2,3:2:0:0:
61,65,52940,2,0,P|39:109|56:173,1,105,4|10,3:2|0:0,0:0:0:0:
107,231,53788,2,0,L|186:236,1,70,2|10,3:2|0:0,0:0:0:0:
251,183,54466,6,0,P|363:143|323:320,1,385,2|0,3:2|0:0,0:0:0:0:
239,304,56669,1,0,3:2:0:0:
256,192,57008,12,12,58364,0:0:0:0:
395,283,59720,6,0,L|249:293,1,140,6|2,0:0|0:0,0:0:0:0:
173,253,60737,1,2,0:0:0:0:
93,297,61076,2,0,B|54:266|54:266|49:165,1,140,2|2,0:0|0:0,0:0:0:0:
86,92,62093,1,2,0:0:0:0:
149,27,62432,6,0,P|218:14|288:42,1,140,2|2,0:0|0:0,0:0:0:0:
341,107,63449,1,2,0:0:0:0:
283,177,63788,2,0,L|296:360,1,175,2|2,0:0|3:2,0:0:0:0:
384,376,64974,1,10,0:0:0:0:
461,326,65313,6,0,P|477:298|469:222,1,105,6|2,3:2|0:0,0:0:0:0:
407,164,66161,1,2,0:0:0:0:
289,233,66669,2,0,L|180:230,1,105,2|2,3:2|0:0,0:0:0:0:
106,181,67517,1,2,0:0:0:0:
90,91,67856,6,0,P|121:47|276:26,1,210,2|2,0:0|3:2,0:0:0:0:
356,40,69212,2,0,L|365:192,1,140,6|6,3:2|3:2,0:0:0:0:
396,359,70568,6,0,P|336:377|251:354,1,140,6|2,3:2|0:0,0:0:0:0:
190,304,71585,1,2,0:0:0:0:
102,328,71923,2,0,B|74:293|74:293|77:221,1,105,2|8,0:0|0:0,0:0:0:0:
101,145,72771,1,2,3:2:0:0:
233,176,73279,6,0,P|303:189|379:158,1,140,2|2,0:0|0:0,0:0:0:0:
421,94,74296,1,2,0:0:0:0:
503,131,74635,2,0,L|511:246,1,105,2|8,0:0|0:0,0:0:0:0:
495,325,75483,1,2,3:2:0:0:
404,318,75822,1,10,0:2:0:0:
326,365,76161,6,0,P|289:377|195:345,1,140,6|0,0:0|3:0,0:0:0:0:
105,356,77178,1,0,3:0:0:0:
39,292,77517,2,0,L|62:145,1,140,10|8,0:0|0:0,0:0:0:0:
100,71,78534,1,8,0:0:0:0:
256,192,78873,12,4,80229,0:0:0:0:
47,134,81585,6,0,P|131:121|185:146,1,140,4|2,3:2|3:2,0:0:0:0:
222,222,82601,1,8,0:0:0:0:
301,178,82940,2,0,L|447:167,1,140,0|0,3:2|3:2,0:0:0:0:
509,226,83957,1,8,0:0:0:0:
485,314,84296,6,0,B|445:340|445:340|340:330,1,140,0|0,3:2|3:2,0:0:0:0:
273,286,85313,1,8,0:0:0:0:
187,317,85652,2,0,L|106:324,1,70,0|8,3:2|0:0,0:0:0:0:
45,266,86330,2,0,L|38:185,1,70,0|8,3:2|0:0,0:0:0:0:
80,114,87008,6,0,B|129:127|129:127|221:97,1,140,4|2,3:2|3:2,0:0:0:0:
289,48,88025,1,8,0:0:0:0:
368,93,88364,2,0,P|402:158|384:232,1,140,0|0,3:2|3:2,0:0:0:0:
329,288,89381,1,8,0:0:0:0:
246,250,89720,6,0,L|161:242,1,70,6|10,0:0|0:0,0:0:0:0:
86,261,90398,2,0,P|61:222|64:155,1,105,10|4,0:0|0:0,0:0:0:0:
256,192,91076,12,0,95144,0:0:0:0:
