osu file format v14

[General]
AudioFilename: audio.mp3
AudioLeadIn: 0
PreviewTime: 59042
Countdown: 0
SampleSet: Soft
StackLeniency: 0.7
Mode: 0
LetterboxInBreaks: 0
WidescreenStoryboard: 1

[Editor]
Bookmarks: 7008,13788,24635,29890,35483,46330,51754,59720,76161,81585,89720
DistanceSpacing: 1.6
BeatDivisor: 4
GridSize: 4
TimelineZoom: 1.8

[Metadata]
Title:SWEET x SWEET
TitleUnicode:SWEET×SWEET
Artist:KOTOKO
ArtistUnicode:KOTOKO
Creator:HeyImJarvis
Version:Hard
Source:ネコぱらVol.4 ネコとパティシエのノエル
Tags:nekopara neko to patissier no noeru PHA 神谷礼 Erisu Mayuzumi Fuyuko Lanzhu Lyruke Nytrocide_ japanese pop j-pop jpop video game opening eroge visual novel Kamiya Rei vol 4 volume Works noel of cat and pastry chef ネコとパティシェのノエル short game version cats paradise sweetxsweet
BeatmapID:2637468
BeatmapSetID:1262210

[Difficulty]
HPDrainRate:5
CircleSize:3.6
OverallDifficulty:6
ApproachRate:8
SliderMultiplier:1.4
SliderTickRate:1

[Events]
//Background and Video events
0,0,"poggers.jpg",0,0
Video,32,"vanilla_best_waifu.mp4"
//Break Periods
//Storyboard Layer 0 (Background)
//Storyboard Layer 1 (Fail)
//Storyboard Layer 2 (Pass)
//Storyboard Layer 3 (Foreground)
//Storyboard Layer 4 (Overlay)
//Storyboard Sound Samples

[TimingPoints]
738,338.983050847458,4,2,1,40,1,0
738,-125,4,2,1,40,0,0
1585,338.983050847458,4,2,1,60,1,0
1585,-153.846153846153,4,2,1,60,0,0
6330,-125,4,2,1,60,0,0
7008,-125,4,2,1,70,0,0
9720,-100,4,2,1,80,0,0
12432,-100,4,2,1,40,0,0
13110,-111.111111111111,4,2,1,80,0,0
23957,-111.111111111111,4,2,1,5,0,0
24127,-111.111111111111,4,2,1,50,0,0
24296,-100,4,2,1,60,0,0
24635,-125,4,2,1,60,0,0
25313,-125,4,2,1,50,0,0
29127,-125,4,2,1,20,0,0
29212,-125,4,2,1,60,0,0
29466,-125,4,2,1,20,0,0
29551,-125,4,2,1,60,0,0
29720,-100,4,2,1,60,0,0
35144,-100,4,2,1,80,0,0
35483,-117.647058823529,4,2,1,70,0,0
45652,-111.111111111111,4,2,1,70,0,0
46330,-111.111111111111,4,2,1,70,0,0
48449,-111.111111111111,4,2,1,20,0,0
48534,-111.111111111111,4,2,1,70,0,0
51754,-111.111111111111,4,2,1,80,0,0
59720,-100,4,2,2,90,0,1
60059,-100,4,2,1,90,0,1
75991,-100,4,2,1,100,0,1
76161,-111.111111111111,4,2,1,60,0,0
77347,-111.111111111111,4,2,1,65,0,0
78873,-111.111111111111,4,2,1,70,0,0
80229,-111.111111111111,4,2,2,80,0,0
80907,-111.111111111111,4,2,1,80,0,0
81585,-125,4,2,1,70,0,0
89720,-125,4,2,1,75,0,0
95144,-125,4,2,1,20,0,0

[Colours]
Combo1 : 158,135,239
Combo2 : 223,91,81
Combo3 : 247,228,210
Combo4 : 126,218,228

[HitObjects]
177,190,738,6,0,L|233:196,1,56,2|0,0:0|0:0,0:0:0:0:
287,133,1076,2,0,L|342:126,1,56,2|0,0:0|0:0,0:0:0:0:
423,163,1415,1,0,0:0:0:0:
423,163,1585,6,0,B|461:149|508:186|513:260|394:298|317:234,1,272.999987503052,4|0,3:2|0:0,0:0:0:0:
308,228,2940,2,0,B|246:174|176:236|185:246|120:307|44:237,1,272.999987503052,4|0,3:2|0:0,0:0:0:0:
42,239,4296,2,0,B|68:185|37:125|37:125|61:103|61:103|35:47|52:3|52:3|65:24,1,272.999987503052,4|0,3:2|0:0,0:0:0:0:
73,34,5652,1,4,3:2:0:0:
175,156,6330,2,0,L|286:142,1,112,2|2,0:0|0:0,0:0:0:0:
425,242,7008,6,0,L|481:249,2,56,4|2|2,3:2|3:2|3:2,0:0:0:0:
358,294,7517,2,0,L|247:308,1,112,2|2,3:2|3:2,0:0:0:0:
174,240,8025,1,2,3:2:0:0:
174,240,8195,2,0,L|118:233,1,56,2|8,3:2|0:0,0:0:0:0:
54,151,8534,5,10,0:0:0:0:
54,151,8703,1,10,0:0:0:0:
171,90,8873,2,0,P|173:117|180:144,1,56,10|8,0:0|0:0,0:0:0:0:
267,224,9212,2,0,P|264:251|257:278,1,56,10|10,0:0|0:0,0:0:0:0:
206,384,9551,5,10,0:0:0:0:
206,384,9635,1,8,0:0:0:0:
206,384,9720,2,0,L|298:373,2,70,12|0|0,0:0|3:1|3:1,0:0:0:0:
129,326,10229,2,0,L|60:317,2,70,4|0|0,3:2|3:1|3:1,0:0:0:0:
197,260,10737,1,4,3:2:0:0:
197,260,10907,2,0,L|231:256,2,35,2|8|14,3:2|0:0|0:0,0:0:0:0:
379,23,12432,5,4,0:0:0:0:
379,23,12771,1,4,0:0:0:0:
379,23,13110,6,0,L|373:71,3,31.4999990386963,8|8|8|8,0:0|0:0|0:0|0:0,0:0:0:0:
399,98,13449,2,0,L|404:146,3,31.4999990386963,8|8|8|8,0:0|0:0|0:0|0:0,0:0:0:0:
372,170,13788,6,0,P|329:214|268:206,1,125.999996154785,4|10,3:2|0:0,0:0:0:0:
233,110,14296,1,0,0:0:0:0:
233,110,14466,2,0,P|264:113|302:123,2,62.9999980773926,2|2|8,3:2|0:0|0:0,0:0:0:0:
150,14,14974,6,0,P|137:42|131:73,1,62.9999980773926,2|0,0:0|3:2,0:0:0:0:
204,142,15313,2,0,P|217:170|223:201,1,62.9999980773926,2|8,0:0|0:0,0:0:0:0:
148,268,15652,2,0,P|135:296|129:327,1,62.9999980773926,2|0,3:2|3:2,0:0:0:0:
50,207,15991,1,2,0:0:0:0:
50,207,16161,2,0,P|78:193|109:193,1,62.9999980773926,8|0,0:0|0:0,0:0:0:0:
174,277,16500,6,0,P|231:301|290:285,1,125.999996154785,0|10,3:2|0:0,0:0:0:0:
371,218,17008,1,0,0:0:0:0:
371,218,17178,2,0,L|378:280,2,62.9999980773926,2|2|8,3:2|0:0|0:0,0:0:0:0:
429,134,17686,6,0,L|436:71,1,62.9999980773926,2|0,0:0|3:1,0:0:0:0:
334,21,18025,2,0,L|342:84,1,62.9999980773926,2|8,0:0|0:0,0:0:0:0:
275,167,18364,2,0,B|185:157|185:157|194:122,1,125.999996154785,2|2,0:0|0:0,0:0:0:0:
108,59,18873,1,10,0:0:0:0:
52,151,19042,1,2,0:0:0:0:
52,151,19127,1,2,0:0:0:0:
52,151,19212,6,0,P|61:213|67:276,1,125.999996154785,12|10,3:2|0:0,0:0:0:0:
152,350,19720,1,0,0:0:0:0:
152,350,19890,2,0,P|157:318|166:288,2,62.9999980773926,2|2|8,3:2|0:0|0:0,0:0:0:0:
250,384,20398,6,0,L|311:372,1,62.9999980773926,2|0,0:0|3:2,0:0:0:0:
378,282,20737,2,0,L|316:270,1,62.9999980773926,2|8,0:0|0:0,0:0:0:0:
247,182,21076,2,0,L|308:170,1,62.9999980773926,2|0,0:0|3:2,0:0:0:0:
371,77,21415,2,0,L|309:65,2,62.9999980773926,2|8|0,0:0|0:0|0:0,0:0:0:0:
474,18,21923,6,0,B|483:80|506:140,1,125.999996154785,6|10,3:2|0:0,0:0:0:0:
446,251,22432,1,0,3:2:0:0:
446,251,22517,1,8,0:0:0:0:
446,251,22601,1,10,0:0:0:0:
352,192,22771,1,2,3:2:0:0:
352,192,23110,5,6,0:0:0:0:
256,192,23279,12,8,24296,3:2:0:0:
127,293,24635,5,4,3:2:0:0:
127,293,24805,2,0,P|134:320|141:347,2,56,2|2|2,0:0|3:2|0:0,0:0:0:0:
196,229,25313,2,0,L|222:117,1,112,2|2,3:2|3:2,3:2:0:0:
108,3,25991,5,0,3:2:0:0:
108,3,26161,2,0,L|52:10,2,56,2|2|2,0:0|3:2|0:0,0:0:0:0:
191,37,26669,2,0,L|309:54,1,112,2|2,3:2|3:2,0:0:0:0:
463,114,27347,5,0,3:2:0:0:
463,114,27517,2,0,P|471:87|477:60,2,56,2|2|2,0:0|3:2|0:0,0:0:0:0:
506,195,28025,2,0,P|452:208|404:183,1,112,2|2,3:2|3:2,0:0:0:0:
233,210,28703,1,2,3:2:0:0:
233,210,29720,5,10,0:0:0:0:
196,328,29890,2,0,P|264:313|334:307,1,140,6|0,0:0|3:2,0:0:0:0:
418,373,30398,2,0,L|436:306,1,70,10|0,0:0|0:0,0:0:0:0:
485,218,30737,2,0,L|467:151,1,70,10|0,0:0|3:0,0:0:0:0:
414,67,31076,2,0,L|432:0,1,70,10|0,0:0|3:0,0:0:0:0:
456,138,31415,6,0,P|422:149|388:146,1,70,10|0,0:0|0:0,0:0:0:0:
267,78,31754,1,10,0:0:0:0:
267,78,31923,2,0,P|281:146|290:215,1,140,2|0,0:0|3:2,0:0:0:0:
248,349,32432,5,10,0:0:0:0:
170,264,32601,2,0,B|137:250|101:270|104:278|67:299|24:278,1,140,6|0,3:2|3:2,0:0:0:0:
0,187,33110,2,0,L|20:107,1,70,10|0,0:0|0:0,0:0:0:0:
109,42,33449,1,10,0:0:0:0:
221,75,33618,1,0,3:2:0:0:
325,28,33788,1,10,0:0:0:0:
325,28,33957,6,0,B|337:58|330:89|330:89|339:102|339:102|332:132|345:164,2,140,2|2|2,3:2|3:2|3:2,0:0:0:0:
505,14,34974,1,8,0:0:0:0:
505,14,35144,1,10,0:0:0:0:
512,168,35483,5,4,3:2:0:0:
512,168,35652,2,0,P|487:182|457:182,1,59.5000011348725,2|10,0:0|0:0,0:0:0:0:
371,127,35991,1,2,0:0:0:0:
371,127,36161,2,0,L|357:201,1,59.5000011348725,2|0,3:2|3:2,0:0:0:0:
411,264,36500,1,10,0:0:0:0:
327,384,36839,5,0,3:2:0:0:
327,384,37008,2,0,P|298:376|269:370,2,59.5000011348725,2|10|2,0:0|0:0|0:0,0:0:0:0:
419,342,37517,2,0,P|448:336|476:328,1,59.5000011348725,2|0,3:2|3:2,0:0:0:0:
426,237,37856,2,0,P|374:209|317:221,1,119.000002269745,10|0,0:0|3:2,0:0:0:0:
247,314,38364,6,0,L|258:372,2,59.5000011348725,2|10|2,0:0|0:0|0:0,0:0:0:0:
204,237,38873,2,0,L|215:178,1,59.5000011348725,2|0,3:2|3:2,0:0:0:0:
266,107,39212,2,0,L|254:48,1,59.5000011348725,10|0,0:0|0:0,0:0:0:0:
175,0,39551,2,0,P|116:-1|73:36,1,119.000002269745,2|10,3:2|0:0,0:0:0:0:
28,139,40059,2,0,L|100:130,1,59.5000011348725,2|0,0:0|3:2,0:0:0:0:
200,155,40398,1,0,3:2:0:0:
172,263,40568,5,10,0:0:0:0:
172,263,40737,2,0,L|35:237,1,119.000002269745,2|0,3:2|0:0,0:0:0:0:
16,356,41246,2,0,P|44:347|73:342,1,59.5000011348725,10|0,0:0|0:0,0:0:0:0:
172,372,41585,2,0,P|199:381|229:384,1,59.5000011348725,2|0,3:2|3:2,0:0:0:0:
322,341,41923,1,10,0:0:0:0:
416,380,42093,6,0,P|472:366|494:313,1,119.000002269745,2|0,0:0|0:0,0:0:0:0:
479,221,42601,1,10,0:0:0:0:
405,44,42940,2,0,P|413:72|420:101,1,59.5000011348725,2|0,3:2|3:2,0:0:0:0:
380,193,43279,2,0,P|372:221|365:250,1,59.5000011348725,10|0,0:0|0:0,0:0:0:0:
438,323,43618,2,0,P|389:355|331:350,1,119.000002269745,2|10,3:2|0:0,0:0:0:0:
234,279,44127,1,2,3:2:0:0:
234,279,44296,2,0,L|242:341,1,59.5000011348725,0|0,3:2|3:2,0:0:0:0:
148,384,44635,1,8,0:0:0:0:
64,320,44805,6,0,P|84:264|100:206,1,119.000002269745,4|0,3:2|3:2,0:0:0:0:
44,114,45313,2,0,P|35:85|30:56,1,59.5000011348725,10|0,0:0|3:2,0:0:0:0:
133,0,45652,1,8,0:0:0:0:
133,0,45737,1,8,0:0:0:0:
133,0,45822,1,0,3:2:0:0:
229,61,45991,2,0,P|222:92|213:123,1,62.9999980773926,2|2,3:2|3:2,0:0:0:0:
255,222,46330,5,14,0:0:0:0:
322,154,46500,1,10,0:0:0:0:
416,152,46669,1,10,0:0:0:0:
483,220,46839,1,10,0:0:0:0:
360,339,47178,1,2,3:2:0:0:
360,339,47517,6,0,P|347:277|330:216,1,125.999996154785,6|0,3:2|0:0,0:0:0:0:
247,132,48025,1,10,0:0:0:0:
183,232,48195,1,2,3:2:0:0:
183,232,48279,1,0,3:2:0:0:
183,232,48364,2,0,P|174:263|167:294,1,62.9999980773926,2|0,3:2|3:2,0:0:0:0:
80,357,48703,2,0,P|73:326|64:295,1,62.9999980773926,2|2,3:2|3:2,0:0:0:0:
80,175,49042,5,14,0:0:0:0:
155,117,49212,1,10,0:0:0:0:
249,118,49381,1,10,0:0:0:0:
324,176,49551,1,10,0:0:0:0:
415,27,49890,1,2,3:2:0:0:
232,0,50229,6,0,L|106:15,1,125.999996154785,6|0,0:0|3:2,0:0:0:0:
29,83,50737,1,8,0:0:0:0:
29,83,50907,1,2,3:2:0:0:
81,173,51076,2,0,P|112:183|143:186,1,62.9999980773926,2|0,3:2|3:2,0:0:0:0:
237,129,51415,1,10,0:0:0:0:
310,226,51585,1,8,0:0:0:0:
310,226,51669,1,8,0:0:0:0:
310,226,51754,6,0,L|320:292,2,62.9999980773926,6|2|8,0:0|3:2|0:0,0:0:0:0:
373,129,52262,2,0,P|425:98|485:111,1,125.999996154785,4|2,0:0|3:2,0:0:0:0:
512,214,52771,1,10,0:0:0:0:
455,301,52940,6,0,B|426:281|393:308|399:313|366:336|322:312,1,125.999996154785,4|0,3:2|3:2,0:0:0:0:
242,253,53449,2,0,L|234:317,1,62.9999980773926,10|0,0:0|0:0,0:0:0:0:
161,378,53788,1,2,3:2:0:0:
161,378,53957,1,2,3:2:0:0:
89,313,54127,2,0,L|81:250,1,62.9999980773926,10|0,0:0|0:0,0:0:0:0:
100,141,54466,6,0,B|153:151|153:151|165:164|165:164|228:176,1,125.999996154785,2|8,3:2|0:0,0:0:0:0:
338,145,54974,1,0,0:0:0:0:
338,145,55144,2,0,P|346:114|357:85,1,62.9999980773926,0|0,3:2|3:2,0:0:0:0:
281,7,55483,1,8,0:0:0:0:
204,90,55652,1,2,0:0:0:0:
204,90,55737,1,2,0:0:0:0:
204,90,55822,2,0,P|223:149|234:211,1,125.999996154785,0|8,3:2|0:0,0:0:0:0:
373,359,56500,5,0,3:2:0:0:
373,359,56669,2,0,P|402:372|433:373,1,62.9999980773926,0|8,3:2|0:0,0:0:0:0:
484,275,57008,2,0,L|504:150,1,125.999996154785,6|0,3:2|3:2,0:0:0:0:
395,52,57517,2,0,L|410:134,1,62.9999980773926,8|0,0:0|3:2,0:0:0:0:
331,187,57856,1,0,3:2:0:0:
251,121,58025,2,0,L|262:59,1,62.9999980773926,0|8,3:2|0:0,0:0:0:0:
165,0,58364,1,12,0:0:0:0:
10,134,58703,5,8,0:0:0:0:
10,134,58873,1,10,0:0:0:0:
10,134,59720,6,0,P|63:175|129:160,1,140,6|0,0:0|3:2,0:0:0:0:
202,67,60229,1,10,0:0:0:0:
298,134,60398,2,0,L|308:203,1,70,2|0,0:0|3:2,0:0:0:0:
232,289,60737,2,0,L|221:358,1,70,2|8,0:0|0:0,0:0:0:0:
336,384,61076,2,0,P|402:359|471:347,1,140,2|0,0:0|0:0,0:0:0:0:
512,252,61585,1,8,0:0:0:0:
451,169,61754,5,2,0:0:0:0:
451,169,61923,2,0,P|416:166|382:155,2,70,2|2|10,3:2|0:0|0:0,0:0:0:0:
509,75,62432,2,0,B|502:57|496:36|496:36|447:45|398:52,1,140,2|0,0:0|0:0,0:0:0:0:
294,111,62940,1,10,0:0:0:0:
294,111,63110,2,0,P|259:104|225:98,1,70,2|0,0:0|3:2,0:0:0:0:
123,45,63449,2,0,P|88:51|54:57,1,70,2|8,0:0|0:0,0:0:0:0:
5,166,63788,2,0,B|11:220|11:220|4:239|4:239|12:303,1,140,2|0,0:0|0:0,0:0:0:0:
112,377,64296,2,0,L|121:308,1,70,8|0,0:0|0:0,0:0:0:0:
200,219,64635,6,0,P|233:208|268:208,1,70,2|0,3:2|0:0,0:0:0:0:
363,280,64974,2,0,P|396:290|431:290,1,70,10|0,0:0|0:0,0:0:0:0:
511,202,65313,2,0,L|484:64,1,140,6|10,3:2|0:0,0:0:0:0:
394,0,65822,1,2,0:0:0:0:
394,0,66161,6,0,P|360:9|326:17,1,70,2|10,0:0|0:0,0:0:0:0:
253,92,66500,1,2,0:0:0:0:
253,92,66669,2,0,B|206:82|155:70|155:70|148:93|139:121,1,140,2|10,3:2|0:0,0:0:0:0:
156,225,67178,2,0,P|190:219|224:209,1,70,2|0,0:0|3:2,0:0:0:0:
328,263,67517,2,0,P|362:268|396:278,1,70,2|8,0:0|0:0,0:0:0:0:
473,189,67856,1,10,0:0:0:0:
473,189,67940,1,8,0:0:0:0:
473,189,68025,6,0,P|418:148|351:161,1,140,4|8,3:2|0:0,0:0:0:0:
313,268,68534,1,0,3:2:0:0:
313,268,68618,1,8,0:0:0:0:
313,268,68703,2,0,P|283:286|248:290,1,70,8|2,0:0|3:2,0:0:0:0:
150,235,69042,1,2,0:0:0:0:
57,300,69212,6,0,P|48:230|34:161,1,140,6|8,3:2|0:0,0:0:0:0:
30,149,69635,1,8,0:0:0:0:
24,136,69720,1,8,0:0:0:0:
92,56,69890,1,6,3:2:0:0:
188,98,70059,2,0,P|175:130|166:164,2,70,10|2|10,0:0|3:2|0:0,0:0:0:0:
285,18,70568,6,0,L|432:3,1,140,6|0,3:2|3:2,0:0:0:0:
512,56,71076,1,10,0:0:0:0:
441,130,71246,2,0,L|428:211,1,70,2|0,0:0|3:2,0:0:0:0:
498,276,71585,2,0,L|511:357,1,70,2|8,0:0|0:0,0:0:0:0:
403,384,71923,2,0,P|335:369|265:361,1,140,2|0,0:0|0:0,0:0:0:0:
156,379,72432,1,8,0:0:0:0:
66,336,72601,5,2,0:0:0:0:
66,336,72771,2,0,P|60:302|54:268,2,70,2|2|10,3:2|0:0|0:0,0:0:0:0:
167,383,73279,2,0,P|182:315|205:249,1,140,2|0,0:0|0:0,0:0:0:0:
149,159,73788,1,8,0:0:0:0:
149,159,73957,2,0,L|133:79,1,70,2|0,0:0|3:2,0:0:0:0:
210,4,74296,2,0,P|243:-4|278:0,1,70,2|8,0:0|0:0,0:0:0:0:
352,75,74635,2,0,B|387:91|425:72|419:65|461:51|497:67,1,140,2|0,0:0|0:0,0:0:0:0:
512,158,75144,2,0,L|504:227,1,70,8|0,0:0|0:0,0:0:0:0:
442,306,75483,6,0,L|338:322,1,105,2|8,3:2|0:0,0:0:0:0:
324,311,75822,2,0,L|250:303,1,70,10|0,0:2|3:2,0:0:0:0:
166,361,76161,6,0,L|97:373,2,62.9999980773926,6|2|2,0:0|0:0|3:2,0:0:0:0:
238,302,76669,2,0,P|247:271|252:240,1,62.9999980773926,2|0,3:2|3:0,0:0:0:0:
167,185,77008,1,0,3:0:0:0:
215,97,77178,1,0,3:0:0:0:
215,97,77347,2,0,P|205:66|200:35,1,62.9999980773926,8|10,0:0|0:0,0:0:0:0:
308,0,77686,1,8,0:0:0:0:
408,63,77856,1,8,0:0:0:0:
408,63,78025,2,0,P|407:126|395:188,1,125.999996154785,8|8,0:0|0:0,0:0:0:0:
306,258,78534,1,8,0:0:0:0:
306,258,78703,1,8,0:0:0:0:
203,209,78873,6,0,L|129:220,1,62.9999980773926,10|8,0:0|0:0,0:0:0:0:
87,117,79212,2,0,L|149:126,1,62.9999980773926,8|8,0:0|0:0,0:0:0:0:
185,18,79551,2,0,L|111:29,1,62.9999980773926,8|8,0:0|0:0,0:0:0:0:
50,106,79890,1,10,0:0:0:0:
102,217,80059,1,8,0:0:0:0:
102,217,80144,1,8,0:0:0:0:
102,217,80229,1,4,0:0:0:0:
102,217,81585,6,0,P|146:185|200:193,1,112,4|10,3:2|0:0,0:0:0:0:
256,267,82093,1,0,0:0:0:0:
256,267,82262,2,0,L|245:330,2,56,2|2|8,3:2|0:0|0:0,0:0:0:0:
304,194,82771,2,0,L|294:139,1,56,2|0,0:0|3:2,0:0:0:0:
245,67,83110,2,0,L|255:12,1,56,2|8,0:0|0:0,0:0:0:0:
343,43,83449,2,0,P|370:51|398:49,1,56,2|0,0:0|3:2,0:0:0:0:
479,0,83788,1,2,0:0:0:0:
479,0,83957,2,0,L|489:55,1,56,8|0,0:0|0:0,0:0:0:0:
446,141,84296,6,0,L|423:251,1,112,0|10,3:2|0:0,0:0:0:0:
476,330,84805,1,0,0:0:0:0:
476,330,84974,2,0,L|488:385,2,56,0|2|8,3:2|0:0|0:0,0:0:0:0:
380,359,85483,2,0,P|353:366|325:369,1,56,2|0,0:0|3:2,0:0:0:0:
268,299,85822,2,0,P|241:292|213:289,1,56,2|8,0:0|0:0,0:0:0:0:
156,359,86161,2,0,P|129:366|101:369,1,56,2|0,0:0|3:2,0:0:0:0:
19,330,86500,1,2,0:0:0:0:
96,284,86669,2,0,L|92:248,3,28,8|2|2|2,0:0|0:0|0:0|0:0,0:0:0:0:
55,231,87008,6,0,P|66:176|80:122,1,112,4|10,3:2|0:0,0:0:0:0:
18,64,87517,1,2,0:0:0:0:
18,64,87686,2,0,P|14:36|8:9,2,56,2|2|8,3:2|0:0|0:0,0:0:0:0:
106,51,88195,6,0,L|171:42,1,56,2|0,0:0|3:2,0:0:0:0:
236,89,88534,2,0,L|291:97,1,56,2|8,0:0|0:0,0:0:0:0:
348,30,88873,2,0,L|403:22,1,56,2|0,0:0|3:2,0:0:0:0:
473,76,89212,1,2,0:0:0:0:
473,76,89381,2,0,P|483:102|485:130,1,56,8|0,0:0|0:0,0:0:0:0:
432,210,89720,6,0,P|378:194|323:185,1,112,6|10,0:0|0:0,0:0:0:0:
254,247,90229,1,8,0:0:0:0:
254,247,90313,1,8,0:0:0:0:
254,247,90398,1,10,0:0:0:0:
319,315,90568,1,2,3:2:0:0:
458,202,90907,5,4,0:0:0:0:
256,192,91076,12,0,95144,0:0:0:0:
