osu file format v14

[General]
AudioFilename: audio.mp3
AudioLeadIn: 0
PreviewTime: 59042
Countdown: 0
SampleSet: Soft
StackLeniency: 0.4
Mode: 0
LetterboxInBreaks: 0
WidescreenStoryboard: 1

[Editor]
Bookmarks: 13788,24635,35483,46330,59042,70568,81585,91076
DistanceSpacing: 1
BeatDivisor: 4
GridSize: 4
TimelineZoom: 1.8

[Metadata]
Title:SWEET x SWEET
TitleUnicode:SWEET×SWEET
Artist:KOTOKO
ArtistUnicode:KOTOKO
Creator:HeyImJarvis
Version:Extra
Source:ネコぱらVol.4 ネコとパティシエのノエル
Tags:nekopara neko to patissier no noeru PHA 神谷礼 Erisu Mayuzumi Fuyuko Lanzhu Lyruke Nytrocide_ japanese pop j-pop jpop video game opening eroge visual novel Kamiya Rei vol 4 volume Works noel of cat and pastry chef ネコとパティシェのノエル short game version cats paradise sweetxsweet
BeatmapID:3144343
BeatmapSetID:1262210

[Difficulty]
HPDrainRate:5.8
CircleSize:4
OverallDifficulty:8.6
ApproachRate:9.2
SliderMultiplier:1.8
SliderTickRate:1

[Events]
//Background and Video events
0,0,"poggers.jpg",0,0
Video,32,"vanilla_best_waifu.mp4"
//Break Periods
//Storyboard Layer 0 (Background)
//Storyboard Layer 1 (Fail)
//Storyboard Layer 2 (Pass)
//Storyboard Layer 3 (Foreground)
//Storyboard Layer 4 (Overlay)
//Storyboard Sound Samples

[TimingPoints]
738,338.983050847458,4,2,1,40,1,0
738,-166.666666666667,4,2,1,40,0,0
1585,338.983050847458,4,2,1,60,1,0
1585,-125,4,2,1,60,0,0
6585,-125,4,2,1,5,0,0
6669,-125,4,2,1,60,0,0
7008,-166.666666666667,4,2,1,70,0,0
8873,-111.111111111111,4,2,1,70,0,0
9720,-111.111111111111,4,2,1,80,0,0
12432,-166.666666666666,4,2,1,40,0,0
13110,-111.111111111111,4,2,1,80,0,0
23957,-111.111111111111,4,2,1,5,0,0
24127,-166.666666666666,4,2,1,60,0,0
25313,-142.857142857142,4,2,1,50,0,0
29127,-142.857142857142,4,2,1,20,0,0
29212,-142.857142857142,4,2,1,60,0,0
29466,-142.857142857142,4,2,1,20,0,0
29551,-142.857142857142,4,2,1,60,0,0
29720,-111.111111111111,4,2,1,60,0,0
35144,-166.666666666666,4,2,1,80,0,0
35398,-166.666666666666,4,2,1,5,0,0
35483,-125,4,2,1,70,0,0
46330,-125,4,2,1,70,0,0
48534,-125,4,2,1,70,0,0
51754,-125,4,2,1,80,0,0
57008,-100,4,2,1,80,0,0
59720,-100,4,2,2,90,0,1
60059,-100,4,2,1,90,0,1
65313,-83.3333333333333,4,2,1,90,0,1
66161,-100,4,2,1,90,0,1
75822,-100,4,2,1,90,0,1
76161,-100,4,2,1,60,0,0
77347,-100,4,2,1,65,0,0
78873,-100,4,2,1,70,0,0
80229,-100,4,2,2,80,0,0
80907,-166.666666666667,4,2,1,80,0,0
81500,-166.666666666667,4,2,1,5,0,0
81585,-111.111111111111,4,2,1,70,0,0
89720,-100,4,2,1,75,0,0
95144,-100,4,2,1,20,0,0

[Colours]
Combo1 : 158,135,239
Combo2 : 223,91,81
Combo3 : 247,228,210
Combo4 : 126,218,228

[HitObjects]
220,89,738,6,0,P|193:84|166:79,1,53.9999983520508,2|0,0:0|0:0,0:0:0:0:
257,172,1076,2,0,P|283:167|310:162,1,53.9999983520508,2|0,0:0|0:0,0:0:0:0:
208,248,1415,1,0,0:0:0:0:
208,248,1585,6,0,P|249:302|316:292,1,144,4|0,3:2|0:0,0:0:0:0:
416,212,2093,2,0,P|401:282|392:353,1,144,2|0,0:0|0:0,0:0:0:0:
347,40,2771,1,2,0:0:0:0:
347,40,2940,6,0,B|352:58|369:69|369:69|317:67|262:64,1,144,4|0,3:2|0:0,0:0:0:0:
160,149,3449,2,0,L|209:143,2,36,2|2|2,0:0|0:0|0:0,0:0:0:0:
114,48,3788,1,2,0:0:0:0:
141,169,3957,1,2,0:0:0:0:
224,67,4127,1,0,0:0:0:0:
224,67,4296,6,0,B|194:46|153:74|159:82|121:105|86:83,1,144,4|2,3:2|0:0,0:0:0:0:
20,208,4805,2,0,P|10:174|0:139,1,72,2|0,0:0|0:0,0:0:0:0:
152,180,5144,2,0,P|141:214|132:249,1,72,2|0,0:0|0:0,0:0:0:0:
83,356,5483,1,2,0:0:0:0:
83,356,5652,6,0,P|154:344|225:337,1,144,4|0,3:2|0:0,0:0:0:0:
442,180,6330,6,0,P|408:142|357:153,1,108,2|0,0:0|0:0,0:0:0:0:
328,169,6669,2,0,P|335:204|342:239,1,72,2|0,0:0|0:0,0:0:0:0:
417,96,7008,5,4,3:2:0:0:
316,70,7178,1,2,3:2:0:0:
420,194,7347,1,2,3:2:0:0:
504,95,7517,6,0,P|477:88|452:80,1,53.9999983520508,2|0,3:2|3:2,0:0:0:0:
254,132,7856,1,2,3:2:0:0:
321,39,8025,1,2,3:2:0:0:
339,183,8195,1,2,3:2:0:0:
193,63,8364,5,8,0:0:0:0:
417,96,8534,1,10,0:0:0:0:
201,189,8703,1,10,0:0:0:0:
327,28,8873,2,0,P|362:11|403:11,1,80.9999975280763,10|8,0:0|0:0,0:0:0:0:
300,190,9212,1,10,0:0:0:0:
186,55,9381,5,10,0:0:0:0:
128,254,9551,1,10,0:0:0:0:
128,254,9635,1,8,0:0:0:0:
128,254,9720,5,12,0:0:0:0:
305,101,9890,1,0,3:1:0:0:
51,137,10059,1,0,3:1:0:0:
371,146,10229,5,4,3:2:0:0:
166,44,10398,1,0,3:1:0:0:
266,264,10568,1,0,3:1:0:0:
295,9,10737,5,4,3:2:0:0:
187,230,10907,1,2,3:2:0:0:
187,230,10991,1,8,0:0:0:0:
187,230,11076,1,14,0:0:0:0:
168,119,12432,5,4,0:0:0:0:
163,140,12771,1,4,0:0:0:0:
150,250,13110,5,8,0:0:0:0:
150,250,13195,1,8,0:0:0:0:
150,250,13279,2,0,L|201:240,1,40.4999987640381,8|8,0:0|0:0,0:0:0:0:
307,308,13449,1,8,0:0:0:0:
334,314,13534,1,8,0:0:0:0:
362,312,13618,1,8,0:0:0:0:
389,304,13703,1,8,0:0:0:0:
410,284,13788,6,0,P|418:245|428:206,1,80.9999975280763,4|0,3:2|0:0,0:0:0:0:
252,90,14127,2,0,P|262:129|270:168,1,80.9999975280763,10|0,0:0|0:0,0:0:0:0:
230,323,14466,1,2,3:2:0:0:
389,262,14635,2,0,P|349:251|310:243,1,80.9999975280763,2|8,0:0|0:0,0:0:0:0:
87,212,14974,6,0,L|65:302,1,80.9999975280763,2|0,0:0|3:2,0:0:0:0:
250,327,15313,2,0,L|230:248,1,80.9999975280763,2|8,0:0|0:0,0:0:0:0:
101,376,15652,1,2,3:2:0:0:
101,376,15737,1,8,0:0:0:0:
101,376,15822,1,0,3:2:0:0:
248,354,15991,1,2,0:0:0:0:
107,200,16161,2,0,P|119:238|128:278,1,80.9999975280763,8|0,0:0|0:0,0:0:0:0:
256,178,16500,6,0,P|265:138|277:99,1,80.9999975280763,0|0,3:2|0:0,0:0:0:0:
70,64,16839,2,0,P|102:87|141:92,1,80.9999975280763,10|0,0:0|0:0,0:0:0:0:
338,42,17178,1,2,3:2:0:0:
204,8,17347,2,0,P|215:46|224:86,1,80.9999975280763,2|8,0:0|0:0,0:0:0:0:
373,187,17686,1,2,0:0:0:0:
373,187,17771,1,2,0:0:0:0:
373,187,17856,5,0,3:1:0:0:
213,255,18025,2,0,P|252:263|291:275,1,80.9999975280763,2|8,0:0|0:0,0:0:0:0:
438,341,18364,2,0,P|418:346|398:349,2,40.4999987640381,2|0|0,0:0|0:0|3:2,0:0:0:0:
340,186,18703,1,2,0:0:0:0:
469,264,18873,1,10,0:0:0:0:
479,237,18957,1,2,0:0:0:0:
481,208,19042,1,2,0:0:0:0:
472,180,19127,1,2,0:0:0:0:
452,158,19212,1,12,3:2:0:0:
198,347,19551,6,0,P|237:338|277:332,1,80.9999975280763,10|0,0:0|0:0,0:0:0:0:
167,231,19890,1,2,3:2:0:0:
115,384,20059,2,0,P|75:377|35:369,1,80.9999975280763,2|8,0:0|0:0,0:0:0:0:
53,182,20398,6,0,P|64:220|74:260,1,80.9999975280763,2|0,0:0|3:2,0:0:0:0:
219,129,20737,2,0,P|207:167|197:207,1,80.9999975280763,2|8,0:0|0:0,0:0:0:0:
53,82,21076,2,0,P|84:58|124:50,1,80.9999975280763,2|0,0:0|3:2,0:0:0:0:
144,65,21330,1,2,0:2:0:0:
144,65,21415,1,2,0:0:0:0:
322,161,21585,2,0,P|282:156|242:152,1,80.9999975280763,8|0,0:0|0:0,0:0:0:0:
401,32,21923,6,0,L|415:111,1,80.9999975280763,6|0,3:2|0:0,0:0:0:0:
213,252,22262,2,0,L|227:172,1,80.9999975280763,10|0,0:0|3:2,0:0:0:0:
242,152,22517,1,8,0:0:0:0:
242,152,22601,1,10,0:0:0:0:
421,293,22771,1,2,3:2:0:0:
82,258,23110,5,6,0:0:0:0:
256,192,23279,12,0,23957,0:0:0:0:
337,95,24127,5,0,3:2:0:0:
337,95,24296,1,8,3:2:0:0:
181,1,24635,5,4,3:2:0:0:
230,100,24805,1,2,0:0:0:0:
230,100,24974,2,0,P|237:73|245:48,1,53.9999983520508,2|2,3:2|0:0,0:0:0:0:
130,2,25313,2,0,P|140:31|148:62,1,62.9999980773926,2|0,3:2|0:0,0:0:0:0:
31,101,25652,2,0,P|39:70|49:40,1,62.9999980773926,2|0,3:2|0:0,0:0:0:0:
135,183,25991,5,0,3:2:0:0:
58,239,26161,1,2,0:0:0:0:
140,268,26330,2,0,L|77:273,1,62.9999980773926,2|2,3:2|0:0,0:0:0:0:
22,372,26669,2,0,L|84:377,1,62.9999980773926,2|0,3:2|0:0,0:0:0:0:
230,291,27008,2,0,L|167:285,1,62.9999980773926,2|0,3:2|0:0,0:0:0:0:
301,379,27347,5,0,3:2:0:0:
402,287,27517,1,2,0:0:0:0:
300,234,27686,2,0,P|307:264|312:295,1,62.9999980773926,2|2,3:2|0:0,0:0:0:0:
426,191,28025,2,0,P|418:221|413:252,1,62.9999980773926,2|0,3:2|0:0,0:0:0:0:
331,98,28364,2,0,P|338:128|343:159,1,62.9999980773926,2|0,3:2|0:0,0:0:0:0:
427,35,28703,1,2,3:2:0:0:
427,35,29042,6,0,L|382:24,1,31.4999990386963,2|0,0:0|0:0,0:0:0:0:
267,111,29212,1,2,0:0:0:0:
267,111,29296,1,2,0:0:0:0:
267,111,29381,2,0,L|312:100,1,31.4999990386963,2|0,3:2|0:0,0:0:0:0:
425,170,29551,1,2,0:0:0:0:
331,98,29720,5,10,0:0:0:0:
230,302,29890,2,0,P|296:338|354:288,1,161.999995056153,6|0,0:0|3:2,0:0:0:0:
197,153,30398,2,0,P|157:142|118:133,1,80.9999975280763,10|0,0:0|0:0,0:0:0:0:
304,25,30737,5,10,0:0:0:0:
152,97,30907,1,0,3:0:0:0:
419,183,31076,5,10,0:0:0:0:
267,111,31246,1,0,3:0:0:0:
136,278,31415,6,0,P|175:267|214:258,1,80.9999975280763,10|0,0:0|0:0,0:0:0:0:
94,168,31754,5,10,0:0:0:0:
26,288,31923,1,2,0:0:0:0:
209,181,32093,5,10,0:0:0:0:
27,113,32262,1,0,3:2:0:0:
147,303,32432,1,10,0:0:0:0:
271,108,32601,6,0,P|246:185|229:264,1,161.999995056153,6|0,3:2|3:2,0:0:0:0:
103,79,33110,2,0,P|115:117|126:156,1,80.9999975280763,10|0,0:0|0:0,0:0:0:0:
248,25,33449,1,10,0:0:0:0:
62,14,33618,1,0,3:2:0:0:
282,121,33788,1,10,0:0:0:0:
159,0,33957,5,2,3:2:0:0:
178,234,34296,5,2,3:2:0:0:
394,93,34635,5,2,3:2:0:0:
100,137,34974,5,8,0:0:0:0:
100,137,35144,2,0,P|129:110|168:105,1,80.9999975280763,10|0,0:0|0:0,0:0:0:0:
196,128,35483,5,4,3:2:0:0:
247,277,35652,1,2,0:0:0:0:
346,142,35822,2,0,P|310:149|275:157,1,72,10|2,0:0|0:0,0:0:0:0:
382,269,36161,2,0,P|417:276|452:284,1,72,2|0,3:2|3:2,0:0:0:0:
453,136,36500,2,0,P|417:127|382:120,1,72,10|0,0:0|0:0,0:0:0:0:
287,297,36839,5,0,3:2:0:0:
200,179,37008,1,2,0:0:0:0:
102,297,37178,2,0,P|93:262|83:228,1,72,10|2,0:0|0:0,0:0:0:0:
195,84,37517,2,0,P|184:118|176:153,1,72,2|0,3:2|3:2,0:0:0:0:
19,39,37856,2,0,P|53:28|88:20,1,72,10|0,0:0|0:0,0:0:0:0:
275,116,38195,5,0,3:2:0:0:
175,8,38364,1,2,0:0:0:0:
131,159,38534,2,0,L|199:178,1,72,10|2,0:0|0:0,0:0:0:0:
334,14,38873,2,0,L|265:33,1,72,2|0,3:2|3:2,0:0:0:0:
399,170,39212,2,0,L|418:101,1,72,10|0,0:0|0:0,0:0:0:0:
259,278,39551,6,0,P|329:265|401:256,1,144,2|10,3:2|0:0,0:0:0:0:
463,367,40059,1,2,0:0:0:0:
384,179,40229,1,0,3:2:0:0:
331,356,40398,1,0,3:2:0:0:
512,194,40568,1,10,0:0:0:0:
326,108,40737,1,2,3:2:0:0:
326,108,40822,1,0,3:2:0:0:
326,108,40907,6,0,P|343:177|356:248,1,144,4|10,3:2|0:0,0:0:0:0:
499,110,41415,1,0,0:0:0:0:
421,0,41585,2,0,P|409:34|402:69,1,72,2|0,3:2|3:2,0:0:0:0:
314,215,41923,1,10,0:0:0:0:
408,96,42093,1,2,0:0:0:0:
178,49,42262,6,0,P|218:-7|286:3,1,144,0|10,3:2|0:0,0:0:0:0:
202,182,42771,1,0,0:0:0:0:
64,48,42940,2,0,P|71:83|77:118,1,72,2|0,3:2|3:2,0:0:0:0:
173,269,43279,2,0,P|179:233|186:198,1,72,10|0,0:0|0:0,0:0:0:0:
51,342,43618,6,0,B|85:322|125:341|113:351|149:376|189:358,1,144,2|10,3:2|0:0,0:0:0:0:
296,258,44127,1,2,3:2:0:0:
296,258,44212,1,0,3:2:0:0:
296,258,44296,1,0,3:2:0:0:
176,197,44466,1,0,3:2:0:0:
286,361,44635,1,8,0:0:0:0:
342,143,44805,6,0,P|270:152|200:166,1,144,4|0,3:2|3:2,0:0:0:0:
90,281,45313,1,10,0:0:0:0:
24,87,45483,1,0,3:2:0:0:
201,282,45652,1,8,0:0:0:0:
208,257,45737,1,8,0:0:0:0:
216,233,45822,1,0,3:2:0:0:
224,209,45907,1,0,3:2:0:0:
234,185,45991,2,0,P|242:170|252:155,1,36,2|0,3:2|3:2,0:0:0:0:
121,99,46161,2,0,P|130:114|139:129,1,36,2|0,3:2|3:2,0:0:0:0:
236,25,46330,5,14,0:0:0:0:
67,205,46500,1,10,0:0:0:0:
306,78,46669,1,10,0:0:0:0:
47,9,46839,1,10,0:0:0:0:
370,337,47178,6,0,P|381:302|394:269,1,72,2|0,3:2|0:0,0:0:0:0:
231,120,47517,2,0,P|247:190|260:260,1,144,6|0,3:2|0:0,0:0:0:0:
408,103,48025,1,10,0:0:0:0:
317,17,48195,1,2,3:2:0:0:
317,17,48279,1,0,3:2:0:0:
317,17,48364,2,0,P|283:3|247:0,1,72,2|0,3:2|3:2,0:0:0:0:
224,18,48618,1,0,3:2:0:0:
224,18,48703,1,2,3:2:0:0:
174,130,48873,1,2,3:2:0:0:
390,91,49042,5,14,0:0:0:0:
130,54,49212,1,10,0:0:0:0:
343,223,49381,1,10,0:0:0:0:
207,0,49551,1,10,0:0:0:0:
128,280,49890,6,0,P|162:270|197:262,1,72,2|0,3:2|0:0,0:0:0:0:
0,191,50229,2,0,P|12:261|22:333,1,144,6|0,0:0|3:2,0:0:0:0:
134,103,50737,2,0,P|124:138|115:173,1,72,8|2,0:0|3:2,0:0:0:0:
125,195,50991,1,0,3:2:0:0:
125,195,51076,1,2,3:2:0:0:
25,55,51246,2,0,L|70:48,1,36,0|0,3:2|3:2,0:0:0:0:
236,161,51415,1,10,0:0:0:0:
236,161,51500,1,8,0:0:0:0:
236,161,51585,2,0,L|191:154,1,36,8|8,0:0|0:0,0:0:0:0:
177,31,51754,5,6,0:0:0:0:
321,208,51923,2,0,P|333:175|348:142,1,72,2|8,3:2|0:0,0:0:0:0:
197,47,52262,2,0,B|230:25|271:39|259:48|301:69|334:51,1,144,4|2,0:0|3:2,0:0:0:0:
215,188,52771,1,10,0:0:0:0:
54,51,52940,6,0,P|66:121|77:193,1,144,4|0,3:2|3:2,0:0:0:0:
226,347,53449,2,0,P|191:338|155:330,1,72,10|0,0:0|0:0,0:0:0:0:
232,178,53788,1,2,3:2:0:0:
326,301,53957,1,2,3:2:0:0:
421,184,54127,2,0,P|385:191|350:200,1,72,10|0,0:0|0:0,0:0:0:0:
477,328,54466,6,0,B|494:337|498:360|498:360|506:304|513:256,1,144,2|8,3:2|0:0,0:0:0:0:
410,101,54974,1,0,0:0:0:0:
323,227,55144,2,0,P|316:191|309:156,1,72,0|0,3:2|3:2,0:0:0:0:
427,5,55483,1,8,0:0:0:0:
251,64,55652,5,2,0:0:0:0:
251,64,55737,1,2,0:0:0:0:
251,64,55822,2,0,P|286:71|321:77,1,72,0|0,3:2|0:0,0:0:0:0:
409,224,56161,2,0,P|373:231|338:237,1,72,8|0,0:0|0:0,0:0:0:0:
209,151,56500,1,0,3:2:0:0:
321,255,56669,1,0,3:2:0:0:
321,255,56754,1,0,3:2:0:0:
321,255,56839,1,8,0:0:0:0:
88,311,57008,6,0,B|128:274|174:307|171:312|212:350|261:313,1,180,6|0,3:2|3:2,0:0:0:0:
41,153,57517,2,0,P|52:109|64:66,1,90,8|0,0:0|3:2,0:0:0:0:
189,216,57856,1,0,3:2:0:0:
273,24,58025,2,0,P|283:67|294:111,1,90,0|8,3:2|0:0,0:0:0:0:
421,340,58364,1,12,0:0:0:0:
406,353,58703,5,8,0:0:0:0:
501,29,58873,1,10,0:0:0:0:
455,129,59720,6,0,B|459:152|483:164|483:164|420:156|350:149,1,180,6|0,0:0|3:2,0:0:0:0:
143,233,60229,1,10,0:0:0:0:
311,267,60398,2,0,P|322:311|337:354,1,90,2|0,0:0|3:2,0:0:0:0:
194,130,60737,2,0,P|208:87|220:44,1,90,2|8,0:0|0:0,0:0:0:0:
16,205,61076,2,0,P|52:280|133:260,1,180,2|0,0:0|0:0,0:0:0:0:
215,160,61585,1,8,0:0:0:0:
218,264,61754,5,2,0:0:0:0:
279,110,61923,1,2,3:2:0:0:
341,292,62093,1,2,0:0:0:0:
254,84,62262,1,10,0:0:0:0:
178,360,62432,6,0,P|266:343|355:333,1,180,2|0,0:0|0:0,0:0:0:0:
488,197,62940,1,10,0:0:0:0:
361,69,63110,2,0,P|316:62|273:52,1,90,2|0,0:0|3:2,0:0:0:0:
385,232,63449,2,0,P|429:221|474:216,1,90,2|8,0:0|0:0,0:0:0:0:
207,126,63788,2,0,B|189:108|180:82|180:82|188:145|191:213,1,180,2|0,0:0|0:0,0:0:0:0:
21,309,64296,2,0,P|30:264|40:221,1,90,8|0,0:0|0:0,0:0:0:0:
18,129,64551,1,0,0:0:0:0:
18,129,64635,6,0,P|7:85|0:41,1,90,2|0,3:2|0:0,0:0:0:0:
175,276,64974,2,0,P|164:232|156:188,1,90,10|0,0:0|0:0,0:0:0:0:
182,69,65229,1,0,0:0:0:0:
182,69,65313,6,0,P|219:32|272:33,1,107.999996704102,6|0,3:2|0:0,0:0:0:0:
342,239,65652,1,10,0:0:0:0:
487,104,65822,2,0,P|449:66|396:67,1,107.999996704102,2|0,0:0|3:2,0:0:0:0:
256,305,66161,5,2,0:0:0:0:
446,246,66330,1,10,0:0:0:0:
242,155,66500,1,2,0:0:0:0:
386,363,66669,6,0,P|397:273|414:185,1,180,2|10,3:2|0:0,0:0:0:0:
222,29,67178,2,0,P|233:72|243:116,1,90,2|0,0:0|3:2,0:0:0:0:
494,0,67517,2,0,P|482:43|472:87,1,90,2|8,0:0|0:0,0:0:0:0:
332,217,67856,1,10,0:0:0:0:
332,217,67940,1,8,0:0:0:0:
332,217,68025,6,0,B|296:178|240:216|250:228|202:258|149:220,1,180,4|8,3:2|0:0,0:0:0:0:
40,360,68534,1,0,3:2:0:0:
40,360,68618,1,8,0:0:0:0:
40,360,68703,1,8,0:0:0:0:
216,384,68873,1,2,3:2:0:0:
23,254,69042,1,2,0:0:0:0:
214,56,69212,6,0,P|189:142|175:231,1,180,6|8,3:2|0:0,0:0:0:0:
187,258,69635,1,8,0:0:0:0:
187,258,69720,1,8,0:0:0:0:
58,118,69890,1,6,3:2:0:0:
279,232,70059,1,10,0:0:0:0:
45,315,70229,1,2,3:2:0:0:
45,315,70313,1,0,3:2:0:0:
45,315,70398,1,10,0:0:0:0:
177,54,70568,6,0,P|261:44|300:119,1,180,6|0,3:2|3:2,0:0:0:0:
191,319,71076,1,10,0:0:0:0:
73,107,71246,2,0,P|78:151|82:196,1,90,2|0,0:0|3:2,0:0:0:0:
284,336,71585,2,0,P|288:291|293:246,1,90,2|8,0:0|0:0,0:0:0:0:
38,305,71923,2,0,B|32:326|9:338|9:338|76:327|143:321,1,180,2|0,0:0|0:0,0:0:0:0:
278,231,72432,1,8,0:0:0:0:
188,133,72601,5,2,0:0:0:0:
290,333,72771,1,2,3:2:0:0:
294,91,72940,1,2,0:0:0:0:
189,307,73110,1,10,0:0:0:0:
417,180,73279,6,0,B|380:147|328:183|337:192|291:224|245:188,1,180,2|0,0:0|0:0,0:0:0:0:
53,217,73788,1,8,0:0:0:0:
169,59,73957,2,0,P|211:74|255:84,1,90,2|0,0:0|3:2,0:0:0:0:
374,284,74296,2,0,P|330:294|287:309,1,90,2|8,0:0|0:0,0:0:0:0:
418,23,74635,2,0,P|433:111|443:201,1,180,2|0,0:0|0:0,0:0:0:0:
260,328,75144,2,0,P|270:284|282:240,1,90,8|0,0:0|0:0,0:0:0:0:
302,220,75398,1,0,0:0:0:0:
302,220,75483,1,2,3:2:0:0:
149,87,75652,5,0,0:0:0:0:
149,87,75737,1,8,0:0:0:0:
149,87,75822,2,0,P|87:72|40:116,1,135,10|8,0:2|0:0,0:0:0:0:
48,146,76161,5,6,0:0:0:0:
177,217,76330,1,2,0:0:0:0:
59,277,76500,1,2,3:2:0:0:
194,179,76669,1,2,3:2:0:0:
194,179,76754,1,0,3:0:0:0:
194,179,76839,1,0,3:0:0:0:
140,330,77008,1,0,3:0:0:0:
91,153,77178,1,0,3:0:0:0:
243,304,77347,5,8,0:0:0:0:
35,238,77517,1,10,0:0:0:0:
276,160,77686,1,8,0:0:0:0:
173,360,77856,1,8,0:0:0:0:
261,128,78025,1,8,0:0:0:0:
261,128,78110,1,8,0:0:0:0:
261,128,78195,1,8,0:0:0:0:
308,315,78364,5,8,0:0:0:0:
231,111,78534,1,8,0:0:0:0:
178,341,78703,1,8,0:0:0:0:
373,139,78873,5,10,0:0:0:0:
116,247,79042,1,8,0:0:0:0:
384,253,79212,5,8,0:0:0:0:
102,134,79381,1,8,0:0:0:0:
402,127,79551,5,8,0:0:0:0:
90,256,79720,1,8,0:0:0:0:
416,265,79890,5,10,0:0:0:0:
72,123,80059,1,8,0:0:0:0:
72,123,80144,1,8,0:0:0:0:
72,123,80229,1,4,0:0:0:0:
72,123,81076,5,0,3:2:0:0:
67,141,81161,1,0,3:2:0:0:
63,159,81246,2,0,P|102:151|142:146,1,80.9999975280763,10|0,0:0|0:0,0:0:0:0:
190,155,81585,6,0,P|200:115|212:77,1,80.9999975280763,4|0,3:2|0:0,0:0:0:0:
113,282,81923,2,0,P|153:286|192:294,1,80.9999975280763,10|0,0:0|0:0,0:0:0:0:
375,268,82262,1,2,3:2:0:0:
263,186,82432,2,0,P|275:224|285:263,1,80.9999975280763,2|8,0:0|0:0,0:0:0:0:
442,97,82771,6,0,L|361:84,1,80.9999975280763,2|0,0:0|3:2,0:0:0:0:
183,198,83110,2,0,L|263:185,1,80.9999975280763,2|8,0:0|0:0,0:0:0:0:
362,0,83449,1,10,0:0:0:0:
362,0,83534,1,8,0:0:0:0:
362,0,83618,1,0,3:2:0:0:
276,168,83788,1,2,0:0:0:0:
146,33,83957,2,0,L|226:45,1,80.9999975280763,8|0,0:0|0:0,0:0:0:0:
21,188,84296,6,0,P|10:148|0:109,1,80.9999975280763,0|0,3:2|0:0,0:0:0:0:
188,120,84635,2,0,P|177:159|166:198,1,80.9999975280763,10|0,0:0|0:0,0:0:0:0:
51,343,84974,1,0,3:2:0:0:
233,297,85144,2,0,P|193:286|154:275,1,80.9999975280763,2|8,0:0|0:0,0:0:0:0:
362,384,85483,6,0,P|354:344|346:304,1,80.9999975280763,2|0,0:0|3:2,0:0:0:0:
489,178,85822,2,0,P|480:217|473:257,1,80.9999975280763,2|8,0:0|0:0,0:0:0:0:
336,149,86161,1,10,0:0:0:0:
336,149,86246,1,8,0:0:0:0:
336,149,86330,1,0,3:2:0:0:
454,75,86500,1,2,0:0:0:0:
322,190,86669,5,8,0:0:0:0:
293,194,86754,1,2,0:0:0:0:
264,189,86839,1,2,0:0:0:0:
238,176,86923,1,2,0:0:0:0:
219,153,87008,2,0,P|223:112|230:72,1,80.9999975280763,4|0,3:2|0:0,0:0:0:0:
382,0,87347,5,10,0:0:0:0:
205,58,87517,1,2,0:0:0:0:
393,162,87686,1,2,3:2:0:0:
282,0,87856,1,2,0:0:0:0:
297,193,88025,1,8,0:0:0:0:
461,0,88195,6,0,P|451:39|446:79,1,80.9999975280763,2|0,0:0|3:2,0:0:0:0:
291,206,88534,2,0,P|330:196|370:191,1,80.9999975280763,2|8,0:0|0:0,0:0:0:0:
219,73,88873,1,10,0:0:0:0:
219,73,88957,1,8,0:0:0:0:
219,73,89042,1,0,3:2:0:0:
148,240,89212,2,0,P|109:230|69:225,1,80.9999975280763,2|8,0:0|0:0,0:0:0:0:
308,116,89551,5,8,0:0:0:0:
308,116,89635,1,8,0:0:0:0:
308,116,89720,2,0,L|325:204,1,90,6|0,0:0|0:0,0:0:0:0:
105,351,90059,2,0,L|122:262,1,90,10|8,0:0|0:0,0:0:0:0:
148,240,90313,1,8,0:0:0:0:
148,240,90398,1,10,0:0:0:0:
350,384,90568,1,2,3:2:0:0:
273,44,90907,5,4,0:0:0:0:
256,192,91076,12,0,95144,0:0:0:0:
