osu file format v14

[General]
AudioFilename: audio.mp3
AudioLeadIn: 0
PreviewTime: 59042
Countdown: 0
SampleSet: Soft
StackLeniency: 0.7
Mode: 2
LetterboxInBreaks: 0
WidescreenStoryboard: 1

[Editor]
Bookmarks: 81585
DistanceSpacing: 1
BeatDivisor: 8
GridSize: 16
TimelineZoom: 1.6

[Metadata]
Title:SWEET x SWEET
TitleUnicode:SWEET×SWEET
Artist:KOTOKO
ArtistUnicode:KOTOKO
Creator:GIGACHAD
Version:Rain
Source:ネコぱらvol.4 ネコとパティシェのノエル
Tags:video game pop japanese nekopara volume four eroge visual novel catgirl nekomimi xiila -joakh -luminate lumi dako vn op opening NEKO WORKs Denpasoft Sekai Project Rei Kamiya Neko to Patissier no Noel female vocals negaigoto
BeatmapID:2716405
BeatmapSetID:1310422

[Difficulty]
HPDrainRate:5
CircleSize:4
OverallDifficulty:9
ApproachRate:9
SliderMultiplier:1.8
SliderTickRate:2

[Events]
//Background and Video events
0,0,"1109284.jpg",0,0
//Break Periods
//Storyboard Layer 0 (Background)
//Storyboard Layer 1 (Fail)
//Storyboard Layer 2 (Pass)
//Storyboard Layer 3 (Foreground)
//Storyboard Layer 4 (Overlay)
//Storyboard Sound Samples

[TimingPoints]
738,338.983050847458,4,2,1,40,1,0
738,-100,4,2,1,40,0,0
1585,338.983050847458,4,2,1,55,1,0
1585,-100,4,2,1,55,0,0
7008,-100,4,2,1,60,0,0
8364,-100,4,2,1,70,0,0
9720,-100,4,2,1,80,0,0
12432,-100,4,2,1,40,0,0
13110,-100,4,2,1,80,0,0
24635,-100,4,2,1,50,0,0
29890,-100,4,2,1,80,0,0
35483,-100,4,2,1,70,0,0
51754,-100,4,2,1,85,0,0
59720,-100,4,2,1,100,0,1
76161,-100,4,2,1,80,0,0
80229,-100,4,2,1,70,0,0
81585,-100,4,2,1,80,0,0
91415,-100,4,2,1,60,0,0
92432,-100,4,2,1,40,0,0
93449,-100,4,2,1,20,0,0
94466,-100,4,2,1,10,0,0
95144,-100,4,2,1,5,0,0

[Colours]
Combo1 : 168,174,198
Combo2 : 251,206,162
Combo3 : 248,214,135
Combo4 : 143,199,239
Combo5 : 250,61,141
Combo6 : 228,109,228

[HitObjects]
16,192,738,6,0,L|128:192,3,90,2|0|2|0,0:0|0:0|0:0|0:0,0:0:0:0:
192,192,1415,1,2,0:0:0:0:
432,192,1585,6,0,L|431:89,1,90,4|0,3:2|0:0,0:0:0:0:
336,96,1923,1,0,0:0:0:0:
176,144,2093,2,0,L|160:32,1,90,2|0,0:0|0:0,0:0:0:0:
336,336,2432,2,0,L|432:336,2,90,2|0|2,0:0|0:0|0:0,0:0:0:0:
96,320,2940,6,0,B|96:224|96:224|192:224,1,180,4|0,3:2|0:0,0:0:0:0:
320,224,3449,1,2,0:0:0:0:
416,192,3618,1,2,0:0:0:0:
464,112,3787,1,0,0:0:0:0:
400,32,3957,1,2,0:0:0:0:
496,32,4127,1,2,0:0:0:0:
256,224,4296,6,0,P|256:176|368:96,1,180,4|2,3:2|0:0,0:0:0:0:
432,96,4805,2,0,L|448:224,1,90,2|0,0:0|0:0,0:0:0:0:
288,256,5144,2,0,L|198:256,1,90,2|0,0:0|0:0,0:0:0:0:
96,256,5483,1,2,0:0:0:0:
336,224,5652,6,0,P|400:192|320:144,1,180,4|0,3:2|0:0,0:0:0:0:
112,160,6330,2,0,B|64:160|64:160|64:96,1,90,2|0,0:0|0:0,0:0:0:0:
144,112,6669,2,0,L|256:112,1,90,2|8,0:0|0:0,0:0:0:0:
464,160,7008,6,0,L|480:48,1,90,4|0,3:2|0:0,0:0:0:0:
384,64,7347,1,2,3:2:0:0:
240,304,7517,2,0,L|128:304,1,90,0|0,0:0|3:2,0:0:0:0:
240,240,7856,2,0,L|144:240,2,90,2|2|2,0:0|3:2|0:0,0:0:0:0:
480,240,8364,5,10,3:2:0:0:
480,240,8534,1,10,0:0:0:0:
320,176,8703,1,8,0:0:0:0:
160,176,8873,2,0,L|144:64,1,90,10|8,0:0|0:0,0:0:0:0:
240,80,9212,1,10,0:0:0:0:
336,80,9381,1,10,0:0:0:0:
160,304,9551,2,0,L|96:304,1,45,10|8,0:0|0:0,0:0:0:0:
272,304,9720,6,0,L|384:304,1,90,4|0,3:2|3:0,0:0:0:0:
368,240,10059,1,0,3:0:0:0:
128,208,10229,2,0,L|128:96,1,90,12|0,0:0|3:0,0:0:0:0:
48,112,10568,1,0,3:0:0:0:
304,96,10737,2,0,L|416:96,1,90,12|0,0:0|3:0,0:0:0:0:
352,32,10991,1,8,0:0:0:0:
160,304,11076,6,0,P|112:288|160:224,1,135,12|2,0:0|0:0,0:0:0:0:
240,224,11585,1,2,0:0:0:0:
96,176,11754,2,0,L|96:64,1,90,2|0,0:0|0:0,0:0:0:0:
192,80,12093,1,2,0:0:0:0:
32,320,12262,1,2,0:0:0:0:
192,320,12432,6,0,P|205:229|208:208,1,90,2|0,0:3|0:0,0:0:0:0:
368,272,12771,2,0,L|384:160,1,90,2|0,0:3|0:0,0:0:0:0:
144,176,13110,1,8,0:0:0:0:
96,160,13194,1,8,0:0:0:0:
96,112,13279,1,8,0:0:0:0:
144,80,13364,1,8,0:0:0:0:
304,96,13449,2,0,L|368:96,1,45,8|8,0:0|0:0,0:0:0:0:
176,320,13618,2,0,L|96:320,1,45,8|8,0:0|0:0,0:0:0:0:
304,272,13788,6,0,P|368:240|384:160,1,135,4|0,3:2|0:0,0:0:0:0:
280,176,14127,2,0,L|152:176,1,90,10|0,0:0|0:0,0:0:0:0:
336,112,14466,2,0,L|432:112,2,90,2|2|10,3:2|0:0|0:0,0:0:0:0:
96,304,14974,6,0,L|80:192,1,90,2|2,0:0|3:2,0:0:0:0:
240,304,15313,2,0,L|256:192,1,90,0|10,0:0|0:0,0:0:0:0:
112,160,15652,2,0,L|224:160,1,90,2|2,0:0|3:2,0:0:0:0:
352,160,15991,2,0,P|416:112|336:64,1,180,2|0,0:0|0:0,0:0:0:0:
112,320,16500,6,0,L|112:208,1,90,0|0,3:2|0:0,0:0:0:0:
256,224,16839,2,0,L|352:224,1,90,10|0,0:0|0:0,0:0:0:0:
192,176,17178,1,2,3:2:0:0:
288,176,17347,1,2,0:0:0:0:
384,176,17517,1,10,0:0:0:0:
144,144,17686,6,0,L|128:32,1,90,2|2,0:0|3:2,0:0:0:0:
288,144,18025,2,0,L|304:32,1,90,2|8,0:0|0:0,0:0:0:0:
144,336,18364,2,0,L|32:336,1,90,2|0,0:0|3:0,0:0:0:0:
208,272,18703,2,0,L|80:272,1,90,2|8,0:0|0:0,0:0:0:0:
272,224,19042,2,0,L|336:224,1,45,2|10,0:0|0:0,0:0:0:0:
160,208,19212,6,0,L|48:208,1,90,6|0,3:2|0:0,0:0:0:0:
224,192,19551,2,0,L|224:80,1,90,8|0,0:0|0:0,0:0:0:0:
64,112,19890,2,0,L|160:112,2,90,2|2|10,3:2|0:0|0:0,0:0:0:0:
304,112,20398,1,2,0:0:0:0:
416,336,20568,5,0,3:0:0:0:
496,288,20737,2,0,L|400:288,1,90,2|10,0:0|0:0,0:0:0:0:
256,352,21076,2,0,L|240:256,1,90,2|0,0:0|3:0,0:0:0:0:
400,208,21415,2,0,L|304:208,1,90,2|10,0:0|0:0,0:0:0:0:
304,144,21754,1,0,0:0:0:0:
64,96,21923,6,0,L|272:96,1,180,4|8,3:2|0:0,0:0:0:0:
160,32,22432,1,2,3:2:0:0:
320,304,22601,1,8,0:0:0:0:
160,320,22771,2,0,L|160:192,1,90,2|0,3:2|0:0,0:0:0:0:
224,224,23025,1,0,0:0:0:0:
400,208,23110,6,0,B|512:208|512:96|400:96|400:96|304:96|304:160|304:224|416:208,1,450,4|0,3:2|0:0,0:0:0:0:
480,304,24127,1,8,3:0:0:0:
304,336,24296,2,0,L|208:336,1,90,8|0,0:0|0:0,0:0:0:0:
272,272,24551,1,0,0:0:0:0:
464,256,24635,5,6,3:2:0:0:
464,160,24805,1,0,0:0:0:0:
304,160,24974,2,0,L|192:160,1,90,2|0,3:2|0:0,0:0:0:0:
304,112,25313,2,0,L|320:16,1,90,2|0,3:2|0:0,0:0:0:0:
160,288,25652,2,0,L|64:288,1,90,2|0,3:2|0:0,0:0:0:0:
304,256,25991,5,2,3:2:0:0:
384,256,26161,1,0,0:0:0:0:
240,208,26330,1,2,3:2:0:0:
240,208,26500,1,0,0:0:0:0:
336,144,26669,2,0,L|240:144,1,90,2|0,3:2|0:0,0:0:0:0:
80,208,27008,2,0,L|64:112,1,90,2|0,3:2|0:0,0:0:0:0:
304,96,27347,5,2,3:2:0:0:
304,96,27517,1,0,0:0:0:0:
208,32,27686,2,0,L|320:32,1,90,2|0,3:2|0:0,0:0:0:0:
448,320,28025,2,0,L|464:224,1,90,2|0,3:2|0:0,0:0:0:0:
304,224,28364,2,0,L|176:224,1,90,2|0,3:2|0:0,0:0:0:0:
448,144,28703,6,0,B|448:48|448:48|336:48,1,180,2|0,3:0|0:0,0:0:0:0:
192,48,29212,2,0,L|64:48,1,90,2|0,0:0|3:0,0:0:0:0:
96,96,29466,1,0,0:0:0:0:
160,96,29551,2,0,L|224:96,1,45,0|0,3:0|3:0,0:0:0:0:
112,208,29720,2,0,L|96:160,1,45,8|0,0:0|0:0,0:0:0:0:
288,224,29890,6,0,P|352:176|272:144,1,180,4|0,3:2|3:0,0:0:0:0:
64,336,30398,2,0,L|48:224,1,90,10|0,0:0|0:0,0:0:0:0:
208,256,30737,2,0,L|224:144,1,90,10|0,0:0|3:0,0:0:0:0:
384,256,31076,2,0,L|400:144,1,90,10|0,0:0|3:0,0:0:0:0:
160,112,31415,6,0,L|64:112,1,90,12|0,0:0|0:0,0:0:0:0:
224,304,31754,2,0,L|336:304,1,90,10|0,0:0|0:0,0:0:0:0:
160,64,32093,1,8,0:0:0:0:
320,64,32262,1,0,3:0:0:0:
480,64,32432,1,10,0:0:0:0:
240,304,32601,6,0,P|160:272|144:176,1,180,4|2,3:2|3:2,0:0:0:0:
384,192,33110,2,0,L|496:192,1,90,10|0,0:0|0:0,0:0:0:0:
320,208,33449,2,0,L|304:96,1,90,10|0,0:0|3:0,0:0:0:0:
464,112,33788,1,10,0:0:0:0:
224,80,33957,6,0,L|112:80,1,90,4|0,3:2|0:0,0:0:0:0:
288,304,34296,2,0,L|176:304,1,90,4|0,3:2|0:0,0:0:0:0:
352,256,34635,2,0,L|352:160,1,90,2|0,3:2|0:0,0:0:0:0:
192,176,34974,2,0,L|128:176,1,45,8|8,0:0|0:0,0:0:0:0:
320,96,35144,2,0,L|416:96,1,90,12|2,0:0|0:0,0:0:0:0:
368,48,35398,1,0,0:0:0:0:
208,64,35483,5,4,3:2:0:0:
112,64,35652,1,0,0:0:0:0:
272,256,35822,2,0,L|288:160,1,90,10|0,0:0|0:0,0:0:0:0:
128,176,36161,2,0,L|218:176,1,90,2|0,3:2|3:0,0:0:0:0:
368,112,36500,1,10,0:0:0:0:
384,48,36669,1,0,0:0:0:0:
112,304,36839,5,0,3:2:0:0:
96,224,37008,1,0,0:0:0:0:
256,224,37178,2,0,L|368:224,1,90,10|0,0:0|0:0,0:0:0:0:
192,192,37517,2,0,L|176:80,1,90,2|0,3:2|3:2,0:0:0:0:
336,48,37856,1,10,0:0:0:0:
176,48,38025,1,0,0:0:0:0:
416,352,38195,6,0,L|416:240,1,90,0|0,3:2|0:0,0:0:0:0:
256,288,38534,2,0,L|352:288,1,90,10|0,0:0|0:0,0:0:0:0:
192,240,38873,2,0,L|96:240,1,90,2|0,3:2|3:2,0:0:0:0:
256,192,39212,2,0,L|272:80,1,90,10|0,0:0|0:0,0:0:0:0:
32,176,39551,6,0,P|32:128|144:64,1,180,2|8,3:2|0:0,0:0:0:0:
288,64,40059,2,0,L|384:64,2,90,2|0|0,0:0|3:0|3:0,0:0:0:0:
192,64,40568,1,10,0:0:0:0:
64,64,40737,1,2,3:2:0:0:
320,336,40907,6,0,L|336:224,1,90,4|0,3:2|0:0,0:0:0:0:
176,256,41246,2,0,L|160:144,1,90,10|0,0:0|0:0,0:0:0:0:
320,144,41585,2,0,L|416:144,1,90,2|0,3:2|3:2,0:0:0:0:
432,80,41923,1,10,0:0:0:0:
304,80,42093,1,2,0:0:0:0:
64,288,42262,6,0,L|64:176,1,90,2|0,3:2|0:0,0:0:0:0:
208,192,42601,2,0,L|400:192,2,180,10|2|10,0:0|3:2|0:0,0:0:0:0:
208,192,43449,1,0,0:0:0:0:
448,352,43618,6,0,L|448:240,1,90,4|0,3:2|0:0,0:0:0:0:
352,256,43957,1,10,0:0:0:0:
192,256,44127,2,0,P|128:224|192:176,1,180,2|0,3:2|3:0,0:0:0:0:
288,176,44635,1,10,0:0:0:0:
32,304,44805,6,0,L|32:112,1,180,4|0,3:2|3:0,0:0:0:0:
272,112,45313,2,0,L|432:112,1,135,12|8,0:0|0:0,0:0:0:0:
240,320,45652,1,8,0:0:0:0:
184,272,45737,1,8,3:0:0:0:
240,240,45822,1,8,3:0:0:0:
296,224,45907,1,4,3:0:0:0:
400,208,45991,1,2,3:2:0:0:
448,256,46076,1,0,0:0:0:0:
448,320,46161,1,2,0:0:0:0:
392,320,46246,1,0,0:0:0:0:
224,160,46330,5,12,0:0:0:0:
128,160,46500,1,10,0:0:0:0:
32,160,46669,1,10,0:0:0:0:
192,80,46839,2,0,L|0:32,1,180,10|8,0:0|0:3,0:0:0:0:
416,304,47517,6,0,P|480:256|416:208,1,180,4|0,3:2|3:0,0:0:0:0:
272,192,48025,2,0,L|272:64,1,90,8|2,0:0|0:0,0:0:0:0:
432,96,48364,1,8,3:0:0:0:
464,48,48534,1,0,0:0:0:0:
368,48,48703,1,2,3:2:0:0:
464,160,48873,1,8,3:0:0:0:
224,336,49042,5,12,0:0:0:0:
136,288,49212,1,10,0:0:0:0:
224,272,49381,1,10,0:0:0:0:
384,272,49551,2,0,L|384:176,1,90,10|0,0:0|0:0,0:0:0:0:
224,176,49890,2,0,L|352:176,1,90,8|0,0:3|0:0,0:0:0:0:
80,176,50229,6,0,P|80:128|192:64,1,180,4|0,3:2|3:0,0:0:0:0:
336,144,50737,2,0,L|336:32,1,90,8|0,0:0|3:0,0:0:0:0:
208,240,51076,2,0,L|112:240,1,90,10|8,0:0|0:0,0:0:0:0:
272,240,51415,1,8,3:2:0:0:
320,240,51499,1,8,0:0:0:0:
336,208,51584,1,8,0:0:0:0:
280,168,51669,1,8,0:0:0:0:
128,160,51754,6,0,L|32:160,2,90,4|0|8,3:2|3:2|0:0,0:0:0:0:
368,80,52262,2,0,L|192:144,1,180,4|2,3:2|3:2,0:0:0:0:
192,256,52771,1,8,0:0:0:0:
432,320,52940,6,0,L|224:320,1,180,4|0,3:2|3:0,0:0:0:0:
400,224,53449,2,0,L|400:112,1,90,8|0,0:0|0:0,0:0:0:0:
240,144,53788,2,0,L|144:144,1,90,2|0,3:2|3:0,0:0:0:0:
304,80,54127,2,0,L|400:80,1,90,10|0,0:0|0:0,0:0:0:0:
160,320,54466,6,0,P|96:288|176:240,1,180,4|8,3:2|0:0,0:0:0:0:
304,240,54974,2,0,L|320:112,1,90,0|0,0:0|3:0,0:0:0:0:
224,144,55313,1,0,3:0:0:0:
368,96,55483,2,0,L|320:96,1,45,8|0,0:0|0:0,0:0:0:0:
272,96,55652,1,0,0:0:0:0:
112,272,55822,6,0,L|16:272,1,90,0|0,3:2|0:0,0:0:0:0:
176,224,56161,2,0,L|384:224,1,180,8|0,0:0|0:0,0:0:0:0:
272,160,56669,1,0,3:0:0:0:
112,160,56839,2,0,L|96:80,1,45,8|0,0:0|0:0,0:0:0:0:
288,112,57008,6,0,L|400:112,2,90,4|0|0,3:2|0:0|3:0,0:0:0:0:
128,320,57517,2,0,L|128:224,1,90,8|0,0:0|3:0,0:0:0:0:
288,224,57856,2,0,L|400:224,1,90,0|0,3:0|3:0,0:0:0:0:
224,176,58195,1,8,0:0:0:0:
464,192,58364,6,0,L|464:96,1,90,4|0,3:2|0:0,0:0:0:0:
224,128,58703,1,12,0:0:0:0:
464,128,58873,2,0,L|464:240,1,90,12|2,0:0|0:0,0:0:0:0:
304,320,59212,1,2,0:0:0:0:
248,320,59296,2,0,L|232:240,1,45,2|2,0:0|0:0,0:0:0:0:
304,256,59466,1,2,0:0:0:0:
416,256,59551,2,0,L|480:256,1,45,2|2,0:0|0:0,0:0:0:0:
288,192,59720,6,0,L|96:192,1,180,4|0,3:2|3:2,0:0:0:0:
176,144,60229,1,10,0:0:0:0:
32,320,60398,2,0,L|16:224,1,90,2|0,0:0|3:2,0:0:0:0:
176,96,60737,2,0,L|80:96,1,90,2|8,0:0|0:0,0:0:0:0:
320,336,61076,6,0,B|456:336|456:336|488:264,1,180,2|0,0:0|0:0,0:0:0:0:
320,272,61585,2,0,L|208:272,1,90,8|0,0:0|0:0,0:0:0:0:
384,224,61923,2,0,L|400:128,1,90,2|0,3:2|0:0,0:0:0:0:
304,128,62262,1,10,0:0:0:0:
64,176,62432,6,0,P|64:144|176:64,1,180,2|0,0:0|0:0,0:0:0:0:
256,64,62940,1,10,0:0:0:0:
112,288,63110,2,0,L|96:192,1,90,2|0,0:0|3:2,0:0:0:0:
256,192,63449,2,0,L|368:192,1,90,2|10,0:0|0:0,0:0:0:0:
112,144,63788,6,0,P|160:144|224:32,1,180,2|0,0:0|0:0,0:0:0:0:
64,336,64296,2,0,L|64:240,1,90,8|0,0:0|0:0,0:0:0:0:
304,288,64635,2,0,L|416:288,1,90,2|0,3:2|0:0,0:0:0:0:
240,256,64974,2,0,L|224:160,1,90,8|8,0:0|0:0,0:0:0:0:
288,160,65229,1,8,0:0:0:0:
464,144,65313,6,0,L|464:32,1,90,4|0,3:2|0:0,0:0:0:0:
368,64,65652,1,10,0:0:0:0:
208,144,65822,2,0,L|192:48,1,90,2|0,0:0|3:2,0:0:0:0:
288,48,66161,1,2,0:0:0:0:
128,288,66330,1,10,0:0:0:0:
32,288,66500,1,2,0:0:0:0:
272,304,66669,6,0,L|288:192,1,90,0|0,3:2|0:0,0:0:0:0:
128,208,67008,1,8,0:0:0:0:
288,160,67178,2,0,L|384:160,1,90,2|0,0:0|3:0,0:0:0:0:
224,144,67517,2,0,L|128:144,1,90,2|8,0:0|0:0,0:0:0:0:
240,64,67856,1,2,0:0:0:0:
480,288,68025,6,0,L|480:176,1,90,4|0,3:2|0:0,0:0:0:0:
320,224,68364,2,0,L|208:224,1,90,8|0,0:0|0:0,0:0:0:0:
272,176,68618,1,8,0:0:0:0:
368,176,68703,2,0,L|384:112,1,45,8|0,0:0|0:0,0:0:0:0:
208,144,68873,2,0,L|112:144,1,90,4|2,3:2|0:0,0:0:0:0:
400,336,69212,6,0,P|448:304|384:224,1,180,4|0,3:2|3:0,0:0:0:0:
336,224,69635,1,8,0:0:0:0:
240,224,69720,2,0,L|224:160,1,45,8|0,0:0|0:0,0:0:0:0:
400,160,69890,2,0,L|496:160,2,90,4|0|0,3:2|0:0|3:0,0:0:0:0:
448,112,70313,1,8,0:0:0:0:
496,112,70398,1,8,0:0:0:0:
256,160,70568,6,0,P|256:128|368:48,1,180,4|2,3:2|3:2,0:0:0:0:
224,336,71076,1,8,0:0:0:0:
64,336,71246,2,0,L|48:240,1,90,2|0,0:0|3:2,0:0:0:0:
208,208,71585,2,0,L|112:208,1,90,2|8,0:0|0:0,0:0:0:0:
368,208,71923,6,0,P|432:192|464:80,1,180,2|0,0:0|0:0,0:0:0:0:
304,96,72432,2,0,L|192:96,1,90,8|0,0:0|0:0,0:0:0:0:
384,288,72771,2,0,L|480:288,2,90,2|2|10,3:2|0:0|0:0,0:0:0:0:
144,288,73279,6,0,B|64:288|64:288|64:176,1,180,2|0,0:0|0:0,0:0:0:0:
160,160,73788,1,10,0:0:0:0:
304,176,73957,2,0,L|320:64,1,90,2|0,0:0|3:2,0:0:0:0:
160,64,74296,2,0,L|288:64,1,90,2|8,0:0|0:0,0:0:0:0:
496,320,74635,6,0,P|496:272|384:208,1,180,2|0,0:0|0:0,0:0:0:0:
240,304,75144,2,0,L|224:192,1,90,8|0,0:0|0:0,0:0:0:0:
384,144,75483,2,0,L|496:144,1,90,2|0,3:2|0:0,0:0:0:0:
432,96,75737,1,8,0:0:0:0:
272,144,75822,1,4,3:2:0:0:
208,144,75906,1,0,0:0:0:0:
176,96,75991,1,8,3:0:0:0:
160,48,76076,1,8,3:0:0:0:
336,48,76161,6,0,L|464:48,2,90,4|10|10,3:2|0:0|3:2,0:0:0:0:
176,224,76669,2,0,L|368:224,1,180,10|10,0:0|0:0,0:0:0:0:
208,352,77178,1,10,3:2:0:0:
464,176,77347,6,0,P|464:128|352:64,1,180,10|10,0:0|0:0,0:0:0:0:
208,64,77856,1,10,3:2:0:0:
368,336,78025,2,0,B|272:336|272:336|272:240,1,180,10|10,0:0|0:0,0:0:0:0:
416,256,78534,1,2,3:2:0:0:
160,176,78703,6,0,P|112:112|176:48,1,180,10|10,0:0|0:0,0:0:0:0:
320,208,79212,2,0,L|320:96,1,90,8|10,3:2|0:0,0:0:0:0:
176,304,79551,2,0,L|288:304,1,90,8|10,3:2|0:0,0:0:0:0:
416,304,79890,1,10,3:2:0:0:
464,256,79974,1,0,0:0:0:0:
464,192,80059,1,8,3:0:0:0:
408,176,80144,1,8,3:0:0:0:
224,224,80229,6,0,L|48:224,2,135,12|2|2,3:2|0:0|0:0,0:0:0:0:
384,224,80907,2,0,L|480:224,1,90,2|0,0:0|3:0,0:0:0:0:
416,80,81161,1,0,3:0:0:0:
256,80,81246,1,12,0:0:0:0:
208,80,81330,1,0,3:2:0:0:
256,80,81415,1,10,0:0:0:0:
304,80,81500,1,8,0:0:0:0:
160,280,81585,6,0,P|128:232|176:168,1,135,4|0,3:2|0:0,0:0:0:0:
272,176,81924,2,0,L|400:176,1,90,8|0,0:0|0:0,0:0:0:0:
208,112,82263,2,0,L|112:112,2,90,2|0|8,3:2|0:0|0:0,0:0:0:0:
448,304,82771,6,0,L|464:192,1,90,2|0,0:0|3:2,0:0:0:0:
304,304,83110,2,0,L|288:192,1,90,2|8,0:0|0:0,0:0:0:0:
432,160,83449,2,0,L|320:160,1,90,0|0,0:0|3:2,0:0:0:0:
192,160,83788,2,0,P|128:112|208:64,1,180,0|0,0:0|0:0,0:0:0:0:
448,320,84297,6,0,L|448:208,1,90,0|0,3:2|0:0,0:0:0:0:
288,224,84636,2,0,L|192:224,1,90,10|0,0:0|0:0,0:0:0:0:
352,176,84975,1,2,3:2:0:0:
256,176,85144,1,2,0:0:0:0:
160,176,85314,1,10,0:0:0:0:
400,144,85483,6,0,L|416:32,1,90,2|0,0:0|3:2,0:0:0:0:
256,144,85822,2,0,L|240:32,1,90,2|10,0:0|0:0,0:0:0:0:
400,336,86161,2,0,L|512:336,1,90,2|2,0:0|3:2,0:0:0:0:
336,272,86500,2,0,L|464:272,1,90,2|10,0:0|0:0,0:0:0:0:
272,224,86839,2,0,L|208:224,1,45,8|8,0:0|0:0,0:0:0:0:
384,208,87009,6,0,L|496:208,1,90,12|0,3:2|0:0,0:0:0:0:
320,192,87348,2,0,L|320:80,1,90,8|0,0:0|0:0,0:0:0:0:
480,112,87687,2,0,L|384:112,2,90,2|2|8,3:2|0:0|0:0,0:0:0:0:
240,112,88195,1,2,0:0:0:0:
128,336,88365,5,2,3:2:0:0:
272,280,88534,2,0,L|182:280,1,90,2|8,0:0|0:0,0:0:0:0:
336,200,88873,2,0,L|321:288,1,90,2|0,0:0|3:2,0:0:0:0:
160,208,89212,2,0,L|256:208,2,90,2|10|2,0:0|0:0|0:0,0:0:0:0:
416,96,89720,6,0,L|208:96,1,180,4|8,3:2|0:0,0:0:0:0:
384,32,90229,1,0,3:0:0:0:
448,32,90313,1,8,0:0:0:0:
384,32,90398,1,10,0:0:0:0:
144,320,90568,2,0,B|144:232|144:232|192:232,1,135,4|0,3:2|0:0,0:0:0:0:
400,224,90907,5,4,3:2:0:0:
256,192,91076,12,0,95144,0:0:0:0:
