osu file format v14

[General]
AudioFilename: audio.mp3
AudioLeadIn: 0
PreviewTime: 59042
Countdown: 0
SampleSet: Soft
StackLeniency: 0.7
Mode: 2
LetterboxInBreaks: 0
WidescreenStoryboard: 1

[Editor]
DistanceSpacing: 1.2
BeatDivisor: 4
GridSize: 8
TimelineZoom: 1.6

[Metadata]
Title:SWEET x SWEET
TitleUnicode:SWEET×SWEET
Artist:KOTOKO
ArtistUnicode:KOTOKO
Creator:GIGACHAD
Version:Lumi's Overdose
Source:ネコぱらvol.4 ネコとパティシェのノエル
Tags:video game pop japanese nekopara volume four eroge visual novel catgirl nekomimi xiila -joakh -luminate lumi dako vn op opening NEKO WORKs Denpasoft Sekai Project Rei Kamiya Neko to Patissier no Noel female vocals negaigoto
BeatmapID:2731878
BeatmapSetID:1310422

[Difficulty]
HPDrainRate:6
CircleSize:4.2
OverallDifficulty:9.4
ApproachRate:9.4
SliderMultiplier:2.3
SliderTickRate:2

[Events]
//Background and Video events
0,0,"1109284.jpg",0,0
//Break Periods
//Storyboard Layer 0 (Background)
//Storyboard Layer 1 (Fail)
//Storyboard Layer 2 (Pass)
//Storyboard Layer 3 (Foreground)
//Storyboard Layer 4 (Overlay)
//Storyboard Sound Samples

[TimingPoints]
738,338.983050847458,4,2,1,40,1,0
738,-100,4,2,1,40,0,0
1585,338.983050847458,4,2,1,60,1,0
1585,-100,4,2,1,60,0,0
7008,-100,4,2,1,70,0,0
9720,-100,4,2,1,80,0,0
12432,-100,4,2,1,40,0,0
13110,-100,4,2,1,80,0,0
14042,-100,4,2,1,5,0,0
14127,-100,4,2,1,80,0,0
16415,-100,4,2,1,5,0,0
16500,-100,4,2,1,80,0,0
23110,-100,4,2,1,80,0,0
23279,-100,4,2,1,5,0,0
23957,-100,4,2,1,5,0,0
24127,-100,4,2,1,50,0,0
25313,-100,4,2,1,50,0,0
29212,-100,4,2,1,60,0,0
29551,-100,4,2,1,60,0,0
29720,-100,4,2,1,80,0,0
35144,-100,4,2,1,80,0,0
35483,-100,4,2,1,70,0,0
48449,-100,4,2,1,20,0,0
48534,-100,4,2,1,70,0,0
51754,-100,4,2,1,85,0,0
59720,-100,4,2,1,100,0,1
81585,-100,4,2,1,80,0,0
89720,-100,4,2,1,80,0,0
91415,-100,4,2,1,60,0,0
92432,-100,4,2,1,40,0,0
93449,-100,4,2,1,20,0,0
94466,-100,4,2,1,10,0,0
95144,-100,4,2,1,5,0,0

[Colours]
Combo1 : 168,174,198
Combo2 : 251,206,162
Combo3 : 248,214,135
Combo4 : 143,199,239
Combo5 : 250,61,141
Combo6 : 228,109,228

[HitObjects]
160,336,738,5,2,0:0:0:0:
96,288,907,1,0,0:0:0:0:
72,216,1076,1,2,0:0:0:0:
104,144,1246,1,0,0:0:0:0:
256,144,1415,1,2,0:0:0:0:
408,256,1585,6,0,P|456:120|400:88,1,230,4|0,3:2|0:0,0:0:0:0:
328,120,2093,2,0,L|504:296,2,230,2|2|2,0:0|0:0|0:0,0:0:0:0:
152,304,2940,6,0,P|48:224|192:112,1,345,4|2,3:2|0:0,0:0:0:0:
216,304,3618,1,2,0:0:0:0:
112,264,3788,1,0,0:0:0:0:
112,176,3957,1,2,0:0:0:0:
216,136,4127,1,2,0:0:0:0:
392,256,4296,6,0,P|456:184|360:88,1,230,4|2,3:2|0:0,0:0:0:0:
296,208,4805,2,0,L|112:24,2,230,2|2|2,0:0|0:0|0:0,0:0:0:0:
120,368,5652,6,0,P|24:232|152:136,1,345,4|0,3:2|0:0,0:0:0:0:
240,208,6330,2,0,L|248:64,1,115,2|0,0:0|0:0,0:0:0:0:
135,135,6669,2,0,L|124:-12,1,115,2|8,0:0|0:0,0:0:0:0:
360,312,7008,5,4,3:2:0:0:
264,248,7178,1,0,0:0:0:0:
360,192,7347,1,2,3:2:0:0:
200,200,7517,2,0,L|192:72,1,115,0|0,0:0|3:2,0:0:0:0:
304,56,7856,1,2,0:0:0:0:
192,32,8025,1,2,3:2:0:0:
360,288,8195,6,0,P|384:232|352:176,1,115,2|10,0:0|3:2,0:0:0:0:
224,160,8534,1,10,0:0:0:0:
368,112,8703,1,8,0:0:0:0:
224,160,8873,2,0,P|200:88|256:72,1,115,10|8,0:0|0:0,0:0:0:0:
368,32,9212,1,10,0:0:0:0:
224,32,9381,1,10,0:0:0:0:
368,136,9551,2,0,L|448:136,1,57.5,10|8,0:0|0:0,0:0:0:0:
152,248,9720,6,0,L|16:248,1,115,4|0,3:2|3:0,0:0:0:0:
208,176,10059,1,0,3:0:0:0:
472,272,10229,2,0,L|320:272,1,115,12|0,0:0|3:0,0:0:0:0:
208,272,10568,1,0,3:0:0:0:
472,192,10737,2,0,L|480:64,1,115,12|0,0:0|3:0,0:0:0:0:
408,72,10991,1,8,0:0:0:0:
176,72,11076,5,12,0:0:0:0:
352,120,11330,1,2,0:0:0:0:
176,192,11585,1,2,0:0:0:0:
360,344,11754,2,0,L|368:216,1,115,2|0,0:0|0:0,0:0:0:0:
264,184,12093,1,2,0:0:0:0:
368,152,12262,1,2,0:0:0:0:
264,96,12432,5,2,0:3:0:0:
416,88,12771,1,2,0:3:0:0:
176,352,13110,2,0,L|168:264,1,57.5,8|8,0:0|0:0,0:0:0:0:
248,288,13279,2,0,L|256:216,1,57.5,8|8,0:0|0:0,0:0:0:0:
96,152,13449,2,0,L|8:152,1,57.5,8|8,0:0|0:0,0:0:0:0:
256,88,13618,2,0,L|328:88,1,57.5,8|8,0:0|0:0,0:0:0:0:
40,176,13788,6,0,L|32:296,1,115,4|0,3:2|0:0,0:0:0:0:
288,320,14127,2,0,L|448:320,1,115,10|0,0:0|0:0,0:0:0:0:
272,216,14466,1,2,3:2:0:0:
408,192,14635,2,0,L|416:64,1,115,2|10,0:0|0:0,0:0:0:0:
112,160,14974,6,0,L|104:16,1,115,2|2,0:0|3:2,0:0:0:0:
264,328,15313,2,0,L|272:176,1,115,0|10,0:0|0:0,0:0:0:0:
88,192,15652,2,0,L|184:192,1,57.5,2|0,0:0|0:0,0:0:0:0:
224,192,15822,2,0,L|392:192,1,115,2|2,3:2|0:0,0:0:0:0:
184,304,16161,2,0,L|48:304,1,115,10|0,0:0|0:0,0:0:0:0:
320,192,16500,5,0,3:2:0:0:
200,192,16669,1,0,0:0:0:0:
72,112,16839,2,0,L|192:112,1,115,10|0,0:0|0:0,0:0:0:0:
440,112,17178,1,2,3:2:0:0:
304,240,17347,2,0,L|456:240,1,115,2|10,0:0|0:0,0:0:0:0:
144,344,17686,6,0,L|136:208,1,115,2|2,0:0|3:2,0:0:0:0:
280,168,18025,2,0,L|152:168,1,115,2|8,0:0|0:0,0:0:0:0:
312,96,18364,2,0,L|320:16,1,57.5,2|0,0:0|0:0,0:0:0:0:
240,32,18534,2,0,L|104:32,1,115,0|2,3:0|0:0,0:0:0:0:
280,248,18873,2,0,L|352:248,1,57.5,8|2,0:0|0:0,0:0:0:0:
176,336,19042,2,0,L|104:336,1,57.5,2|10,0:0|0:0,0:0:0:0:
336,336,19212,6,0,L|488:336,1,115,6|0,3:2|0:0,0:0:0:0:
176,232,19551,2,0,L|168:88,1,115,8|0,0:0|0:0,0:0:0:0:
304,104,19890,1,2,3:2:0:0:
168,48,20059,2,0,L|288:48,1,115,2|10,0:0|0:0,0:0:0:0:
32,232,20398,6,0,L|176:232,1,115,2|0,0:0|3:0,0:0:0:0:
328,216,20737,2,0,L|336:72,1,115,2|10,0:0|0:0,0:0:0:0:
160,96,21076,2,0,L|72:96,1,57.5,2|8,0:0|0:0,0:0:0:0:
184,176,21246,2,0,L|320:176,1,115,0|2,3:0|0:0,0:0:0:0:
64,344,21585,2,0,L|56:200,1,115,10|0,0:0|0:0,0:0:0:0:
128,224,21839,1,0,0:0:0:0:
336,224,21923,6,0,L|504:224,1,115,4|0,3:2|0:0,0:0:0:0:
144,80,22262,2,0,L|16:80,1,115,8|2,0:0|3:2,0:0:0:0:
88,120,22517,1,0,3:0:0:0:
304,120,22601,1,8,0:0:0:0:
168,296,22771,2,0,P|120:240|200:184,1,172.5,2|0,3:2|0:0,0:0:0:0:
384,368,23110,6,0,B|480:296|472:168|368:88|264:128|184:232|272:368|544:288|496:72|392:16,1,690,4|8,3:2|3:0,0:0:0:0:
312,56,24212,1,0,0:0:0:0:
400,16,24296,2,0,L|400:160,1,115,8|0,0:0|0:0,0:0:0:0:
88,256,24635,5,6,3:2:0:0:
216,256,24805,2,0,L|328:168,2,115,0|2|0,0:0|3:2|0:0,0:0:0:0:
360,344,25313,2,0,L|368:208,1,115,2|0,3:2|0:0,0:0:0:0:
208,208,25652,2,0,L|72:208,1,115,2|0,3:2|0:0,0:0:0:0:
256,128,25991,5,2,3:2:0:0:
112,120,26161,2,0,L|0:32,2,115,0|2|0,0:0|3:2|0:0,0:0:0:0:
272,304,26669,2,0,L|280:160,1,115,2|0,3:2|0:0,0:0:0:0:
120,136,27008,2,0,L|248:136,1,115,2|0,3:2|0:0,0:0:0:0:
408,136,27347,5,2,3:2:0:0:
272,328,27517,2,0,L|128:248,2,115,0|2|0,0:0|3:2|0:0,0:0:0:0:
136,320,28025,2,0,L|128:160,1,115,2|0,3:2|0:0,0:0:0:0:
280,176,28364,2,0,L|400:176,1,115,2|0,3:2|0:0,0:0:0:0:
136,88,28703,5,2,3:0:0:0:
352,336,29212,2,0,L|360:264,1,57.5,2|0,0:0|0:0,0:0:0:0:
280,280,29381,2,0,L|272:200,1,57.5,0|0,3:0|0:0,0:0:0:0:
344,160,29551,2,0,L|256:160,1,57.5,0|0,3:0|3:0,0:0:0:0:
80,160,29720,1,8,0:0:0:0:
348,316,29890,6,0,P|404:196|308:164,1,230,4|0,3:2|3:0,0:0:0:0:
72,288,30398,2,0,L|240:288,1,115,10|0,0:0|0:0,0:0:0:0:
480,96,30737,2,0,L|352:96,1,115,10|0,0:0|3:0,0:0:0:0:
184,240,31076,2,0,L|176:96,1,115,10|0,0:0|3:0,0:0:0:0:
480,256,31415,5,12,0:0:0:0:
352,192,31585,1,0,0:0:0:0:
480,144,31754,1,10,0:0:0:0:
328,72,31923,2,0,L|200:72,1,115,0|8,0:0|0:0,0:0:0:0:
64,64,32262,1,0,3:0:0:0:
336,184,32432,1,10,0:0:0:0:
64,320,32601,6,0,P|-8:240|96:176,1,230,4|2,3:2|3:2,0:0:0:0:
344,152,33110,2,0,L|504:152,1,115,10|0,0:0|0:0,0:0:0:0:
176,48,33449,2,0,L|56:48,1,115,10|0,0:0|3:0,0:0:0:0:
344,224,33788,1,10,0:0:0:0:
64,288,33957,5,4,3:2:0:0:
312,304,34296,1,4,3:2:0:0:
64,288,34635,1,2,3:2:0:0:
368,304,34974,2,0,L|368:216,1,57.5,8|8,0:0|0:0,0:0:0:0:
224,192,35144,1,12,0:0:0:0:
368,120,35313,1,2,0:0:0:0:
80,192,35483,6,0,L|72:48,1,115,4|0,3:2|0:0,0:0:0:0:
144,64,35737,1,0,0:0:0:0:
73,77,35822,2,0,L|64:8,1,57.5,10|0,0:0|0:0,0:0:0:0:
144,192,35991,2,0,L|152:120,1,57.5,0|0,0:0|0:0,0:0:0:0:
72,128,36161,1,2,3:2:0:0:
264,128,36330,1,0,3:0:0:0:
72,280,36500,2,0,L|72:136,1,115,10|0,0:0|0:0,0:0:0:0:
392,328,36839,6,0,L|400:192,1,115,0|0,3:2|0:0,0:0:0:0:
336,200,37093,1,0,0:0:0:0:
264,192,37178,1,10,0:0:0:0:
400,144,37347,1,0,0:0:0:0:
256,192,37517,1,2,3:2:0:0:
232,136,37601,1,0,0:0:0:0:
256,72,37686,1,0,3:2:0:0:
496,224,37856,2,0,L|336:224,1,115,10|0,0:0|0:0,0:0:0:0:
312,224,38110,1,0,0:0:0:0:
88,288,38195,6,0,L|232:288,1,115,0|0,3:2|0:0,0:0:0:0:
360,224,38534,2,0,L|352:136,1,57.5,10|0,0:0|0:0,0:0:0:0:
272,160,38703,1,0,0:0:0:0:
416,80,38873,1,2,3:2:0:0:
272,32,39042,1,0,3:2:0:0:
448,336,39212,2,0,L|456:184,1,115,10|0,0:0|0:0,0:0:0:0:
104,256,39551,6,0,L|96:112,1,115,2|0,3:2|0:0,0:0:0:0:
264,128,39890,1,8,0:0:0:0:
32,296,40059,1,2,0:0:0:0:
176,288,40229,2,0,L|184:200,1,57.5,0|0,3:0|0:0,0:0:0:0:
104,224,40398,2,0,L|96:152,1,57.5,0|0,3:0|0:0,0:0:0:0:
272,128,40568,2,0,L|336:128,1,57.5,10|0,0:0|0:0,0:0:0:0:
152,32,40737,2,0,L|240:32,1,57.5,2|8,3:2|0:0,0:0:0:0:
424,336,40907,6,0,L|432:184,1,115,4|0,3:2|0:0,0:0:0:0:
120,272,41246,2,0,L|112:136,1,115,10|0,0:0|0:0,0:0:0:0:
280,88,41585,1,2,3:2:0:0:
112,48,41754,1,0,3:2:0:0:
360,48,41923,1,10,0:0:0:0:
120,336,42093,1,2,0:0:0:0:
256,336,42262,6,0,L|376:336,1,115,2|0,3:2|0:0,0:0:0:0:
248,264,42601,1,10,0:0:0:0:
192,232,42686,1,0,0:0:0:0:
176,168,42771,1,0,0:0:0:0:
200,112,42856,1,0,0:0:0:0:
264,96,42940,1,2,3:2:0:0:
104,96,43110,1,0,3:2:0:0:
272,304,43279,2,0,L|416:304,1,115,10|0,0:0|0:0,0:0:0:0:
64,240,43618,6,0,L|48:80,1,115,4|0,3:2|0:0,0:0:0:0:
344,224,43957,1,10,0:0:0:0:
224,208,44127,2,0,L|216:128,1,57.5,2|8,3:2|0:0,0:0:0:0:
296,136,44296,2,0,L|288:64,1,57.5,0|0,3:2|0:0,0:0:0:0:
208,72,44466,2,0,L|144:64,1,57.5,0|0,3:0|0:0,0:0:0:0:
328,24,44635,1,10,0:0:0:0:
96,304,44805,6,0,L|352:304,1,230,4|0,3:2|3:0,0:0:0:0:
96,184,45313,2,0,L|104:96,1,57.5,12|0,0:0|0:0,0:0:0:0:
304,128,45483,2,0,L|376:128,1,57.5,0|8,3:0|0:0,0:0:0:0:
216,80,45652,1,8,0:0:0:0:
360,32,45737,1,8,3:0:0:0:
304,32,45822,1,8,3:0:0:0:
160,32,45907,1,4,3:0:0:0:
104,32,45991,1,2,3:2:0:0:
392,144,46161,1,2,0:0:0:0:
160,296,46330,5,12,0:0:0:0:
304,256,46500,1,10,0:0:0:0:
24,192,46669,1,10,0:0:0:0:
304,256,46839,2,0,L|312:128,1,115,10|0,0:0|0:0,0:0:0:0:
24,192,47178,2,0,L|16:64,1,115,8|0,0:3|0:0,0:0:0:0:
280,360,47517,6,0,L|504:296,1,230,4|0,3:2|3:0,0:0:0:0:
424,288,47940,1,0,0:0:0:0:
208,184,48025,1,8,0:0:0:0:
336,96,48195,2,0,L|400:96,1,57.5,2|0,0:0|0:0,0:0:0:0:
208,40,48364,1,8,3:0:0:0:
392,280,48618,1,8,3:0:0:0:
328,240,48703,2,0,L|480:240,1,115,2|8,3:2|3:0,0:0:0:0:
72,168,49042,5,12,0:0:0:0:
328,104,49212,1,10,0:0:0:0:
176,64,49381,1,10,0:0:0:0:
432,192,49551,1,10,0:0:0:0:
128,320,49890,2,0,L|120:176,1,115,8|0,0:3|0:0,0:0:0:0:
424,192,50229,6,0,L|184:192,1,230,4|0,3:2|3:0,0:0:0:0:
360,344,50737,2,0,L|368:208,1,115,8|0,0:0|3:0,0:0:0:0:
288,224,50991,1,0,3:0:0:0:
112,128,51076,2,0,L|240:128,1,115,10|8,0:0|0:0,0:0:0:0:
376,112,51330,1,8,0:0:0:0:
232,264,51415,2,0,L|152:272,1,57.5,8|8,3:2|0:0,0:0:0:0:
384,336,51585,2,0,L|296:328,1,57.5,8|8,0:0|0:0,0:0:0:0:
160,208,51754,5,4,3:2:0:0:
328,208,51923,2,0,L|496:208,1,115,0|8,3:2|0:0,0:0:0:0:
169,345,52262,2,0,P|97:273|185:209,1,230,4|2,3:2|3:2,0:0:0:0:
440,120,52771,1,8,0:0:0:0:
176,120,52940,6,0,P|64:160|32:280,1,230,4|0,3:2|3:0,0:0:0:0:
184,296,53449,2,0,L|312:296,1,115,8|0,0:0|0:0,0:0:0:0:
160,344,53788,2,0,L|24:344,1,115,2|0,3:2|3:0,0:0:0:0:
328,144,54127,2,0,L|480:144,1,115,10|0,0:0|0:0,0:0:0:0:
168,320,54466,5,4,3:2:0:0:
72,272,54635,1,0,0:0:0:0:
40,176,54805,1,8,0:0:0:0:
72,72,54974,1,0,0:0:0:0:
192,40,55144,1,0,3:0:0:0:
336,112,55313,1,0,3:0:0:0:
192,144,55483,1,8,0:0:0:0:
344,224,55652,2,0,L|240:224,1,57.5,0|2,0:0|0:0,0:0:0:0:
104,288,55822,6,0,L|248:288,1,115,0|0,3:2|0:0,0:0:0:0:
368,280,56161,1,8,0:0:0:0:
224,240,56330,2,0,P|160:144|248:96,1,230,0|0,0:0|3:0,0:0:0:0:
376,88,56839,1,8,0:0:0:0:
104,112,57008,1,4,3:2:0:0:
368,264,57178,6,0,L|520:264,1,115,0|0,0:0|3:0,0:0:0:0:
208,320,57517,2,0,L|72:320,1,115,8|0,0:0|3:0,0:0:0:0:
176,264,57771,1,8,0:0:0:0:
96,216,57856,2,0,L|224:216,1,115,0|0,3:0|3:0,0:0:0:0:
480,128,58195,1,8,0:0:0:0:
208,56,58364,1,4,3:2:0:0:
424,56,58703,5,12,0:0:0:0:
144,184,58873,1,12,0:0:0:0:
304,184,59042,1,2,0:0:0:0:
144,160,59212,2,0,L|136:88,1,57.5,2|2,0:0|0:0,0:0:0:0:
216,88,59381,2,0,L|224:24,1,57.5,2|2,0:0|0:0,0:0:0:0:
80,280,59551,2,0,L|8:280,1,57.5,2|2,0:0|0:0,0:0:0:0:
240,336,59720,6,0,L|512:336,1,230,4|0,3:2|3:2,0:0:0:0:
336,256,60229,1,10,0:0:0:0:
472,184,60398,2,0,L|344:184,1,115,2|0,0:0|3:2,0:0:0:0:
80,104,60737,2,0,L|232:104,1,115,2|8,0:0|0:0,0:0:0:0:
448,96,61076,5,2,0:0:0:0:
200,312,61246,2,0,L|72:312,1,115,2|0,3:2|0:0,0:0:0:0:
344,192,61585,1,8,0:0:0:0:
472,144,61754,1,0,0:0:0:0:
408,112,61839,1,0,0:0:0:0:
344,88,61923,1,2,3:2:0:0:
192,48,62093,1,0,0:0:0:0:
344,16,62262,1,10,0:0:0:0:
96,352,62432,6,0,P|32:256|112:200,1,230,2|0,0:0|0:0,0:0:0:0:
272,184,62940,1,10,0:0:0:0:
112,160,63110,2,0,L|232:160,1,115,2|0,0:0|3:2,0:0:0:0:
480,64,63449,2,0,L|328:64,1,115,2|10,0:0|0:0,0:0:0:0:
128,272,63788,5,2,0:0:0:0:
272,272,63957,2,0,L|400:272,1,115,2|0,3:2|0:0,0:0:0:0:
256,184,64296,2,0,L|136:184,1,115,8|0,0:0|0:0,0:0:0:0:
224,128,64551,1,8,0:0:0:0:
136,128,64635,2,0,L|128:0,1,115,2|0,3:2|0:0,0:0:0:0:
376,352,64974,2,0,L|384:200,1,115,8|8,0:0|0:0,0:0:0:0:
200,224,65229,1,8,0:0:0:0:
384,192,65313,6,0,L|512:192,1,115,4|0,3:2|0:0,0:0:0:0:
216,64,65652,1,10,0:0:0:0:
352,160,65822,2,0,L|208:160,1,115,2|0,0:0|3:2,0:0:0:0:
72,168,66161,1,2,0:0:0:0:
240,240,66330,1,10,0:0:0:0:
72,280,66500,1,2,0:0:0:0:
448,336,66669,6,0,L|456:168,1,115,0|0,3:2|0:0,0:0:0:0:
312,216,67008,1,8,0:0:0:0:
456,136,67178,1,2,0:0:0:0:
392,136,67262,1,0,0:0:0:0:
328,136,67347,1,0,3:0:0:0:
56,72,67517,2,0,L|171:72,1,115,2|8,0:0|0:0,0:0:0:0:
424,72,67856,2,0,L|512:72,1,57.5,2|0,0:0|0:0,0:0:0:0:
176,280,68025,6,0,L|32:280,1,115,4|0,3:2|0:0,0:0:0:0:
376,192,68364,1,8,0:0:0:0:
200,128,68618,1,8,0:0:0:0:
376,128,68703,1,8,0:0:0:0:
240,200,68873,1,4,3:2:0:0:
376,280,69042,1,2,0:0:0:0:
80,320,69212,6,0,P|8:232|120:192,1,230,4|0,3:2|3:0,0:0:0:0:
240,160,69635,1,8,0:0:0:0:
168,160,69720,1,8,0:0:0:0:
440,320,69890,1,4,3:2:0:0:
312,256,70059,1,0,0:0:0:0:
440,184,70229,1,0,3:0:0:0:
368,168,70313,1,8,0:0:0:0:
160,144,70398,1,8,0:0:0:0:
440,184,70568,6,0,P|496:104|400:24,1,230,4|2,3:2|3:2,0:0:0:0:
240,48,71076,1,8,0:0:0:0:
416,328,71246,2,0,L|432:184,1,115,2|0,0:0|3:2,0:0:0:0:
168,176,71585,2,0,L|32:176,1,115,2|8,0:0|0:0,0:0:0:0:
360,272,71923,5,2,0:0:0:0:
216,272,72093,2,0,L|208:112,1,115,0|0,3:2|0:0,0:0:0:0:
464,72,72432,2,0,L|320:72,1,115,8|0,0:0|0:0,0:0:0:0:
408,120,72686,1,0,0:0:0:0:
472,152,72771,1,2,3:2:0:0:
320,216,72940,1,2,0:0:0:0:
472,288,73110,1,10,0:0:0:0:
120,296,73279,6,0,L|392:280,1,230,2|0,0:0|0:0,0:0:0:0:
120,208,73788,1,10,0:0:0:0:
352,192,73957,2,0,L|360:64,1,115,2|0,0:0|3:2,0:0:0:0:
32,144,74296,2,0,L|192:144,1,115,2|8,0:0|0:0,0:0:0:0:
440,152,74635,5,2,0:0:0:0:
288,232,74805,2,0,L|144:232,1,115,0|0,3:2|0:0,0:0:0:0:
328,352,75144,2,0,L|480:352,1,115,8|0,0:0|0:0,0:0:0:0:
368,288,75398,1,8,0:0:0:0:
448,224,75483,2,0,L|304:224,1,115,2|0,3:2|0:0,0:0:0:0:
176,168,75737,1,8,0:0:0:0:
336,128,75822,2,0,L|472:128,1,115,4|8,3:2|3:0,0:0:0:0:
400,80,76076,1,8,3:0:0:0:
160,64,76161,5,4,3:2:0:0:
304,104,76330,1,10,0:0:0:0:
152,160,76500,1,10,3:2:0:0:
432,296,76669,2,0,L|440:224,1,57.5,10|0,0:0|0:0,0:0:0:0:
288,240,76839,1,2,3:2:0:0:
432,208,77008,1,10,0:0:0:0:
376,192,77093,1,8,0:0:0:0:
224,152,77178,1,10,3:2:0:0:
376,88,77347,1,10,0:0:0:0:
88,72,77517,5,6,3:2:0:0:
232,40,77686,2,0,L|296:40,1,57.5,10|8,0:0|0:0,0:0:0:0:
464,256,77856,1,10,3:2:0:0:
144,336,78025,2,0,L|56:336,1,57.5,10|8,0:0|0:0,0:0:0:0:
288,272,78195,1,2,3:2:0:0:
168,216,78364,2,0,L|256:216,1,57.5,10|8,0:0|0:0,0:0:0:0:
408,152,78534,1,2,3:2:0:0:
144,56,78703,1,10,0:0:0:0:
440,64,78873,5,4,3:2:0:0:
192,112,79042,2,0,L|184:192,1,57.5,10|8,0:0|0:0,0:0:0:0:
344,200,79212,1,8,3:2:0:0:
88,240,79381,2,0,L|8:240,1,57.5,10|8,0:0|0:0,0:0:0:0:
248,344,79551,1,8,3:2:0:0:
400,264,79720,2,0,L|472:264,1,57.5,10|8,0:0|0:0,0:0:0:0:
304,160,79890,1,10,3:2:0:0:
152,128,79974,1,0,0:0:0:0:
304,80,80059,1,8,3:0:0:0:
304,24,80144,1,8,3:0:0:0:
144,48,80229,5,12,3:2:0:0:
312,112,80483,1,2,0:0:0:0:
144,208,80737,1,2,0:0:0:0:
304,304,80907,2,0,L|448:304,1,115,2|0,0:0|3:0,0:0:0:0:
264,240,81161,1,0,3:0:0:0:
416,176,81246,2,0,L|312:176,1,57.5,12|0,0:0|3:2,0:0:0:0:
200,176,81415,2,0,L|112:176,1,57.5,10|8,0:0|0:0,0:0:0:0:
416,176,81585,6,0,L|424:296,1,115,4|0,3:2|0:0,0:0:0:0:
96,336,81924,2,0,L|104:168,1,115,8|0,0:0|0:0,0:0:0:0:
256,200,82263,1,2,3:2:0:0:
104,192,82432,2,0,L|96:64,1,115,0|8,0:0|0:0,0:0:0:0:
400,160,82771,6,0,L|408:16,1,115,2|0,0:0|3:2,0:0:0:0:
248,328,83110,2,0,L|240:176,1,115,2|8,0:0|0:0,0:0:0:0:
424,192,83449,2,0,L|328:192,1,57.5,0|8,0:0|0:0,0:0:0:0:
288,192,83619,2,0,L|120:192,1,115,0|0,3:2|0:0,0:0:0:0:
328,304,83958,2,0,L|464:304,1,115,10|0,0:0|0:0,0:0:0:0:
173,192,84297,5,0,3:2:0:0:
336,136,84466,1,0,0:0:0:0:
176,104,84636,2,0,L|56:104,1,115,10|0,0:0|0:0,0:0:0:0:
216,168,84975,1,2,3:2:0:0:
48,176,85144,2,0,L|40:304,1,115,2|10,0:0|0:0,0:0:0:0:
368,344,85483,6,0,L|376:208,1,115,2|0,0:0|3:2,0:0:0:0:
120,184,85822,2,0,L|248:184,1,115,2|10,0:0|0:0,0:0:0:0:
112,96,86161,2,0,L|104:16,1,57.5,2|8,0:0|0:0,0:0:0:0:
272,32,86331,2,0,L|408:32,1,115,2|2,3:2|0:0,0:0:0:0:
232,248,86670,2,0,L|160:248,1,57.5,10|0,0:0|0:0,0:0:0:0:
336,336,86839,2,0,L|408:336,1,57.5,8|8,0:0|0:0,0:0:0:0:
176,336,87009,6,0,L|24:336,1,115,12|0,3:2|0:0,0:0:0:0:
336,232,87348,2,0,L|344:88,1,115,8|0,0:0|0:0,0:0:0:0:
184,96,87687,1,2,3:2:0:0:
344,48,87856,2,0,L|224:48,1,115,2|8,0:0|0:0,0:0:0:0:
480,232,88195,6,0,L|336:232,1,115,2|2,0:0|3:2,0:0:0:0:
184,216,88534,2,0,L|176:72,1,115,2|8,0:0|0:0,0:0:0:0:
352,96,88873,2,0,L|440:96,1,57.5,2|8,0:0|0:0,0:0:0:0:
328,176,89043,2,0,L|192:176,1,115,0|2,3:2|0:0,0:0:0:0:
448,344,89382,2,0,L|456:200,1,115,10|2,0:0|0:0,0:0:0:0:
384,224,89636,1,8,0:0:0:0:
176,224,89720,6,0,L|8:224,1,115,4|0,3:2|0:0,0:0:0:0:
368,80,90059,2,0,L|496:80,1,115,8|0,0:0|3:0,0:0:0:0:
328,120,90314,1,8,0:0:0:0:
184,120,90398,1,10,0:0:0:0:
424,176,90568,1,4,3:2:0:0:
136,224,90907,5,4,3:2:0:0:
256,192,91076,12,0,95144,0:0:0:0:
