osu file format v14

[General]
AudioFilename: audio.mp3
AudioLeadIn: 0
PreviewTime: 59042
Countdown: 0
SampleSet: Soft
StackLeniency: 0.7
Mode: 2
LetterboxInBreaks: 0
WidescreenStoryboard: 0

[Editor]
Bookmarks: 54466,81585
DistanceSpacing: 1.2
BeatDivisor: 2
GridSize: 16
TimelineZoom: 1.5

[Metadata]
Title:SWEET x SWEET
TitleUnicode:SWEET×SWEET
Artist:KOTOKO
ArtistUnicode:KOTOKO
Creator:GIGACHAD
Version:Cup
Source:ネコぱらvol.4 ネコとパティシェのノエル
Tags:video game pop japanese nekopara volume four eroge visual novel catgirl nekomimi xiila -joakh -luminate lumi dako vn op opening NEKO WORKs Denpasoft Sekai Project Rei Kamiya Neko to Patissier no Noel female vocals negaigoto
BeatmapID:2716404
BeatmapSetID:1310422

[Difficulty]
HPDrainRate:2
CircleSize:2.5
OverallDifficulty:6
ApproachRate:6
SliderMultiplier:1.2
SliderTickRate:1

[Events]
//Background and Video events
0,0,"1109284.jpg",0,0
//Break Periods
//Storyboard Layer 0 (Background)
//Storyboard Layer 1 (Fail)
//Storyboard Layer 2 (Pass)
//Storyboard Layer 3 (Foreground)
//Storyboard Layer 4 (Overlay)
//Storyboard Sound Samples

[TimingPoints]
738,338.983050847458,4,2,1,40,1,0
738,-100,4,2,1,40,0,0
1585,338.983050847458,4,2,1,55,1,0
1585,-100,4,2,1,55,0,0
7008,-100,4,2,1,60,0,0
8364,-100,4,2,1,70,0,0
9720,-100,4,2,1,80,0,0
12432,-100,4,2,1,40,0,0
13110,-100,4,2,1,80,0,0
24635,-100,4,2,1,50,0,0
29890,-100,4,2,1,80,0,0
35483,-100,4,2,1,70,0,0
51754,-100,4,2,1,85,0,0
59720,-100,4,2,1,100,0,1
76161,-100,4,2,1,80,0,0
80229,-100,4,2,1,70,0,0
81585,-100,4,2,1,80,0,0
91415,-100,4,2,1,60,0,0
92432,-100,4,2,1,40,0,0
93449,-100,4,2,1,20,0,0
94466,-100,4,2,1,10,0,0
95144,-100,4,2,1,5,0,0

[Colours]
Combo1 : 168,174,198
Combo2 : 251,206,162
Combo3 : 248,214,135
Combo4 : 143,199,239
Combo5 : 250,61,141
Combo6 : 228,109,228

[HitObjects]
256,224,738,6,0,P|192:176|256:112,1,180,2|0,0:0|0:0,0:0:0:0:
304,128,1415,1,2,0:0:0:0:
384,320,1585,5,4,3:2:0:0:
272,320,2093,1,2,0:0:0:0:
160,320,2432,2,0,L|160:160,1,120,2|2,0:0|0:0,0:0:0:0:
240,192,2940,5,4,3:2:0:0:
384,320,3449,2,0,P|416:272|368:224,1,120,2|0,0:0|0:0,0:0:0:0:
320,224,3957,1,2,0:0:0:0:
160,352,4296,5,4,3:2:0:0:
288,144,4635,2,0,L|348:144,1,60,2|2,0:0|0:0,0:0:0:0:
224,240,5144,2,0,B|176:208|176:208|176:96,1,120,2|2,0:0|0:0,0:0:0:0:
256,240,5652,5,4,3:2:0:0:
176,320,6330,1,2,0:0:0:0:
48,320,6668,1,2,0:0:0:0:
208,240,7008,6,0,L|352:240,1,120,4|2,3:2|3:2,0:0:0:0:
336,176,7517,1,0,0:0:0:0:
224,176,7856,2,0,L|224:96,1,60,2|2,0:0|3:2,0:0:0:0:
288,112,8195,1,2,0:0:0:0:
432,240,8534,5,10,0:0:0:0:
368,240,8703,1,8,0:0:0:0:
304,240,8873,1,10,0:0:0:0:
192,240,9212,2,0,L|112:240,1,60,10|10,0:0|0:0,0:0:0:0:
128,192,9551,1,10,0:0:0:0:
224,128,9720,5,4,3:2:0:0:
48,336,10229,1,12,0:0:0:0:
224,336,10737,1,12,0:0:0:0:
96,208,11076,6,0,P|32:176|112:64,1,240,12|2,0:0|0:0,0:0:0:0:
192,96,12432,5,2,0:3:0:0:
320,96,12771,1,2,0:3:0:0:
192,304,13110,1,8,0:0:0:0:
128,304,13279,1,8,0:0:0:0:
128,240,13448,1,8,0:0:0:0:
192,240,13618,1,8,0:0:0:0:
288,144,13788,5,4,3:2:0:0:
288,352,14127,1,10,0:0:0:0:
160,352,14466,2,0,L|160:256,1,60,2|2,3:2|0:0,0:0:0:0:
320,320,14974,6,0,L|320:160,1,120,2|0,0:0|0:0,0:0:0:0:
208,192,15652,1,2,0:0:0:0:
320,144,15991,2,0,L|320:80,1,60,2|10,0:0|0:0,0:0:0:0:
176,80,16500,5,0,3:2:0:0:
64,80,16839,1,10,0:0:0:0:
176,208,17178,2,0,L|256:208,1,60,2|2,3:2|0:0,0:0:0:0:
352,208,17686,1,2,0:0:0:0:
192,128,18025,5,2,0:0:0:0:
64,128,18364,1,2,0:0:0:0:
192,256,18703,2,0,L|288:256,2,60,2|8|2,0:0|0:0|0:0,0:0:0:0:
96,256,19212,5,6,3:2:0:0:
208,192,19551,1,8,0:0:0:0:
320,112,19890,2,0,L|240:112,1,60,2|2,3:2|0:0,0:0:0:0:
112,48,20398,6,0,L|256:48,1,120,2|2,0:0|0:0,0:0:0:0:
336,208,21076,2,0,L|336:80,1,120,2|2,0:0|0:0,0:0:0:0:
256,208,21585,1,10,0:0:0:0:
112,320,21923,6,0,L|256:320,1,120,4|8,3:2|0:0,0:0:0:0:
112,256,22601,2,0,L|112:176,1,60,8|2,0:0|3:2,0:0:0:0:
288,192,23110,5,4,3:2:0:0:
256,192,23449,12,8,24296,0:0:0:0:
256,192,24635,5,6,3:2:0:0:
192,176,24805,2,0,P|176:112|208:32,1,120,0|0,0:0|0:0,0:0:0:0:
256,64,25313,1,2,3:2:0:0:
128,64,25652,1,2,3:2:0:0:
272,192,25991,5,2,3:2:0:0:
336,192,26161,2,0,L|480:192,1,120,0|0,0:0|0:0,0:0:0:0:
400,128,26669,1,2,3:2:0:0:
272,128,27008,1,2,3:2:0:0:
128,128,27347,5,2,3:2:0:0:
72,129,27517,1,0,0:0:0:0:
16,240,27686,2,0,L|16:96,1,120,2|2,3:2|3:2,0:0:0:0:
128,240,28364,1,2,3:2:0:0:
272,240,28703,5,2,3:0:0:0:
384,208,29042,2,0,L|384:128,1,60,0|2,0:0|0:0,0:0:0:0:
272,112,29720,1,8,0:0:0:0:
176,48,29890,6,0,L|320:48,1,120,4|0,3:2|3:0,0:0:0:0:
368,256,30398,1,10,0:0:0:0:
240,256,30737,1,10,0:0:0:0:
368,192,31076,1,10,0:0:0:0:
224,112,31415,5,12,0:0:0:0:
112,128,31754,1,10,0:0:0:0:
0,128,32093,2,0,L|0:272,1,120,8|10,0:0|0:0,0:0:0:0:
112,240,32601,6,0,L|256:240,1,120,4|2,3:2|3:2,0:0:0:0:
288,240,33110,1,10,0:0:0:0:
176,176,33449,1,10,0:0:0:0:
288,176,33788,1,10,0:0:0:0:
208,160,33957,6,0,L|48:160,1,120,4|4,3:2|3:2,0:0:0:0:
208,288,34635,1,2,3:2:0:0:
320,288,34974,1,8,0:0:0:0:
400,288,35144,1,12,0:0:0:0:
240,224,35483,5,4,3:2:0:0:
352,224,35822,2,0,L|352:64,1,120,10|2,0:0|3:2,0:0:0:0:
208,336,36500,6,0,L|352:336,1,120,10|0,0:0|3:2,0:0:0:0:
432,336,37178,1,10,0:0:0:0:
336,208,37517,1,2,3:2:0:0:
192,208,37856,6,0,L|48:208,1,120,10|0,0:0|3:2,0:0:0:0:
192,128,38534,2,0,L|336:128,2,120,10|2|10,0:0|3:2|0:0,0:0:0:0:
336,256,39551,5,2,3:2:0:0:
448,256,39890,1,8,0:0:0:0:
448,176,40059,1,2,0:0:0:0:
256,176,40568,1,10,0:0:0:0:
336,176,40737,1,2,3:2:0:0:
416,80,40907,6,0,L|256:80,1,120,4|10,3:2|0:0,0:0:0:0:
192,320,41585,2,0,L|192:160,1,120,2|10,3:2|0:0,0:0:0:0:
256,192,42093,1,2,0:0:0:0:
352,192,42262,5,2,3:2:0:0:
240,112,42601,1,10,0:0:0:0:
128,144,42940,2,0,L|128:320,1,120,2|10,3:2|0:0,0:0:0:0:
272,272,43618,6,0,P|304:224|256:192,1,120,4|10,3:2|0:0,0:0:0:0:
192,192,44127,2,0,P|144:128|224:64,1,180,2|10,3:2|0:0,0:0:0:0:
304,64,44805,1,4,3:2:0:0:
304,64,45144,5,0,3:0:0:0:
208,256,45313,1,12,0:0:0:0:
336,256,45652,1,8,0:0:0:0:
400,256,45822,1,8,3:0:0:0:
336,192,45991,1,2,3:2:0:0:
192,160,46330,5,12,0:0:0:0:
128,160,46500,1,10,0:0:0:0:
128,160,46669,1,10,0:0:0:0:
192,160,46839,2,0,L|368:160,1,120,10|8,0:0|0:3,0:0:0:0:
448,80,47517,6,0,L|288:80,1,120,4|0,3:2|3:0,0:0:0:0:
256,80,48025,1,8,0:0:0:0:
144,272,48364,2,0,L|144:112,1,120,8|2,3:0|3:2,0:0:0:0:
304,272,49042,5,12,0:0:0:0:
304,272,49212,1,10,0:0:0:0:
304,272,49381,1,10,0:0:0:0:
304,272,49551,1,10,0:0:0:0:
176,272,49890,1,8,0:3:0:0:
336,224,50229,6,0,P|368:176|336:128,1,120,4|0,3:2|3:0,0:0:0:0:
208,160,50907,1,0,3:0:0:0:
208,80,51076,2,0,L|288:80,1,60,10|8,0:0|0:0,0:0:0:0:
336,80,51415,1,8,3:2:0:0:
192,336,51754,6,0,L|192:272,1,60,4|0,3:2|3:2,0:0:0:0:
320,288,52262,1,4,3:2:0:0:
192,192,52601,1,2,3:2:0:0:
352,112,52940,6,0,L|352:288,1,120,4|0,3:2|3:0,0:0:0:0:
272,240,53449,1,8,0:0:0:0:
128,192,53788,2,0,L|8:192,1,120,2|10,3:2|0:0,0:0:0:0:
160,128,54466,6,0,P|352:224|96:304,1,600,4|8,3:2|0:0,0:0:0:0:
256,192,56669,5,0,3:0:0:0:
112,208,57008,2,0,L|112:48,1,120,4|0,3:2|3:0,0:0:0:0:
192,80,57517,1,8,0:0:0:0:
304,80,57856,1,0,3:0:0:0:
192,160,58195,1,8,0:0:0:0:
256,160,58364,1,4,3:2:0:0:
400,336,58703,5,12,0:0:0:0:
304,336,58873,1,12,0:0:0:0:
192,336,59212,2,0,L|192:192,1,120,2|2,0:0|0:0,0:0:0:0:
304,224,59720,6,0,L|448:224,1,120,4|0,3:2|3:2,0:0:0:0:
368,144,60229,1,10,0:0:0:0:
304,96,60398,2,0,L|174:96,1,120,2|2,0:0|0:0,0:0:0:0:
304,320,61076,6,0,L|144:320,1,120,2|0,0:0|0:0,0:0:0:0:
176,240,61585,1,8,0:0:0:0:
320,192,61923,2,0,L|320:32,1,120,2|10,3:2|0:0,0:0:0:0:
240,80,62432,6,0,P|176:96|208:208,1,180,2|10,0:0|0:0,0:0:0:0:
240,224,63110,1,2,0:0:0:0:
368,224,63449,2,0,L|368:128,1,60,2|10,0:0|0:0,0:0:0:0:
272,144,63788,6,0,L|112:144,1,120,2|0,0:0|0:0,0:0:0:0:
144,80,64296,1,8,0:0:0:0:
256,320,64635,2,0,L|416:320,1,120,2|8,3:2|0:0,0:0:0:0:
224,256,65313,5,4,3:2:0:0:
96,256,65652,2,0,L|16:256,1,60,10|2,0:0|0:0,0:0:0:0:
144,176,66161,1,2,0:0:0:0:
208,176,66330,1,10,0:0:0:0:
272,176,66500,1,2,0:0:0:0:
352,176,66669,6,0,L|352:16,1,120,0|8,3:2|0:0,0:0:0:0:
288,48,67178,2,0,L|128:48,1,120,2|2,0:0|0:0,0:0:0:0:
64,48,67856,1,2,0:0:0:0:
144,176,68025,6,0,L|288:176,1,120,4|8,3:2|0:0,0:0:0:0:
384,176,68703,1,8,0:0:0:0:
464,176,68873,1,4,3:2:0:0:
304,112,69212,6,0,L|160:112,1,120,4|0,3:2|3:0,0:0:0:0:
64,288,69890,2,0,L|0:288,2,60,4|0|0,3:2|0:0|3:0,0:0:0:0:
128,288,70398,1,8,0:0:0:0:
240,288,70568,6,0,P|320:256|320:128,1,180,4|8,3:2|0:0,0:0:0:0:
272,160,71246,1,2,0:0:0:0:
144,160,71585,1,2,0:0:0:0:
288,96,71923,6,0,L|144:96,1,120,2|0,0:0|0:0,0:0:0:0:
160,32,72432,1,8,0:0:0:0:
288,240,72771,2,0,L|432:240,1,120,2|10,3:2|0:0,0:0:0:0:
336,176,73279,6,0,L|192:176,1,120,2|0,0:0|0:0,0:0:0:0:
96,304,73957,2,0,L|96:144,1,120,2|2,0:0|0:0,0:0:0:0:
256,192,74635,6,0,L|416:192,1,120,2|0,0:0|0:0,0:0:0:0:
384,128,75144,1,8,0:0:0:0:
240,144,75483,1,2,3:2:0:0:
96,144,75822,1,4,3:2:0:0:
272,48,76161,6,0,L|416:48,1,120,4|10,3:2|3:2,0:0:0:0:
336,144,76669,2,0,L|208:144,1,120,10|10,0:0|0:0,0:0:0:0:
208,80,77178,1,10,3:2:0:0:
352,304,77517,6,0,L|496:304,1,120,6|10,3:2|3:2,0:0:0:0:
400,240,78025,1,10,0:0:0:0:
272,240,78364,2,0,L|272:176,1,60,10|2,0:0|3:2,0:0:0:0:
384,256,78703,6,0,P|432:144|304:48,1,300,10|8,0:0|3:2,0:0:0:0:
192,176,79890,2,0,L|192:96,1,60,10|8,3:2|3:0,0:0:0:0:
304,192,80229,6,0,L|416:192,2,90,12|2|2,3:2|0:0|0:0,0:0:0:0:
240,192,80907,1,2,0:0:0:0:
144,192,81246,2,0,L|144:128,1,60,12|10,0:0|0:0,0:0:0:0:
256,128,81585,5,4,3:2:0:0:
144,96,81924,1,8,0:0:0:0:
16,144,82263,2,0,L|16:48,1,60,2|0,3:2|0:0,0:0:0:0:
144,288,82771,6,0,L|144:128,1,120,2|2,0:0|0:0,0:0:0:0:
256,160,83449,1,0,0:0:0:0:
128,112,83788,2,0,L|128:48,1,60,0|10,0:0|0:0,0:0:0:0:
288,64,84297,5,0,3:2:0:0:
416,64,84636,1,10,0:0:0:0:
288,192,84975,2,0,L|208:192,1,60,2|2,3:2|0:0,0:0:0:0:
96,192,85483,1,2,0:0:0:0:
240,128,85822,5,2,0:0:0:0:
368,128,86161,1,2,0:0:0:0:
240,256,86500,2,0,L|144:256,2,60,2|10|8,0:0|0:0|0:0,0:0:0:0:
352,256,87009,5,12,3:2:0:0:
256,192,87348,1,8,0:0:0:0:
128,112,87687,2,0,L|208:112,1,60,2|2,3:2|0:0,0:0:0:0:
320,48,88195,6,0,L|176:48,1,120,2|2,0:0|0:0,0:0:0:0:
320,144,88873,2,0,L|480:144,1,120,2|2,0:0|0:0,0:0:0:0:
432,80,89382,1,10,0:0:0:0:
272,224,89720,6,0,L|128:224,1,120,4|8,3:2|0:0,0:0:0:0:
272,160,90398,2,0,L|272:80,1,60,10|4,0:0|3:2,0:0:0:0:
96,96,90907,5,4,3:2:0:0:
256,192,91246,12,0,95144,0:0:0:0:
