osu file format v14

[General]
AudioFilename: audio.mp3
AudioLeadIn: 0
PreviewTime: 59042
Countdown: 0
SampleSet: Normal
StackLeniency: 0.7
Mode: 1
LetterboxInBreaks: 0
WidescreenStoryboard: 0

[Editor]
Bookmarks: 17686
DistanceSpacing: 0.5
BeatDivisor: 4
GridSize: 4
TimelineZoom: 1.9

[Metadata]
Title:SWEET x SWEET
TitleUnicode:SWEET×SWEET
Artist:KOTOKO
ArtistUnicode:KOTOKO
Creator:Consified
Version:Oni
Source:ネコぱらvol.4 ネコとパティシェのノエル
Tags:nekopara neko to patishie no noeru PHA 神谷 礼 japanese pop j-pop jpop video game opening videogame eroge visual novel vol 4 volume Works noel of cat and pastry chef さより sayori blackbq sing216 Rei Kamiya sekai project catgirl patissier vn denpasoft
BeatmapID:2739930
BeatmapSetID:1322794

[Difficulty]
HPDrainRate:5.5
CircleSize:5
OverallDifficulty:5.5
ApproachRate:5
SliderMultiplier:1.4
SliderTickRate:1

[Events]
//Background and Video events
0,0,"pog.jpg",0,0
//Break Periods
//Storyboard Layer 0 (Background)
//Storyboard Layer 1 (Fail)
//Storyboard Layer 2 (Pass)
//Storyboard Layer 3 (Foreground)
//Storyboard Layer 4 (Overlay)
//Storyboard Sound Samples

[TimingPoints]
1585,338.983050847458,4,1,0,60,1,0
59720,-100,4,1,0,60,0,1
76161,-100,4,1,0,60,0,0

[HitObjects]
256,192,1585,5,4,0:0:0:0:
256,189,2940,1,4,0:0:0:0:
256,189,4296,1,4,0:0:0:0:
256,189,5652,1,4,0:0:0:0:
256,189,6330,1,0,0:0:0:0:
256,189,6669,1,2,0:0:0:0:
256,189,7008,1,0,0:0:0:0:
256,189,7178,1,2,0:0:0:0:
256,189,7262,1,2,0:0:0:0:
256,189,7347,1,0,0:0:0:0:
256,189,7517,1,2,0:0:0:0:
256,189,7856,1,0,0:0:0:0:
256,189,8025,1,2,0:0:0:0:
256,189,8195,1,2,0:0:0:0:
256,189,8279,1,2,0:0:0:0:
256,189,8364,1,0,0:0:0:0:
256,189,8534,1,0,0:0:0:0:
256,189,8703,1,2,0:0:0:0:
256,189,8873,1,0,0:0:0:0:
256,189,9212,1,2,0:0:0:0:
251,189,9381,1,0,0:0:0:0:
256,189,9551,1,0,0:0:0:0:
256,189,9635,1,0,0:0:0:0:
256,189,9720,1,2,0:0:0:0:
256,189,9890,1,0,0:0:0:0:
256,189,9974,1,0,0:0:0:0:
256,189,10059,1,0,0:0:0:0:
256,189,10229,1,2,0:0:0:0:
251,189,10398,1,0,0:0:0:0:
251,189,10483,1,0,0:0:0:0:
251,189,10568,1,0,0:0:0:0:
256,189,10737,1,2,0:0:0:0:
256,189,10822,1,2,0:0:0:0:
256,189,10907,1,0,0:0:0:0:
244,174,10991,1,0,0:0:0:0:
256,189,11076,1,2,0:0:0:0:
255,186,12432,1,2,0:0:0:0:
255,186,12771,1,2,0:0:0:0:
255,186,13110,1,2,0:0:0:0:
255,186,13195,1,2,0:0:0:0:
255,186,13279,1,2,0:0:0:0:
255,186,13364,1,2,0:0:0:0:
255,186,13449,1,2,0:0:0:0:
255,186,13534,1,2,0:0:0:0:
255,186,13618,1,2,0:0:0:0:
255,186,13703,1,2,0:0:0:0:
255,186,13788,1,0,0:0:0:0:
246,177,14127,1,2,0:0:0:0:
246,177,14296,1,0,0:0:0:0:
246,177,14466,1,2,0:0:0:0:
246,177,14635,1,2,0:0:0:0:
246,177,14720,1,2,0:0:0:0:
246,177,14805,1,0,0:0:0:0:
246,177,14974,1,0,0:0:0:0:
246,177,15144,1,2,0:0:0:0:
246,177,15313,1,0,0:0:0:0:
246,177,15398,1,2,0:0:0:0:
246,177,15483,1,0,0:0:0:0:
246,177,15652,1,0,0:0:0:0:
246,177,15822,1,2,0:0:0:0:
246,177,15907,1,2,0:0:0:0:
246,177,15991,1,0,0:0:0:0:
246,177,16161,1,2,0:0:0:0:
246,177,16500,1,0,0:0:0:0:
246,177,16839,1,2,0:0:0:0:
246,177,17008,1,2,0:0:0:0:
246,177,17093,1,0,0:0:0:0:
246,177,17178,1,2,0:0:0:0:
246,177,17347,1,0,0:0:0:0:
246,177,17517,1,0,0:0:0:0:
246,177,17686,1,2,0:0:0:0:
246,177,17856,1,0,0:0:0:0:
246,177,18025,1,2,0:0:0:0:
246,177,18110,1,2,0:0:0:0:
246,177,18195,1,0,0:0:0:0:
246,177,18364,1,2,0:0:0:0:
254,166,18534,1,0,0:0:0:0:
254,166,18703,1,2,0:0:0:0:
254,166,18873,1,0,0:0:0:0:
254,166,18957,1,2,0:0:0:0:
254,166,19042,1,2,0:0:0:0:
254,166,19127,1,2,0:0:0:0:
254,166,19212,1,0,0:0:0:0:
254,166,19551,1,2,0:0:0:0:
254,166,19720,1,0,0:0:0:0:
254,166,19890,1,2,0:0:0:0:
254,166,20059,1,2,0:0:0:0:
254,166,20144,1,2,0:0:0:0:
254,166,20229,1,0,0:0:0:0:
254,166,20398,1,0,0:0:0:0:
254,166,20568,1,2,0:0:0:0:
254,166,20737,1,0,0:0:0:0:
254,166,20907,1,2,0:0:0:0:
254,166,20991,1,2,0:0:0:0:
254,166,21076,1,0,0:0:0:0:
254,166,21246,1,2,0:0:0:0:
254,166,21415,1,0,0:0:0:0:
254,166,21500,1,0,0:0:0:0:
254,166,21585,1,2,0:0:0:0:
254,166,21923,1,2,0:0:0:0:
254,166,22093,1,0,0:0:0:0:
254,166,22262,1,2,0:0:0:0:
254,166,22432,1,0,0:0:0:0:
254,166,22517,1,0,0:0:0:0:
254,166,22601,1,2,0:0:0:0:
254,166,22771,1,2,0:0:0:0:
254,166,22940,1,0,0:0:0:0:
254,166,23110,1,6,0:0:0:0:
254,176,24127,1,0,0:0:0:0:
254,176,24212,1,0,0:0:0:0:
254,176,24296,1,2,0:0:0:0:
247,182,24635,1,4,0:0:0:0:
254,176,24974,1,0,0:0:0:0:
254,176,25144,1,2,0:0:0:0:
254,176,25313,1,0,0:0:0:0:
252,177,25652,1,2,0:0:0:0:
254,176,25991,1,0,0:0:0:0:
254,176,26161,1,2,0:0:0:0:
254,176,26330,1,0,0:0:0:0:
252,177,26500,1,0,0:0:0:0:
252,177,26669,1,2,0:0:0:0:
254,176,27008,1,2,0:0:0:0:
252,177,27517,1,0,0:0:0:0:
252,177,27686,1,2,0:0:0:0:
254,176,27856,1,0,0:0:0:0:
254,176,28025,1,2,0:0:0:0:
252,177,28364,1,0,0:0:0:0:
252,177,28703,1,6,0:0:0:0:
249,172,29381,1,2,0:0:0:0:
249,172,29466,1,2,0:0:0:0:
249,172,29551,1,0,0:0:0:0:
249,172,29635,1,0,0:0:0:0:
249,172,29720,1,2,0:0:0:0:
249,172,29890,1,4,0:0:0:0:
249,172,30229,1,0,0:0:0:0:
249,172,30398,1,2,0:0:0:0:
239,172,30568,1,0,0:0:0:0:
239,172,30652,1,0,0:0:0:0:
239,172,30737,1,2,0:0:0:0:
239,172,30907,1,0,0:0:0:0:
239,172,31076,1,2,0:0:0:0:
239,172,31246,1,0,0:0:0:0:
239,172,31415,1,2,0:0:0:0:
239,172,31500,1,2,0:0:0:0:
239,172,31585,1,0,0:0:0:0:
239,172,31669,1,0,0:0:0:0:
239,172,31754,1,2,0:0:0:0:
239,172,31923,1,0,0:0:0:0:
239,172,32093,1,2,0:0:0:0:
239,172,32262,1,0,0:0:0:0:
239,172,32347,1,0,0:0:0:0:
239,172,32432,1,2,0:0:0:0:
239,172,32601,1,4,0:0:0:0:
243,175,32940,1,0,0:0:0:0:
243,175,33110,1,2,0:0:0:0:
246,176,33279,1,2,0:0:0:0:
246,176,33364,1,2,0:0:0:0:
246,176,33449,1,0,0:0:0:0:
245,176,33618,1,0,0:0:0:0:
243,175,33788,1,2,0:0:0:0:
243,175,33957,1,4,0:0:0:0:
246,176,34296,1,4,0:0:0:0:
245,176,34635,1,4,0:0:0:0:
243,175,34974,1,0,0:0:0:0:
246,176,35059,1,0,0:0:0:0:
246,176,35144,1,2,0:0:0:0:
250,176,35483,1,4,0:0:0:0:
250,176,35822,1,2,0:0:0:0:
250,176,35991,1,2,0:0:0:0:
246,176,36161,1,0,0:0:0:0:
250,176,36246,1,0,0:0:0:0:
250,176,36330,1,0,0:0:0:0:
250,176,36500,1,2,0:0:0:0:
250,176,36839,1,0,0:0:0:0:
250,176,37008,1,0,0:0:0:0:
246,176,37178,1,2,0:0:0:0:
250,176,37262,1,2,0:0:0:0:
250,176,37347,1,2,0:0:0:0:
250,176,37517,1,0,0:0:0:0:
250,176,37686,1,0,0:0:0:0:
250,176,37856,1,2,0:0:0:0:
253,172,38195,1,0,0:0:0:0:
253,172,38364,1,0,0:0:0:0:
253,172,38534,1,2,0:0:0:0:
253,172,38703,1,2,0:0:0:0:
253,172,38873,1,0,0:0:0:0:
253,172,39042,1,0,0:0:0:0:
253,172,39127,1,0,0:0:0:0:
253,172,39212,1,2,0:0:0:0:
253,172,39381,1,2,0:0:0:0:
253,172,39551,1,0,0:0:0:0:
253,172,39720,1,2,0:0:0:0:
253,172,39805,1,0,0:0:0:0:
253,172,39890,1,2,0:0:0:0:
253,172,40059,1,0,0:0:0:0:
253,172,40229,1,2,0:0:0:0:
253,172,40313,1,2,0:0:0:0:
253,172,40398,1,0,0:0:0:0:
253,172,40568,1,2,0:0:0:0:
253,172,40737,1,2,0:0:0:0:
253,172,40907,1,0,0:0:0:0:
253,172,41246,1,2,0:0:0:0:
253,172,41415,1,0,0:0:0:0:
253,172,41500,1,0,0:0:0:0:
253,172,41585,1,0,0:0:0:0:
253,172,41754,1,0,0:0:0:0:
253,172,41923,1,2,0:0:0:0:
253,172,42093,1,0,0:0:0:0:
253,172,42432,1,0,0:0:0:0:
253,172,42601,1,2,0:0:0:0:
253,172,42771,1,2,0:0:0:0:
253,172,42856,1,2,0:0:0:0:
253,172,42940,1,0,0:0:0:0:
253,172,43110,1,0,0:0:0:0:
253,172,43279,1,2,0:0:0:0:
253,172,43449,1,0,0:0:0:0:
253,172,43534,1,2,0:0:0:0:
253,172,43618,1,0,0:0:0:0:
252,157,43957,1,2,0:0:0:0:
252,157,44127,1,0,0:0:0:0:
252,157,44212,1,0,0:0:0:0:
252,157,44296,1,2,0:0:0:0:
252,157,44466,1,2,0:0:0:0:
252,157,44635,1,0,0:0:0:0:
252,157,44805,1,6,0:0:0:0:
252,157,45144,1,0,0:0:0:0:
252,157,45313,1,2,0:0:0:0:
252,157,45483,1,0,0:0:0:0:
252,157,45568,1,0,0:0:0:0:
252,157,45652,1,2,0:0:0:0:
252,157,45737,1,0,0:0:0:0:
252,157,45822,1,2,0:0:0:0:
252,157,45907,1,2,0:0:0:0:
252,157,45991,1,0,0:0:0:0:
252,157,46161,1,0,0:0:0:0:
252,157,46330,1,6,0:0:0:0:
252,157,46500,1,4,0:0:0:0:
252,157,46669,1,6,0:0:0:0:
252,157,46839,1,6,0:0:0:0:
252,157,47178,1,0,0:0:0:0:
252,157,47517,1,6,0:0:0:0:
252,157,47856,1,0,0:0:0:0:
252,157,47940,1,0,0:0:0:0:
252,157,48025,1,2,0:0:0:0:
252,157,48195,1,2,0:0:0:0:
252,157,48279,1,2,0:0:0:0:
252,157,48364,1,0,0:0:0:0:
252,157,48534,1,0,0:0:0:0:
252,157,48703,1,2,0:0:0:0:
252,157,48873,1,0,0:0:0:0:
252,157,49042,1,6,0:0:0:0:
252,157,49212,1,6,0:0:0:0:
252,157,49381,1,4,0:0:0:0:
252,157,49551,1,6,0:0:0:0:
252,157,49890,1,2,0:0:0:0:
260,160,50229,1,4,0:0:0:0:
260,160,50568,1,0,0:0:0:0:
260,160,50652,1,0,0:0:0:0:
260,160,50737,1,2,0:0:0:0:
260,160,50907,1,2,0:0:0:0:
260,160,50991,1,0,0:0:0:0:
260,160,51076,1,2,0:0:0:0:
260,160,51246,1,0,0:0:0:0:
260,160,51415,1,2,0:0:0:0:
260,160,51500,1,2,0:0:0:0:
260,160,51585,1,2,0:0:0:0:
260,160,51669,1,2,0:0:0:0:
260,160,51754,1,0,0:0:0:0:
260,160,51923,1,0,0:0:0:0:
260,160,52008,1,0,0:0:0:0:
260,160,52093,1,2,0:0:0:0:
260,160,52262,1,0,0:0:0:0:
260,160,52601,1,2,0:0:0:0:
260,160,52686,1,2,0:0:0:0:
260,160,52771,1,2,0:0:0:0:
260,160,52940,1,0,0:0:0:0:
260,160,53279,1,0,0:0:0:0:
260,160,53449,1,2,0:0:0:0:
260,160,53618,1,0,0:0:0:0:
260,160,53703,1,0,0:0:0:0:
260,160,53788,1,2,0:0:0:0:
260,160,53957,1,0,0:0:0:0:
260,160,54127,1,2,0:0:0:0:
260,160,54212,1,2,0:0:0:0:
260,160,54296,1,2,0:0:0:0:
260,160,54381,1,2,0:0:0:0:
260,160,54466,1,0,0:0:0:0:
241,165,54805,1,2,0:0:0:0:
243,165,54974,1,0,0:0:0:0:
243,165,55059,1,0,0:0:0:0:
243,165,55144,1,0,0:0:0:0:
243,165,55313,1,0,0:0:0:0:
243,165,55483,1,2,0:0:0:0:
241,165,55568,1,0,0:0:0:0:
241,165,55652,1,2,0:0:0:0:
241,165,55737,1,2,0:0:0:0:
241,165,55822,1,0,0:0:0:0:
243,165,55991,1,0,0:0:0:0:
243,165,56161,1,2,0:0:0:0:
243,165,56330,1,0,0:0:0:0:
243,165,56415,1,0,0:0:0:0:
243,165,56500,1,0,0:0:0:0:
241,165,56669,1,0,0:0:0:0:
241,165,56839,1,2,0:0:0:0:
243,165,57008,1,6,0:0:0:0:
251,162,57347,1,0,0:0:0:0:
251,162,57517,1,2,0:0:0:0:
251,162,57686,1,0,0:0:0:0:
251,162,57771,1,0,0:0:0:0:
251,154,57856,1,2,0:0:0:0:
251,154,57940,1,2,0:0:0:0:
251,154,58025,1,0,0:0:0:0:
251,154,58110,1,0,0:0:0:0:
251,154,58195,1,2,0:0:0:0:
251,154,58364,1,6,0:0:0:0:
251,154,58703,1,6,0:0:0:0:
251,154,58873,1,6,0:0:0:0:
251,154,59720,1,4,0:0:0:0:
249,175,60059,1,0,0:0:0:0:
249,175,60229,1,2,0:0:0:0:
249,175,60398,1,0,0:0:0:0:
249,175,60483,1,2,0:0:0:0:
249,175,60568,1,0,0:0:0:0:
249,175,60737,1,0,0:0:0:0:
249,175,60907,1,2,0:0:0:0:
249,175,61076,1,2,0:0:0:0:
249,175,61161,1,0,0:0:0:0:
249,175,61246,1,0,0:0:0:0:
249,175,61415,1,0,0:0:0:0:
249,175,61585,1,2,0:0:0:0:
249,175,61754,1,0,0:0:0:0:
258,179,61923,1,2,0:0:0:0:
258,179,62008,1,2,0:0:0:0:
258,179,62093,1,0,0:0:0:0:
258,179,62178,1,0,0:0:0:0:
258,179,62262,1,2,0:0:0:0:
258,179,62432,1,0,0:0:0:0:
257,181,62771,1,0,0:0:0:0:
258,179,62940,1,2,0:0:0:0:
258,179,63110,1,0,0:0:0:0:
258,179,63195,1,2,0:0:0:0:
258,179,63279,1,0,0:0:0:0:
258,179,63449,1,0,0:0:0:0:
257,181,63618,1,2,0:0:0:0:
276,162,63703,1,0,0:0:0:0:
257,181,63788,1,2,0:0:0:0:
252,158,63873,1,2,0:0:0:0:
258,179,63957,1,0,0:0:0:0:
252,159,64127,1,0,0:0:0:0:
252,159,64212,1,0,0:0:0:0:
252,159,64296,1,2,0:0:0:0:
252,159,64466,1,0,0:0:0:0:
252,159,64635,1,2,0:0:0:0:
252,159,64805,1,0,0:0:0:0:
252,159,64974,1,2,0:0:0:0:
252,159,65059,1,0,0:0:0:0:
252,159,65144,1,2,0:0:0:0:
252,159,65313,1,0,0:0:0:0:
252,159,65652,1,2,0:0:0:0:
252,159,65822,1,0,0:0:0:0:
252,159,65907,1,0,0:0:0:0:
252,159,65991,1,0,0:0:0:0:
252,159,66161,1,0,0:0:0:0:
221,161,66330,1,2,0:0:0:0:
252,159,66500,1,2,0:0:0:0:
246,164,66669,1,0,0:0:0:0:
246,176,67008,1,2,0:0:0:0:
246,176,67178,1,0,0:0:0:0:
246,176,67347,1,2,0:0:0:0:
246,176,67432,1,2,0:0:0:0:
246,176,67517,1,0,0:0:0:0:
246,176,67686,1,2,0:0:0:0:
246,176,67771,1,0,0:0:0:0:
246,176,67856,1,2,0:0:0:0:
246,176,68025,1,4,0:0:0:0:
251,177,68364,1,2,0:0:0:0:
246,161,68534,1,0,0:0:0:0:
246,161,68618,1,0,0:0:0:0:
246,161,68703,1,2,0:0:0:0:
246,161,68873,1,2,0:0:0:0:
245,163,69042,1,0,0:0:0:0:
246,161,69212,1,6,0:0:0:0:
246,161,69551,1,0,0:0:0:0:
246,161,69635,1,0,0:0:0:0:
246,161,69720,1,2,0:0:0:0:
246,161,69890,1,4,0:0:0:0:
246,161,70229,1,0,0:0:0:0:
246,161,70313,1,2,0:0:0:0:
246,161,70398,1,2,0:0:0:0:
246,161,70568,1,4,0:0:0:0:
249,175,70907,1,0,0:0:0:0:
249,175,71076,1,2,0:0:0:0:
249,175,71246,1,0,0:0:0:0:
249,175,71330,1,2,0:0:0:0:
249,175,71415,1,0,0:0:0:0:
249,175,71585,1,0,0:0:0:0:
249,175,71754,1,2,0:0:0:0:
249,175,71923,1,2,0:0:0:0:
249,175,72008,1,0,0:0:0:0:
249,175,72093,1,0,0:0:0:0:
249,175,72262,1,0,0:0:0:0:
249,175,72432,1,2,0:0:0:0:
249,175,72601,1,0,0:0:0:0:
258,179,72771,1,2,0:0:0:0:
258,179,72856,1,2,0:0:0:0:
258,179,72940,1,0,0:0:0:0:
258,179,73025,1,0,0:0:0:0:
258,179,73110,1,2,0:0:0:0:
258,179,73279,1,0,0:0:0:0:
257,181,73618,1,0,0:0:0:0:
258,179,73788,1,2,0:0:0:0:
258,179,73957,1,0,0:0:0:0:
258,179,74042,1,2,0:0:0:0:
258,179,74127,1,0,0:0:0:0:
258,179,74296,1,0,0:0:0:0:
257,181,74466,1,2,0:0:0:0:
276,162,74551,1,0,0:0:0:0:
257,181,74635,1,2,0:0:0:0:
252,158,74720,1,2,0:0:0:0:
258,179,74805,1,0,0:0:0:0:
252,159,74974,1,0,0:0:0:0:
252,159,75059,1,0,0:0:0:0:
252,159,75144,1,2,0:0:0:0:
252,159,75313,1,0,0:0:0:0:
252,159,75483,1,2,0:0:0:0:
252,159,75568,1,2,0:0:0:0:
252,159,75652,1,0,0:0:0:0:
252,159,75737,1,0,0:0:0:0:
252,159,75822,1,2,0:0:0:0:
252,159,76161,1,0,0:0:0:0:
249,163,76330,1,2,0:0:0:0:
249,163,76415,1,2,0:0:0:0:
249,163,76500,1,0,0:0:0:0:
256,161,76669,1,2,0:0:0:0:
256,189,77008,1,0,0:0:0:0:
256,189,77178,1,2,0:0:0:0:
256,189,77347,1,2,0:0:0:0:
256,189,77432,1,2,0:0:0:0:
256,189,77517,1,0,0:0:0:0:
256,189,77686,1,0,0:0:0:0:
256,189,77856,1,2,0:0:0:0:
256,189,78025,1,0,0:0:0:0:
256,189,78364,1,2,0:0:0:0:
251,189,78449,1,2,0:0:0:0:
251,189,78534,1,0,0:0:0:0:
256,189,78703,1,2,0:0:0:0:
256,189,78873,1,0,0:0:0:0:
256,189,79042,1,2,0:0:0:0:
256,189,79127,1,2,0:0:0:0:
256,189,79212,1,2,0:0:0:0:
256,189,79381,1,0,0:0:0:0:
251,189,79551,1,2,0:0:0:0:
251,189,79635,1,2,0:0:0:0:
251,189,79720,1,2,0:0:0:0:
256,189,79890,1,0,0:0:0:0:
256,189,79974,1,0,0:0:0:0:
256,189,80059,1,2,0:0:0:0:
244,174,80144,1,2,0:0:0:0:
256,189,80229,1,0,0:0:0:0:
253,181,81076,1,0,0:0:0:0:
253,181,81161,1,0,0:0:0:0:
252,170,81246,1,2,0:0:0:0:
255,176,81585,1,4,0:0:0:0:
246,177,81923,1,2,0:0:0:0:
246,177,82093,1,0,0:0:0:0:
246,177,82262,1,2,0:0:0:0:
246,177,82432,1,0,0:0:0:0:
246,177,82517,1,2,0:0:0:0:
246,177,82601,1,0,0:0:0:0:
246,177,82771,1,0,0:0:0:0:
246,177,82940,1,2,0:0:0:0:
246,177,83110,1,2,0:0:0:0:
246,177,83195,1,2,0:0:0:0:
246,177,83279,1,0,0:0:0:0:
246,177,83449,1,0,0:0:0:0:
246,177,83618,1,2,0:0:0:0:
246,177,83703,1,2,0:0:0:0:
246,177,83788,1,0,0:0:0:0:
246,177,83957,1,2,0:0:0:0:
246,177,84042,1,0,0:0:0:0:
246,177,84127,1,2,0:0:0:0:
246,177,84296,1,0,0:0:0:0:
246,177,84635,1,2,0:0:0:0:
246,177,84805,1,2,0:0:0:0:
246,177,84890,1,0,0:0:0:0:
246,177,84974,1,2,0:0:0:0:
246,177,85144,1,0,0:0:0:0:
246,177,85313,1,0,0:0:0:0:
246,177,85483,1,2,0:0:0:0:
246,177,85652,1,0,0:0:0:0:
246,177,85822,1,2,0:0:0:0:
246,177,85907,1,2,0:0:0:0:
246,177,85991,1,0,0:0:0:0:
246,177,86161,1,2,0:0:0:0:
254,166,86330,1,0,0:0:0:0:
254,166,86500,1,2,0:0:0:0:
254,166,86669,1,0,0:0:0:0:
254,166,86754,1,2,0:0:0:0:
254,166,86839,1,2,0:0:0:0:
254,166,86923,1,2,0:0:0:0:
254,166,87008,1,0,0:0:0:0:
254,166,87347,1,2,0:0:0:0:
254,166,87517,1,0,0:0:0:0:
254,166,87686,1,2,0:0:0:0:
254,166,87856,1,2,0:0:0:0:
254,166,87940,1,2,0:0:0:0:
254,166,88025,1,0,0:0:0:0:
254,166,88195,1,0,0:0:0:0:
254,166,88364,1,2,0:0:0:0:
254,166,88534,1,0,0:0:0:0:
254,166,88703,1,2,0:0:0:0:
254,166,88788,1,2,0:0:0:0:
254,166,88873,1,0,0:0:0:0:
254,166,89042,1,2,0:0:0:0:
254,166,89212,1,0,0:0:0:0:
254,166,89296,1,0,0:0:0:0:
254,166,89381,1,2,0:0:0:0:
254,166,89720,1,2,0:0:0:0:
254,166,89890,1,0,0:0:0:0:
254,166,90059,1,2,0:0:0:0:
254,166,90229,1,0,0:0:0:0:
254,166,90313,1,0,0:0:0:0:
254,166,90398,1,2,0:0:0:0:
254,166,90568,1,0,0:0:0:0:
254,166,90737,1,2,0:0:0:0:
254,166,90907,1,6,0:0:0:0:
256,192,91076,12,0,95144,0:0:0:0:
