osu file format v14

[General]
AudioFilename: audio.mp3
AudioLeadIn: 0
PreviewTime: 62063
Countdown: 0
SampleSet: Normal
StackLeniency: 0.7
Mode: 0
LetterboxInBreaks: 0
WidescreenStoryboard: 1

[Editor]
DistanceSpacing: 0.8
BeatDivisor: 4
GridSize: 8
TimelineZoom: 1.8

[Metadata]
Title:Reboot oN/ 0 (Short Ver.)
TitleUnicode:Reboot oN/↓0 (Short Ver.)
Artist:KOTOKO
ArtistUnicode:KOTOKO
Creator:Julia Brightman
Version:Insane
Source:BALDRSKY "ZERO" 2
Tags:KOTOKO BALDR SKY ZERO 2 eroge
BeatmapID:1012510
BeatmapSetID:473922

[Difficulty]
HPDrainRate:6
CircleSize:4
OverallDifficulty:8
ApproachRate:9
SliderMultiplier:2.60000000596047
SliderTickRate:1

[Events]
//Background and Video events
0,0,"BALDRSKY_ZERO_2_4.jpg",0,0
//Break Periods
//Storyboard Layer 0 (Background)
//Storyboard Layer 1 (Fail)
//Storyboard Layer 2 (Pass)
//Storyboard Layer 3 (Foreground)
//Storyboard Sound Samples

[TimingPoints]
700,389.61038961039,4,1,0,80,1,0
63037,-100,4,1,0,80,0,1
90310,-100,4,1,0,80,0,0

[Colours]
Combo1 : 0,0,255
Combo2 : 128,255,255
Combo3 : 0,255,255
Combo4 : 0,128,255

[HitObjects]
16,192,13167,6,0,P|32:256|112:288,1,130.000000298024
184,192,13557,2,0,P|200:128|280:96,1,130.000000298024
320,224,13946,1,0,0:0:0:0:
392,96,14141,2,0,P|448:112|488:192,1,130.000000298024
488,32,14531,1,0,0:0:0:0:
352,32,14725,2,0,P|320:96|352:160,1,130.000000298024
352,288,15115,2,0,P|256:256|256:200,1,130.000000298024
248,376,15505,1,0,0:0:0:0:
144,272,15700,2,0,P|80:296|48:368,1,130.000000298024
48,208,16089,1,0,0:0:0:0:
184,160,16284,6,0,P|232:208|320:160,1,130.000000298024
288,64,16674,1,0,0:0:0:0:
400,160,16868,2,0,P|448:208|536:160,1,130.000000298024
504,64,17258,1,0,0:0:0:0:
360,88,17453,2,0,P|312:136|224:88,1,130.000000298024
192,0,17842,2,0,P|168:64|200:128,1,130.000000298024
312,40,18232,2,0,P|384:24|424:72,1,130.000000298024
352,192,18622,1,0,0:0:0:0:
216,184,18816,1,0,0:0:0:0:
344,264,19011,2,0,P|408:232|416:176,1,130.000000298024
288,184,19401,6,0,P|256:248|176:248,1,130.000000298024
192,120,19790,1,0,0:0:0:0:
96,240,19985,2,0,P|64:304|-16:304,1,130.000000298024
0,176,20374,1,0,0:0:0:0:
128,96,20570,2,0,P|152:176|216:184,1,130.000000298024
56,120,20959,2,0,P|72:48|152:24,1,130.000000298024
232,136,21349,2,0,P|256:208|200:256,1,130.000000298024
200,72,21738,2,0,P|264:72|304:136,1,130.000000298024
280,288,22128,2,0,P|344:288|384:224,1,130.000000298024
352,72,22518,5,0,0:0:0:0:
432,192,22712,1,0,0:0:0:0:
400,328,22907,1,0,0:0:0:0:
312,224,23102,2,0,P|248:224|224:328,1,130.000000298024
336,160,23492,2,0,P|264:152|184:192,1,130.000000298024
280,288,23881,1,0,0:0:0:0:
160,216,24076,2,0,P|152:144|224:104,1,130.000000298024
80,200,24466,2,0,P|88:128|136:64,1,130.000000298024
256,88,24855,1,0,0:0:0:0:
307,101,24953,1,0,0:0:0:0:
346,140,25050,1,0,0:0:0:0:
360,192,25148,1,0,0:0:0:0:
346,243,25245,1,0,0:0:0:0:
308,282,25342,1,0,0:0:0:0:
256,296,25440,1,0,0:0:0:0:
204,282,25537,1,0,0:0:0:0:
165,244,25635,5,0,0:0:0:0:
256,192,25829,1,0,0:0:0:0:
165,140,26024,1,0,0:0:0:0:
72,192,26219,2,0,P|96:296|176:360,1,195.000000447035
208,360,26609,1,0,0:0:0:0:
352,360,26803,2,0,P|424:344|496:360,1,130.000000298024
480,216,27193,2,0,P|376:176|352:48,1,195.000000447035
360,56,27583,1,0,0:0:0:0:
224,56,27777,2,0,P|128:56|56:168,1,195.000000447035
48,168,28167,1,0,0:0:0:0:
184,112,28362,2,0,L|184:192,2,65.0000001490118
312,96,28751,5,0,0:0:0:0:
376,192,28946,1,0,0:0:0:0:
312,288,29141,1,0,0:0:0:0:
248,192,29336,2,0,P|184:240|120:160,1,195.000000447035
120,120,29725,1,0,0:0:0:0:
80,256,29920,2,0,P|160:304|216:304,1,130.000000298024
328,352,30310,2,0,P|440:312|440:208,1,195.000000447035
456,200,30700,1,0,0:0:0:0:
456,64,30894,2,0,P|368:104|248:64,1,195.000000447035
232,64,31284,1,0,0:0:0:0:
368,168,31479,2,0,L|288:168,2,65.0000001490118
296,296,31868,5,0,0:0:0:0:
176,352,32063,1,0,0:0:0:0:
56,296,32258,1,0,0:0:0:0:
176,240,32453,2,0,P|272:232|408:240,1,195.000000447035
416,240,32842,1,0,0:0:0:0:
416,104,33037,2,0,P|464:152|472:232,1,130.000000298024
344,168,33427,1,0,0:0:0:0:
344,304,33622,1,0,0:0:0:0:
208,304,33816,1,0,0:0:0:0:
208,168,34011,2,0,P|168:72|48:48,1,195.000000447035
40,48,34401,1,0,0:0:0:0:
144,152,34596,2,0,P|72:152|24:208,1,130.000000298024
144,280,34985,6,0,P|264:216|272:136,1,195.000000447035
264,120,35375,1,0,0:0:0:0:
368,8,35570,2,0,P|472:56|472:176,1,195.000000447035
488,176,35959,1,0,0:0:0:0:
488,312,36154,2,0,P|424:312|368:384,1,130.000000298024
256,352,36544,2,0,P|320:264|424:224,1,195.000000447035
432,200,36933,2,0,P|424:128|376:64,1,130.000000298024
256,88,37322,1,0,0:0:0:0:
205,101,37420,1,0,0:0:0:0:
166,140,37517,1,0,0:0:0:0:
152,192,37615,1,0,0:0:0:0:
166,243,37712,1,0,0:0:0:0:
204,282,37809,1,0,0:0:0:0:
256,296,37907,1,0,0:0:0:0:
308,282,38004,1,0,0:0:0:0:
347,244,38102,5,0,0:0:0:0:
256,192,38296,1,0,0:0:0:0:
347,140,38491,1,0,0:0:0:0:
440,192,38686,2,0,P|416:296|336:360,1,195.000000447035
304,360,39076,1,0,0:0:0:0:
160,360,39271,2,0,P|88:344|16:360,1,130.000000298024
32,216,39660,2,0,P|136:176|160:48,1,195.000000447035
152,56,40050,1,0,0:0:0:0:
288,56,40244,2,0,P|384:56|456:168,1,195.000000447035
464,168,40634,1,0,0:0:0:0:
328,112,40829,2,0,L|328:192,2,65.0000001490118
200,96,41218,5,0,0:0:0:0:
136,192,41413,1,0,0:0:0:0:
200,288,41608,1,0,0:0:0:0:
264,192,41803,2,0,P|328:240|392:160,1,195.000000447035
392,120,42192,1,0,0:0:0:0:
432,256,42388,2,0,P|352:304|296:304,1,130.000000298024
184,352,42777,2,0,P|72:312|72:208,1,195.000000447035
56,200,43167,1,0,0:0:0:0:
56,64,43361,2,0,P|144:104|264:64,1,195.000000447035
280,64,43751,1,0,0:0:0:0:
144,168,43946,2,0,L|224:168,2,65.0000001490118
216,296,44336,6,0,P|304:352|432:296,1,195.000000447035
432,320,44726,1,0,0:0:0:0:
336,240,44921,2,0,P|320:136|248:64,1,195.000000447035
224,48,45310,1,0,0:0:0:0:
96,104,45505,2,0,P|48:152|40:232,1,130.000000298024
168,168,45894,2,0,P|176:264|296:288,1,195.000000447035
304,304,46284,1,0,0:0:0:0:
304,168,46479,2,0,P|344:72|464:48,1,195.000000447035
472,48,46869,1,0,0:0:0:0:
368,152,47064,2,0,P|440:152|488:208,1,130.000000298024
368,280,47453,5,0,0:0:0:0:
232,272,47648,1,0,0:0:0:0:
248,120,47843,1,0,0:0:0:0:
144,8,48038,2,0,P|40:56|40:176,1,195.000000447035
24,176,48427,1,0,0:0:0:0:
24,312,48622,2,0,P|88:312|144:384,1,130.000000298024
264,352,49012,2,0,P|248:288|160:280,1,130.000000298024
80,200,49401,2,0,P|88:128|136:64,1,130.000000298024
256,88,49790,1,0,0:0:0:0:
307,101,49888,1,0,0:0:0:0:
346,140,49985,1,0,0:0:0:0:
360,192,50083,1,0,0:0:0:0:
346,243,50180,1,0,0:0:0:0:
308,282,50277,1,0,0:0:0:0:
256,296,50375,1,0,0:0:0:0:
204,282,50472,1,0,0:0:0:0:
165,244,50570,5,0,0:0:0:0:
256,192,50764,1,0,0:0:0:0:
165,140,50959,1,0,0:0:0:0:
72,192,51154,2,0,P|96:88|176:24,1,195.000000447035
208,24,51544,1,0,0:0:0:0:
352,24,51738,2,0,P|424:40|496:24,1,130.000000298024
480,168,52128,2,0,P|376:208|352:336,1,195.000000447035
360,328,52518,1,0,0:0:0:0:
216,352,52712,2,0,P|128:328|56:216,1,195.000000447035
48,216,53102,1,0,0:0:0:0:
184,192,53297,1,0,0:0:0:0:
256,296,53492,1,0,0:0:0:0:
308,282,53589,1,0,0:0:0:0:
347,244,53687,5,0,0:0:0:0:
256,192,53881,1,0,0:0:0:0:
347,140,54076,1,0,0:0:0:0:
440,192,54271,2,0,P|416:88|336:24,1,195.000000447035
304,24,54661,1,0,0:0:0:0:
160,24,54855,2,0,P|88:40|16:24,1,130.000000298024
32,168,55245,2,0,P|136:208|160:336,1,195.000000447035
152,328,55635,1,0,0:0:0:0:
288,352,55829,2,0,P|384:328|456:216,1,195.000000447035
464,216,56219,1,0,0:0:0:0:
328,192,56414,1,0,0:0:0:0:
256,296,56609,1,0,0:0:0:0:
204,282,56706,1,0,0:0:0:0:
165,244,56804,5,0,0:0:0:0:
32,192,56998,1,0,0:0:0:0:
32,56,57193,1,0,0:0:0:0:
168,56,57388,2,0,P|192:160|248:232,1,195.000000447035
296,240,57777,1,0,0:0:0:0:
432,240,57972,1,0,0:0:0:0:
480,96,58167,1,0,0:0:0:0:
347,140,58362,1,0,0:0:0:0:
480,192,58556,1,0,0:0:0:0:
480,328,58751,1,0,0:0:0:0:
344,328,58946,2,0,P|320:224|264:152,1,195.000000447035
216,144,59335,1,0,0:0:0:0:
80,144,59531,1,0,0:0:0:0:
32,288,59726,1,0,0:0:0:0:
256,192,59920,12,0,61479,0:0:0:0:
32,192,63037,5,0,0:0:0:0:
32,48,63232,1,0,0:0:0:0:
80,48,63329,2,0,P|136:128|72:192,1,195.000000447035
200,120,63816,2,0,L|272:120,2,65.0000001490118
72,120,64206,2,0,L|0:120,2,65.0000001490118
198,70,64596,1,0,0:0:0:0:
342,70,64791,1,0,0:0:0:0:
342,118,64888,2,0,P|262:174|198:110,1,195.000000447035
270,238,65375,2,0,L|270:310,2,65.0000001490118
270,110,65765,2,0,L|270:38,2,65.0000001490118
319,236,66154,5,0,0:0:0:0:
319,380,66349,1,0,0:0:0:0:
271,380,66446,2,0,P|215:300|279:236,1,195.000000447035
151,308,66933,2,0,L|79:308,2,65.0000001490118
279,308,67323,2,0,L|351:308,2,65.0000001490118
272,168,67712,2,0,P|360:96|272:24,1,260.000000596047
424,96,68297,1,0,0:0:0:0:
288,96,68492,2,0,P|200:160|288:240,1,260.000000596047
136,168,69076,1,0,0:0:0:0:
272,168,69271,6,0,P|384:192|432:328,1,260.000000596047
312,304,69855,2,0,P|240:304|176:272,1,130.000000298024
208,152,70245,2,0,P|152:96|80:120,1,130.000000298024
200,216,70635,1,0,0:0:0:0:
168,344,70829,2,0,P|112:288|96:232,1,130.000000298024
104,104,71219,2,0,P|160:48|216:32,1,130.000000298024
344,40,71609,2,0,P|400:96|416:152,1,130.000000298024
408,280,71998,2,0,P|352:336|296:352,1,130.000000298024
256,192,72388,12,0,73946,0:0:0:0:
480,192,75505,5,0,0:0:0:0:
480,48,75700,1,0,0:0:0:0:
432,48,75797,2,0,P|376:128|440:192,1,195.000000447035
312,120,76284,2,0,L|240:120,2,65.0000001490118
440,120,76674,2,0,L|512:120,2,65.0000001490118
314,70,77064,1,0,0:0:0:0:
170,70,77259,1,0,0:0:0:0:
170,118,77356,2,0,P|250:174|314:110,1,195.000000447035
242,238,77843,2,0,L|242:310,2,65.0000001490118
242,110,78233,2,0,L|242:38,2,65.0000001490118
193,236,78622,5,0,0:0:0:0:
193,380,78817,1,0,0:0:0:0:
241,380,78914,2,0,P|297:300|233:236,1,195.000000447035
361,308,79401,2,0,L|433:308,2,65.0000001490118
233,308,79791,2,0,L|161:308,2,65.0000001490118
240,168,80180,2,0,P|152:96|240:24,1,260.000000596047
88,96,80765,1,0,0:0:0:0:
224,96,80960,2,0,P|312:160|224:240,1,260.000000596047
376,168,81544,1,0,0:0:0:0:
240,168,81738,6,0,P|128:192|80:328,1,260.000000596047
200,304,82323,2,0,P|272:304|336:272,1,130.000000298024
304,152,82712,2,0,P|360:96|432:120,1,130.000000298024
512,192,83102,2,0,P|512:248|464:328,1,130.000000298024
344,344,83492,2,0,P|400:288|416:232,1,130.000000298024
408,104,83881,2,0,P|352:48|296:32,1,130.000000298024
168,40,84271,2,0,P|112:96|96:152,1,130.000000298024
104,280,84661,1,0,0:0:0:0:
256,192,84855,12,0,86414,0:0:0:0:
256,192,87583,5,0,0:0:0:0:
256,192,87972,12,0,90310,0:0:0:0:
496,192,91089,6,0,P|480:256|400:288,1,130.000000298024
328,192,91479,2,0,P|312:128|232:96,1,130.000000298024
192,224,91868,1,0,0:0:0:0:
120,96,92063,2,0,P|64:112|24:192,1,130.000000298024
24,32,92453,1,0,0:0:0:0:
160,32,92647,2,0,P|192:96|160:160,1,130.000000298024
160,288,93037,2,0,P|256:256|256:200,1,130.000000298024
264,376,93427,1,0,0:0:0:0:
368,272,93622,2,0,P|432:296|464:368,1,130.000000298024
464,208,94011,1,0,0:0:0:0:
328,160,94206,6,0,P|280:208|192:160,1,130.000000298024
224,64,94596,1,0,0:0:0:0:
112,160,94790,2,0,P|64:208|-24:160,1,130.000000298024
8,64,95180,1,0,0:0:0:0:
152,88,95375,2,0,P|200:136|288:88,1,130.000000298024
320,0,95764,2,0,P|344:64|312:128,1,130.000000298024
200,40,96154,2,0,P|128:24|88:72,1,130.000000298024
160,192,96544,1,0,0:0:0:0:
296,184,96738,1,0,0:0:0:0:
168,264,96933,2,0,P|104:232|96:176,1,130.000000298024
224,184,97323,6,0,P|256:248|336:248,1,130.000000298024
320,120,97712,1,0,0:0:0:0:
416,240,97907,2,0,P|448:304|528:304,1,130.000000298024
512,176,98296,1,0,0:0:0:0:
384,96,98492,2,0,P|360:176|296:184,1,130.000000298024
456,120,98881,2,0,P|440:48|360:24,1,130.000000298024
280,136,99271,2,0,P|256:208|312:256,1,130.000000298024
312,72,99660,2,0,P|248:72|208:136,1,130.000000298024
232,288,100050,2,0,P|168:288|128:224,1,130.000000298024
160,72,100440,5,0,0:0:0:0:
80,192,100635,1,0,0:0:0:0:
112,328,100830,1,0,0:0:0:0:
200,224,101024,2,0,P|264:224|288:328,1,130.000000298024
176,160,101414,2,0,P|248:152|328:192,1,130.000000298024
232,288,101803,1,0,0:0:0:0:
352,216,101998,2,0,P|360:144|288:104,1,130.000000298024
432,200,102388,2,0,P|424:128|376:64,1,130.000000298024
256,88,102777,1,0,0:0:0:0:
205,101,102875,1,0,0:0:0:0:
166,140,102972,1,0,0:0:0:0:
152,192,103070,1,0,0:0:0:0:
166,243,103167,1,0,0:0:0:0:
204,282,103264,1,0,0:0:0:0:
256,296,103362,1,0,0:0:0:0:
308,282,103459,1,0,0:0:0:0:
256,192,103557,12,0,106674,0:0:0:0:
