osu file format v14

[General]
AudioFilename: audio.mp3
AudioLeadIn: 0
PreviewTime: 62063
Countdown: 0
SampleSet: Normal
StackLeniency: 0.7
Mode: 0
LetterboxInBreaks: 0
WidescreenStoryboard: 0

[Editor]
DistanceSpacing: 0.8
BeatDivisor: 2
GridSize: 16
TimelineZoom: 1

[Metadata]
Title:Reboot oN/ 0 (Short Ver.)
TitleUnicode:Reboot oN/↓0 (Short Ver.)
Artist:KOTOKO
ArtistUnicode:KOTOKO
Creator:Julia Brightman
Version:Easy
Source:BALDRSKY "ZERO" 2
Tags:KOTOKO BALDR SKY ZERO 2 eroge
BeatmapID:1012507
BeatmapSetID:473922

[Difficulty]
HPDrainRate:1
CircleSize:2
OverallDifficulty:1
ApproachRate:2
SliderMultiplier:1
SliderTickRate:1

[Events]
//Background and Video events
0,0,"BALDRSKY_ZERO_2_4.jpg",0,0
//Break Periods
//Storyboard Layer 0 (Background)
//Storyboard Layer 1 (Fail)
//Storyboard Layer 2 (Pass)
//Storyboard Layer 3 (Foreground)
//Storyboard Sound Samples

[TimingPoints]
700,389.61038961039,4,1,0,80,1,0
63037,-100,4,1,0,80,0,1
89531,-100,4,1,0,80,0,0

[Colours]
Combo1 : 0,0,255
Combo2 : 128,255,255
Combo3 : 0,255,255
Combo4 : 0,128,255

[HitObjects]
48,192,13167,6,0,L|160:192,3,100
224,224,14725,2,0,L|304:304,1,100
352,352,15505,2,0,L|432:272,1,100
464,192,16284,6,0,L|352:192,3,100
288,224,17842,2,0,L|208:304,1,100
160,352,18622,2,0,L|80:272,1,100
48,192,19401,6,0,L|160:192,3,100
224,160,20959,2,0,L|304:80,1,100
352,32,21739,2,0,L|432:112,1,100
464,192,22518,6,0,L|352:192,3,100
288,160,24076,2,0,L|208:80,1,100
160,32,24856,2,0,L|80:112,1,100
48,176,25635,6,0,L|48:288,1,100
112,336,26414,2,0,L|224:336,1,100
272,272,27193,2,0,P|368:208|416:128,1,200
368,64,28362,1,0,0:0:0:0:
288,96,28751,6,0,L|176:96,1,100
112,128,29531,2,0,L|112:240,1,100
192,208,30310,2,0,P|256:240|336:352,1,200
416,320,31479,1,0,0:0:0:0:
448,240,31868,6,0,L|448:128,1,100
368,128,32648,2,0,L|368:16,1,100
288,48,33427,2,0,L|176:48,1,100
160,128,34206,2,0,L|48:128,1,100
32,208,34985,6,0,P|112:240|176:352,1,200
256,304,36154,1,0,0:0:0:0:
288,224,36544,2,0,P|336:128|432:80,1,200
496,96,37712,1,0,0:0:0:0:
464,176,38102,6,0,L|464:288,1,100
400,336,38881,2,0,L|288:336,1,100
240,272,39660,2,0,P|144:208|96:128,1,200
144,64,40829,1,0,0:0:0:0:
224,96,41219,6,0,L|336:96,1,100
400,128,41998,2,0,L|400:240,1,100
320,208,42777,2,0,P|256:240|176:352,1,200
96,320,43946,1,0,0:0:0:0:
64,240,44336,6,0,L|64:128,1,100
144,128,45116,2,0,L|144:16,1,100
224,48,45895,2,0,L|336:48,1,100
352,128,46674,2,0,L|464:128,1,100
480,208,47453,6,0,P|400:240|336:352,1,200
256,304,48622,1,0,0:0:0:0:
224,224,49012,2,0,P|176:128|80:80,1,200
16,96,50180,1,0,0:0:0:0:
48,176,50570,6,0,L|128:256,1,100
160,320,51349,2,0,L|272:320,1,100
320,256,52128,2,0,P|320:144|384:64,1,200
448,96,53297,1,0,0:0:0:0:
464,176,53687,6,0,L|384:256,1,100
352,320,54466,2,0,L|240:320,1,100
192,256,55245,2,0,P|192:144|128:64,1,200
64,96,56414,1,0,0:0:0:0:
32,176,56803,6,0,L|112:256,1,100
144,320,57583,2,0,L|256:320,1,100
272,240,58362,2,0,L|352:160,1,100
384,96,59141,2,0,L|496:96,1,100
256,192,59920,12,0,61479,0:0:0:0:
480,176,63037,6,0,L|480:288,1,100
416,336,63816,1,0,0:0:0:0:
336,320,64206,1,0,0:0:0:0:
304,240,64596,2,0,L|192:240,1,100
128,208,65375,1,0,0:0:0:0:
112,128,65764,1,0,0:0:0:0:
48,176,66154,6,0,L|48:288,1,100
128,304,66933,1,0,0:0:0:0:
208,320,67323,1,0,0:0:0:0:
288,304,67712,2,0,P|336:192|432:160,1,200
480,128,68881,1,0,0:0:0:0:
432,64,69271,6,0,L|320:64,1,100
256,96,70050,2,0,L|144:96,1,100
128,176,70829,2,0,L|128:288,1,100
48,304,71609,2,0,L|48:192,1,100
256,192,72388,12,0,73946,0:0:0:0:
32,176,75505,6,0,L|32:288,1,100
96,336,76284,1,0,0:0:0:0:
176,320,76674,1,0,0:0:0:0:
208,240,77064,2,0,L|320:240,1,100
384,208,77843,1,0,0:0:0:0:
400,128,78232,1,0,0:0:0:0:
464,176,78622,6,0,L|464:288,1,100
384,304,79401,1,0,0:0:0:0:
304,320,79791,1,0,0:0:0:0:
224,304,80180,2,0,P|176:192|80:160,1,200
32,128,81349,1,0,0:0:0:0:
80,64,81738,6,0,L|192:64,1,100
256,96,82517,2,0,L|368:96,1,100
384,176,83297,2,0,L|384:288,1,100
464,304,84076,2,0,L|464:192,1,100
256,192,84855,12,0,86414,0:0:0:0:
256,192,87583,5,0,0:0:0:0:
256,192,87972,12,0,89531,0:0:0:0:
464,192,91089,6,0,L|352:192,3,100
288,224,92647,2,0,L|208:304,1,100
160,352,93427,2,0,L|80:272,1,100
48,192,94206,6,0,L|160:192,3,100
224,224,95764,2,0,L|304:304,1,100
352,352,96544,2,0,L|432:272,1,100
464,192,97323,6,0,L|352:192,3,100
288,160,98881,2,0,L|208:80,1,100
160,32,99661,2,0,L|80:112,1,100
48,192,100440,6,0,L|160:192,3,100
224,160,101998,2,0,L|304:80,1,100
352,32,102778,2,0,L|432:112,1,100
256,192,103557,12,0,106674,0:0:0:0:
