osu file format v14

[General]
AudioFilename: Re-Sublimity.mp3
AudioLeadIn: 3000
PreviewTime: 53944
Countdown: 0
SampleSet: Soft
StackLeniency: 0.7
Mode: 3
LetterboxInBreaks: 0
SpecialStyle: 0
WidescreenStoryboard: 1

[Editor]
DistanceSpacing: 0.8
BeatDivisor: 4
GridSize: 8
TimelineZoom: 2.3

[Metadata]
Title:Re-sublimity (TV Size)
TitleUnicode:Re-sublimity (TV Size)
Artist:KOTOKO
ArtistUnicode:KOTOKO
Creator:KeppSado
Version:HD
Source:神無月の巫女
Tags:Kannazuki no Miko Destiny of the Shrine Maiden Tomoyuki Nakazawa Kazuya Takase famoss
BeatmapID:1550326
BeatmapSetID:731196

[Difficulty]
HPDrainRate:7.5
CircleSize:4
OverallDifficulty:7.5
ApproachRate:8
SliderMultiplier:1.92
SliderTickRate:1

[Events]
//Background and Video events
0,0,"bg.jpg",0,0
//Break Periods
//Storyboard Layer 0 (Background)
//Storyboard Layer 1 (Fail)
//Storyboard Layer 2 (Pass)
//Storyboard Layer 3 (Foreground)
//Storyboard Sound Samples

[TimingPoints]
722,444.444444444444,4,2,1,40,1,0
9610,-100,4,2,1,55,0,0
54055,-100,4,2,1,55,0,1
82499,-100,4,2,1,55,0,0

[Colours]
Combo1 : 70,242,13
Combo2 : 11,146,244
Combo3 : 236,247,136

[HitObjects]
64,192,722,5,0,0:0:0:0:
448,192,722,128,0,2499:0:0:0:0:
192,192,944,1,0,0:0:0:0:
320,192,1166,1,0,0:0:0:0:
64,192,1388,1,0,0:0:0:0:
320,192,1610,1,0,0:0:0:0:
192,192,1610,1,0,0:0:0:0:
64,192,1833,1,0,0:0:0:0:
192,192,2055,1,0,0:0:0:0:
320,192,2277,1,0,0:0:0:0:
64,192,2499,128,0,4277:0:0:0:0:
192,192,2499,1,0,0:0:0:0:
448,192,2721,1,0,0:0:0:0:
320,192,2944,1,0,0:0:0:0:
192,192,3166,1,0,0:0:0:0:
448,192,3166,1,0,0:0:0:0:
320,192,3388,1,0,0:0:0:0:
192,192,3610,1,0,0:0:0:0:
448,192,3610,1,0,0:0:0:0:
448,192,3833,1,0,0:0:0:0:
192,192,4055,1,0,0:0:0:0:
320,192,4055,1,0,0:0:0:0:
448,192,4277,1,0,0:0:0:0:
320,192,4277,128,0,5166:0:0:0:0:
64,192,4499,1,0,0:0:0:0:
448,192,4721,1,0,0:0:0:0:
192,192,4944,1,0,0:0:0:0:
64,192,5166,128,0,5388:0:0:0:0:
448,192,5166,1,0,0:0:0:0:
192,192,5388,1,0,0:0:0:0:
448,192,5610,128,0,6055:0:0:0:0:
64,192,5610,1,0,0:0:0:0:
320,192,5833,128,0,6055:0:0:0:0:
192,192,6055,1,0,0:0:0:0:
64,192,6055,1,0,0:0:0:0:
64,192,6277,128,0,6499:0:0:0:0:
192,192,6499,128,0,6721:0:0:0:0:
320,192,6721,128,0,6944:0:0:0:0:
448,192,6721,1,0,0:0:0:0:
448,192,6944,1,0,0:0:0:0:
64,192,6944,1,0,0:0:0:0:
192,192,7055,1,0,0:0:0:0:
320,192,7166,1,0,0:0:0:0:
64,192,7277,1,0,0:0:0:0:
192,192,7388,1,0,0:0:0:0:
448,192,7499,1,0,0:0:0:0:
320,192,7610,1,0,0:0:0:0:
192,192,7721,1,0,0:0:0:0:
448,192,7833,1,0,0:0:0:0:
64,192,7833,128,0,9166:0:0:0:0:
320,192,8055,1,0,0:0:0:0:
448,192,8277,1,0,0:0:0:0:
320,192,8499,1,0,0:0:0:0:
448,192,8721,128,0,8944:0:0:0:0:
192,192,8721,1,0,0:0:0:0:
320,192,8944,1,0,0:0:0:0:
448,192,9166,1,0,0:0:0:0:
192,192,9166,128,0,9610:0:0:0:0:
64,192,9388,128,0,9610:0:0:0:0:
320,192,9610,1,2,0:0:0:0:
448,192,9610,1,0,0:0:0:0:
192,192,9833,1,0,0:0:0:0:
320,192,10055,1,0,0:0:0:40:LR_Hit Snare Soft.wav
448,192,10055,1,0,0:0:0:0:
192,192,10166,1,0,0:0:0:0:
64,192,10277,1,0,0:0:0:0:
320,192,10388,1,0,0:0:0:0:
448,192,10499,1,0,0:0:0:40:LR_Hit Snare Soft.wav
192,192,10499,1,0,0:0:0:0:
64,192,10610,1,0,0:0:0:0:
448,192,10721,1,0,0:0:0:0:
320,192,10833,1,0,0:0:0:0:
192,192,10944,1,0,0:0:0:40:LR_Hit Snare Soft.wav
64,192,10944,1,0,0:0:0:0:
448,192,11055,1,0,0:0:0:0:
320,192,11166,1,2,0:0:0:0:
192,192,11277,1,2,0:0:0:0:
64,192,11388,1,2,0:0:0:0:
448,192,11388,1,4,0:0:0:0:
320,192,11388,1,0,0:0:0:0:
192,192,11610,1,0,0:0:0:30:LR2_HatCM.wav
64,192,11833,1,2,0:0:0:0:
448,192,11833,1,8,0:0:0:0:
320,192,11944,1,0,0:0:0:0:
192,192,12055,1,0,0:0:0:30:LR2_HatCM.wav
320,192,12277,1,2,0:0:0:0:
64,192,12277,128,0,12499:0:0:0:0:
448,192,12499,1,0,0:0:0:30:LR2_HatCM.wav
320,192,12721,128,2,12944:0:0:0:0:
192,192,12721,1,8,0:0:0:0:
448,192,12944,128,0,13166:0:0:0:30:LR2_HatCM.wav
64,192,13166,1,2,0:0:0:0:
192,192,13166,1,0,0:0:0:0:
64,192,13388,128,0,13610:0:0:0:30:LR2_HatCM.wav
320,192,13610,1,2,0:0:0:0:
448,192,13610,128,8,13833:0:0:0:0:
192,192,13833,128,0,14055:0:0:0:30:LR2_HatCM.wav
448,192,14055,1,2,0:0:0:0:
320,192,14055,1,0,0:0:0:0:
192,192,14277,1,2,0:0:0:0:
64,192,14277,1,0,0:0:0:0:
320,192,14499,1,2,0:0:0:0:
448,192,14499,1,8,0:0:0:0:
192,192,14610,1,2,0:0:0:0:
64,192,14721,128,0,14944:0:0:0:30:LR2_HatCM.wav
320,192,14833,1,2,0:0:0:0:
192,192,14944,1,2,0:0:0:0:
448,192,14944,1,0,0:0:0:0:
320,192,15166,1,0,0:0:0:30:LR2_HatCM.wav
64,192,15388,1,2,0:0:0:0:
448,192,15388,1,8,0:0:0:0:
320,192,15499,1,0,0:0:0:0:
192,192,15610,1,0,0:0:0:30:LR2_HatCM.wav
448,192,15833,1,2,0:0:0:0:
320,192,15833,1,0,0:0:0:0:
192,192,16055,1,0,0:0:0:30:LR2_HatCM.wav
320,192,16277,1,2,0:0:0:0:
64,192,16277,128,8,16499:0:0:0:0:
448,192,16499,128,2,16721:0:0:0:0:
192,192,16499,1,0,0:0:0:0:
320,192,16721,1,2,0:0:0:0:
192,192,16721,1,4,0:0:0:0:
64,192,16721,1,0,0:0:0:0:
64,192,16944,128,0,17166:0:0:0:30:LR2_HatCM.wav
448,192,17166,1,2,0:0:0:0:
320,192,17166,128,12,17388:0:0:0:0:
192,192,17388,1,2,0:0:0:0:
64,192,17388,128,4,17610:0:0:0:0:
448,192,17610,1,2,0:0:0:0:
320,192,17721,1,2,0:0:0:0:
64,192,17833,1,0,0:0:0:30:LR2_HatCM.wav
192,192,17944,1,2,0:0:0:0:
448,192,18055,1,2,0:0:0:0:
320,192,18166,1,0,0:0:0:30:LR2_HatCM.wav
192,192,18277,1,2,0:0:0:0:
64,192,18388,1,2,0:0:0:0:
448,192,18499,1,2,0:0:0:0:
320,192,18499,1,4,0:0:0:0:
192,192,18499,1,0,0:0:0:0:
320,192,18721,1,0,0:0:0:30:LR2_HatCM.wav
448,192,18944,1,2,0:0:0:0:
64,192,18944,1,8,0:0:0:0:
192,192,19166,1,0,0:0:0:30:LR2_HatCM.wav
320,192,19388,1,2,0:0:0:0:
448,192,19388,1,0,0:0:0:0:
64,192,19610,1,0,0:0:0:30:LR2_HatCM.wav
448,192,19833,1,2,0:0:0:0:
192,192,19833,1,8,0:0:0:0:
320,192,20055,1,0,0:0:0:30:LR2_HatCM.wav
64,192,20277,1,2,0:0:0:0:
192,192,20277,1,0,0:0:0:0:
320,192,20499,1,0,0:0:0:30:LR2_HatCM.wav
192,192,20721,1,2,0:0:0:0:
448,192,20721,1,8,0:0:0:0:
64,192,20944,1,0,0:0:0:30:LR2_HatCM.wav
320,192,21166,1,2,0:0:0:0:
448,192,21166,1,0,0:0:0:0:
192,192,21388,1,0,0:0:0:30:LR2_HatCM.wav
448,192,21610,1,2,0:0:0:0:
64,192,21610,1,8,0:0:0:0:
320,192,21833,1,2,0:0:0:0:
64,192,21944,1,0,0:0:0:0:
448,192,22055,1,2,0:0:0:0:
192,192,22055,1,0,0:0:0:0:
64,192,22277,1,0,0:0:0:30:LR2_HatCM.wav
320,192,22388,1,0,0:0:0:0:
192,192,22499,1,2,0:0:0:0:
448,192,22499,1,8,0:0:0:0:
320,192,22721,1,0,0:0:0:30:LR2_HatCM.wav
64,192,22833,1,0,0:0:0:0:
448,192,22944,1,2,0:0:0:0:
192,192,22944,1,0,0:0:0:0:
64,192,23166,1,0,0:0:0:30:LR2_HatCM.wav
448,192,23277,1,0,0:0:0:0:
320,192,23388,1,2,0:0:0:0:
64,192,23388,1,8,0:0:0:0:
192,192,23610,1,0,0:0:0:30:LR2_HatCM.wav
320,192,23721,1,0,0:0:0:0:
448,192,23833,1,4,0:0:0:0:
192,192,23833,1,2,0:0:0:0:
64,192,23833,1,0,0:0:0:0:
320,192,24055,128,0,24277:0:0:0:30:LR2_HatCM.wav
64,192,24277,1,0,0:0:0:40:LR_Hit Snare Soft.wav
448,192,24277,1,0,0:0:0:0:
192,192,24388,128,0,24610:0:0:0:0:
320,192,24499,1,2,0:0:0:0:
448,192,24610,1,2,0:0:0:0:
64,192,24833,1,2,0:0:0:0:
320,192,24944,1,2,0:0:0:0:
448,192,25166,1,2,0:0:0:0:
192,192,25277,1,2,0:0:0:0:
320,192,25388,128,0,25610:0:0:0:30:LR2_HatCM.wav
192,192,25610,1,2,0:0:0:0:
64,192,25610,1,4,0:0:0:0:
448,192,25610,1,0,0:0:0:0:
192,192,25833,1,0,0:0:0:30:LR2_HatCM.wav
64,192,26055,1,2,0:0:0:0:
448,192,26055,1,8,0:0:0:0:
320,192,26277,1,0,0:0:0:30:LR2_HatCM.wav
192,192,26499,1,2,0:0:0:0:
64,192,26499,1,8,0:0:0:0:
448,192,26721,1,0,0:0:0:30:LR2_HatCM.wav
64,192,26944,1,2,0:0:0:0:
320,192,26944,1,8,0:0:0:0:
192,192,27166,1,0,0:0:0:30:LR2_HatCM.wav
448,192,27388,1,2,0:0:0:0:
64,192,27388,1,8,0:0:0:0:
320,192,27610,1,0,0:0:0:30:LR2_HatCM.wav
448,192,27833,1,2,0:0:0:0:
192,192,27833,1,8,0:0:0:0:
64,192,28055,1,0,0:0:0:30:LR2_HatCM.wav
320,192,28277,1,2,0:0:0:0:
192,192,28277,1,8,0:0:0:0:
448,192,28499,1,0,0:0:0:30:LR2_HatCM.wav
64,192,28721,1,2,0:0:0:0:
320,192,28721,1,8,0:0:0:0:
448,192,28944,1,0,0:0:0:30:LR2_HatCM.wav
64,192,29166,1,2,0:0:0:0:
192,192,29166,1,0,0:0:0:0:
320,192,29277,1,0,0:0:0:0:
448,192,29388,128,0,29610:0:0:0:30:LR2_HatCM.wav
192,192,29610,1,2,0:0:0:0:
320,192,29610,1,0,0:0:0:0:
64,192,29721,128,0,29944:0:0:0:0:
448,192,29833,1,0,0:0:0:30:LR2_HatCM.wav
192,192,30055,1,2,0:0:0:0:
320,192,30055,128,0,30277:0:0:0:0:
64,192,30277,1,0,0:0:0:30:LR2_HatCM.wav
192,192,30499,1,2,0:0:0:0:
448,192,30499,128,0,30721:0:0:0:0:
64,192,30721,128,0,30944:0:0:0:30:LR2_HatCM.wav
192,192,30944,128,2,31166:0:0:0:0:
320,192,30944,1,0,0:0:0:0:
448,192,31166,1,0,0:0:0:30:LR2_HatCM.wav
320,192,31277,128,0,31388:0:0:0:0:
192,192,31388,1,2,0:0:0:0:
64,192,31388,1,8,0:0:0:0:
448,192,31610,128,0,31721:0:0:0:30:LR2_HatCM.wav
320,192,31610,1,0,0:0:0:0:
192,192,31833,1,2,0:0:0:0:
64,192,31833,128,0,32277:0:0:0:0:
320,192,32055,1,2,0:0:0:0:
448,192,32055,1,0,0:0:0:30:LR2_HatCM.wav
192,192,32277,1,2,0:0:0:0:
448,192,32277,128,0,32721:0:0:0:0:
64,192,32499,1,2,0:0:0:0:
192,192,32610,1,2,0:0:0:0:
320,192,32721,1,2,0:0:0:0:
64,192,32721,1,4,0:0:0:0:
192,192,32944,1,0,0:0:0:30:LR2_HatCM.wav
64,192,33166,1,8,0:0:0:0:
448,192,33166,1,2,0:0:0:0:
192,192,33388,1,0,0:0:0:30:LR2_HatCM.wav
320,192,33610,1,2,0:0:0:0:
64,192,33610,1,0,0:0:0:0:
448,192,33833,1,0,0:0:0:30:LR2_HatCM.wav
192,192,34055,1,8,0:0:0:0:
320,192,34055,1,2,0:0:0:0:
64,192,34277,1,0,0:0:0:30:LR2_HatCM.wav
448,192,34499,1,2,0:0:0:0:
192,192,34499,1,0,0:0:0:0:
320,192,34721,1,0,0:0:0:30:LR2_HatCM.wav
192,192,34944,1,8,0:0:0:0:
64,192,34944,1,2,0:0:0:0:
448,192,35166,1,0,0:0:0:30:LR2_HatCM.wav
320,192,35388,1,2,0:0:0:0:
64,192,35388,1,0,0:0:0:0:
448,192,35610,1,0,0:0:0:30:LR2_HatCM.wav
320,192,35833,1,2,0:0:0:0:
192,192,35833,1,8,0:0:0:0:
64,192,36055,1,0,0:0:0:30:LR2_HatCM.wav
192,192,36277,1,2,0:0:0:0:
448,192,36277,1,0,0:0:0:0:
320,192,36499,1,0,0:0:0:30:LR2_HatCM.wav
64,192,36721,1,2,0:0:0:0:
192,192,36721,1,8,0:0:0:0:
448,192,36944,1,0,0:0:0:30:LR2_HatCM.wav
64,192,37166,1,2,0:0:0:0:
320,192,37166,1,0,0:0:0:0:
192,192,37388,1,0,0:0:0:30:LR2_HatCM.wav
448,192,37610,128,4,37833:0:0:0:0:
320,192,37610,1,2,0:0:0:0:
192,192,37833,1,2,0:0:0:0:
64,192,37833,128,4,38055:0:0:0:0:
320,192,38055,1,2,0:0:0:0:
448,192,38055,128,4,38277:0:0:0:0:
64,192,38277,1,2,0:0:0:0:
192,192,38388,1,0,0:0:0:0:
448,192,38499,1,2,0:0:0:0:
320,192,38499,1,8,0:0:0:0:
64,192,38721,128,2,38944:0:0:0:0:
192,192,38721,1,0,0:0:0:0:
448,192,38944,128,2,39388:0:0:0:0:
320,192,38944,1,0,0:0:0:0:
192,192,39055,1,2,0:0:0:0:
64,192,39166,1,2,0:0:0:0:
320,192,39277,1,2,0:0:0:0:
64,192,39388,128,2,39610:0:0:0:0:
192,192,39388,1,0,0:0:0:0:
448,192,39499,1,2,0:0:0:0:
320,192,39610,1,6,0:0:0:0:
192,192,39721,1,2,0:0:0:0:
448,192,39833,1,4,0:0:0:0:
64,192,39833,1,2,0:0:0:0:
320,192,39833,1,0,0:0:0:0:
192,192,40055,1,0,0:0:0:30:LR2_HatCM.wav
448,192,40277,1,2,0:0:0:0:
320,192,40277,1,0,0:0:0:0:
64,192,40499,1,0,0:0:0:30:LR2_HatCM.wav
448,192,40721,1,2,0:0:0:0:
320,192,40721,128,0,40944:0:0:0:0:
64,192,40944,128,0,41166:0:0:0:30:LR2_HatCM.wav
192,192,41166,1,2,0:0:0:0:
320,192,41166,128,0,41388:0:0:0:0:
448,192,41388,128,0,41610:0:0:0:30:LR2_HatCM.wav
64,192,41610,1,2,0:0:0:0:
192,192,41610,128,0,42055:0:0:0:0:
320,192,41833,1,0,0:0:0:30:LR2_HatCM.wav
448,192,42055,1,2,0:0:0:0:
64,192,42055,1,0,0:0:0:0:
320,192,42277,1,0,0:0:0:30:LR2_HatCM.wav
448,192,42499,1,2,0:0:0:0:
64,192,42499,1,0,0:0:0:0:
192,192,42721,1,4,0:0:0:0:
448,192,42944,1,2,0:0:0:0:
320,192,42944,1,0,0:0:0:0:
192,192,43166,1,0,0:0:0:30:LR2_HatCM.wav
448,192,43388,1,2,0:0:0:0:
64,192,43388,1,4,0:0:0:0:
320,192,43388,1,0,0:0:0:0:
192,192,43610,1,0,0:0:0:30:LR2_HatCM.wav
320,192,43833,1,2,0:0:0:0:
64,192,43833,1,0,0:0:0:0:
448,192,44055,1,0,0:0:0:30:LR2_HatCM.wav
192,192,44277,1,2,0:0:0:0:
320,192,44277,128,0,44499:0:0:0:0:
64,192,44499,128,0,44721:0:0:0:30:LR2_HatCM.wav
448,192,44721,1,2,0:0:0:0:
320,192,44721,128,0,44944:0:0:0:0:
192,192,44944,128,0,45166:0:0:0:30:LR2_HatCM.wav
448,192,45166,1,2,0:0:0:0:
64,192,45166,128,0,45610:0:0:0:0:
192,192,45388,1,0,0:0:0:30:LR2_HatCM.wav
448,192,45610,1,2,0:0:0:0:
320,192,45610,1,0,0:0:0:0:
64,192,45833,1,0,0:0:0:30:LR2_HatCM.wav
192,192,46055,1,2,0:0:0:0:
448,192,46055,1,0,0:0:0:0:
320,192,46277,1,2,0:0:0:0:
64,192,46277,1,0,0:0:0:0:
448,192,46277,1,4,0:0:0:0:
64,192,46499,1,0,0:0:0:0:
192,192,46499,1,2,0:0:0:0:
448,192,46721,1,2,0:0:0:0:
320,192,46833,1,2,0:0:0:0:
448,192,46944,1,2,0:0:0:0:
192,192,46944,1,4,0:0:0:0:
64,192,46944,128,0,48721:0:0:0:0:
320,192,47166,1,0,0:0:0:30:LR2_HatCM.wav
448,192,47388,1,2,0:0:0:0:
192,192,47388,1,0,0:0:0:0:
320,192,47610,1,0,0:0:0:30:LR2_HatCM.wav
448,192,47833,128,2,47944:0:0:0:0:
448,192,48055,128,0,48277:0:0:0:30:LR2_HatCM.wav
192,192,48277,1,2,0:0:0:0:
320,192,48277,1,0,0:0:0:0:
192,192,48499,1,0,0:0:0:30:LR2_HatCM.wav
448,192,48721,128,2,50055:0:0:0:0:
320,192,48721,1,0,0:0:0:0:
192,192,48944,1,0,0:0:0:30:LR2_HatCM.wav
320,192,49166,1,2,0:0:0:0:
64,192,49166,1,0,0:0:0:0:
192,192,49388,1,0,0:0:0:30:LR2_HatCM.wav
64,192,49610,128,10,49721:0:0:0:0:
64,192,49833,128,0,50055:0:0:0:30:LR2_HatCM.wav
320,192,50055,1,2,0:0:0:0:
192,192,50055,1,8,0:0:0:0:
448,192,50277,1,4,0:0:0:0:
64,192,50499,128,2,50944:0:0:0:0:
192,192,50499,1,4,0:0:0:0:
320,192,50499,1,0,0:0:0:0:
448,192,50721,1,0,0:0:0:30:LR2_HatCM.wav
192,192,50944,128,2,51388:0:0:0:0:
320,192,50944,1,0,0:0:0:0:
64,192,51166,1,0,0:0:0:30:LR2_HatCM.wav
320,192,51388,128,2,51833:0:0:0:0:
64,192,51388,1,4,0:0:0:0:
448,192,51388,1,0,0:0:0:0:
192,192,51610,1,0,0:0:0:30:LR2_HatCM.wav
448,192,51833,128,2,52277:0:0:0:0:
64,192,51833,1,0,0:0:0:0:
192,192,52055,1,2,0:0:0:0:
320,192,52277,1,2,0:0:0:0:
64,192,52277,1,0,0:0:0:0:
192,192,52499,1,2,0:0:0:0:
448,192,52499,1,0,0:0:0:0:
320,192,52721,1,2,0:0:0:0:
64,192,52721,1,0,0:0:0:0:
192,192,52944,1,2,0:0:0:0:
448,192,52944,1,0,0:0:0:0:
320,192,53166,1,2,0:0:0:0:
64,192,53166,1,0,0:0:0:0:
448,192,53277,1,2,0:0:0:0:
192,192,53388,1,2,0:0:0:0:
320,192,53499,1,2,0:0:0:0:
448,192,53610,1,2,0:0:0:0:
64,192,53721,1,2,0:0:0:0:
192,192,53833,1,2,0:0:0:0:
320,192,53944,1,2,0:0:0:0:
64,192,54055,1,2,0:0:0:0:
192,192,54055,128,4,55833:0:0:0:0:
448,192,54055,1,0,0:0:0:0:
320,192,54277,1,0,0:0:0:30:LR2_HatCM.wav
64,192,54499,1,2,0:0:0:0:
448,192,54499,1,8,0:0:0:0:
320,192,54721,1,0,0:0:0:30:LR2_HatCM.wav
64,192,54944,1,2,0:0:0:0:
448,192,55166,1,0,0:0:0:30:LR2_HatCM.wav
320,192,55388,1,2,0:0:0:0:
64,192,55388,1,8,0:0:0:0:
448,192,55610,1,0,0:0:0:30:LR2_HatCM.wav
64,192,55833,1,2,0:0:0:0:
320,192,55833,128,0,57610:0:0:0:0:
192,192,56055,1,0,0:0:0:30:LR2_HatCM.wav
64,192,56277,1,2,0:0:0:0:
448,192,56277,1,8,0:0:0:0:
192,192,56499,1,0,0:0:0:30:LR2_HatCM.wav
448,192,56721,1,2,0:0:0:0:
64,192,56944,1,0,0:0:0:30:LR2_HatCM.wav
192,192,57166,1,2,0:0:0:0:
448,192,57166,1,8,0:0:0:0:
64,192,57388,1,0,0:0:0:30:LR2_HatCM.wav
448,192,57610,128,2,58944:0:0:0:0:
192,192,57610,1,0,0:0:0:0:
64,192,57833,1,0,0:0:0:30:LR2_HatCM.wav
192,192,58055,1,2,0:0:0:0:
320,192,58055,1,8,0:0:0:0:
64,192,58277,1,0,0:0:0:30:LR2_HatCM.wav
192,192,58499,1,2,0:0:0:0:
320,192,58721,1,0,0:0:0:30:LR2_HatCM.wav
192,192,58944,1,2,0:0:0:0:
64,192,58944,1,12,0:0:0:0:
320,192,59166,1,4,0:0:0:0:
448,192,59388,1,2,0:0:0:0:
192,192,59388,1,4,0:0:0:0:
64,192,59610,1,0,0:0:0:30:LR2_HatCM.wav
448,192,59833,1,8,0:0:0:0:
192,192,59833,1,2,0:0:0:0:
320,192,59944,1,0,0:0:0:0:
64,192,60055,1,0,0:0:0:30:LR2_HatCM.wav
192,192,60166,1,0,0:0:0:0:
448,192,60277,1,2,0:0:0:0:
320,192,60277,1,0,0:0:0:0:
320,192,60499,1,2,0:0:0:0:
192,192,60499,1,0,0:0:0:0:
448,192,60721,1,6,0:0:0:0:
64,192,60721,1,8,0:0:0:0:
64,192,60944,1,2,0:0:0:0:
192,192,61055,1,2,0:0:0:0:
448,192,61166,128,4,62944:0:0:0:0:
320,192,61166,1,2,0:0:0:0:
64,192,61388,1,0,0:0:0:30:LR2_HatCM.wav
320,192,61610,1,2,0:0:0:0:
192,192,61610,1,8,0:0:0:0:
64,192,61833,1,0,0:0:0:30:LR2_HatCM.wav
320,192,62055,1,2,0:0:0:0:
192,192,62277,1,0,0:0:0:30:LR2_HatCM.wav
320,192,62499,1,2,0:0:0:0:
64,192,62499,1,8,0:0:0:0:
192,192,62721,1,0,0:0:0:30:LR2_HatCM.wav
320,192,62944,128,2,64721:0:0:0:0:
64,192,62944,1,0,0:0:0:0:
192,192,63166,1,0,0:0:0:30:LR2_HatCM.wav
64,192,63388,1,2,0:0:0:0:
448,192,63388,1,8,0:0:0:0:
192,192,63610,1,0,0:0:0:30:LR2_HatCM.wav
448,192,63833,1,2,0:0:0:0:
64,192,64055,1,0,0:0:0:30:LR2_HatCM.wav
192,192,64277,1,2,0:0:0:0:
448,192,64277,1,8,0:0:0:0:
64,192,64499,1,0,0:0:0:30:LR2_HatCM.wav
192,192,64721,128,2,66055:0:0:0:0:
448,192,64721,1,0,0:0:0:0:
320,192,64944,1,0,0:0:0:30:LR2_HatCM.wav
448,192,65166,1,12,0:0:0:0:
64,192,65166,1,2,0:0:0:0:
320,192,65388,1,0,0:0:0:30:LR2_HatCM.wav
448,192,65610,5,2,0:0:0:0:
64,192,65833,1,0,0:0:0:30:LR2_HatCM.wav
448,192,66055,1,12,0:0:0:0:
320,192,66055,1,2,0:0:0:0:
192,192,66277,5,2,0:0:0:0:
320,192,66277,1,0,0:0:0:0:
64,192,66499,1,2,0:0:0:0:
448,192,66499,1,0,0:0:0:0:
320,192,66721,1,0,0:0:0:30:LR2_HatCM.wav
64,192,66944,1,2,0:0:0:0:
192,192,66944,1,0,0:0:0:0:
192,192,67166,1,2,0:0:0:0:
320,192,67166,1,0,0:0:0:0:
448,192,67388,1,2,0:0:0:0:
320,192,67499,1,2,0:0:0:0:
64,192,67610,1,2,0:0:0:0:
192,192,67721,1,2,0:0:0:0:
448,192,67833,1,2,0:0:0:0:
320,192,67833,1,8,0:0:0:0:
192,192,67944,1,2,0:0:0:0:
64,192,67944,1,0,0:0:0:0:
320,192,68055,1,2,0:0:0:0:
448,192,68055,1,8,0:0:0:0:
192,192,68166,1,2,0:0:0:0:
64,192,68277,1,2,0:0:0:0:
448,192,68277,1,4,0:0:0:0:
320,192,68277,128,0,70055:0:0:0:0:
192,192,68499,1,0,0:0:0:30:LR2_HatCM.wav
64,192,68721,1,2,0:0:0:0:
448,192,68721,1,8,0:0:0:0:
192,192,68944,1,0,0:0:0:30:LR2_HatCM.wav
448,192,69166,1,2,0:0:0:0:
64,192,69388,1,0,0:0:0:30:LR2_HatCM.wav
192,192,69610,1,2,0:0:0:0:
448,192,69610,1,8,0:0:0:0:
64,192,69833,1,0,0:0:0:30:LR2_HatCM.wav
192,192,70055,128,2,71833:0:0:0:0:
448,192,70055,1,0,0:0:0:0:
320,192,70277,1,0,0:0:0:30:LR2_HatCM.wav
64,192,70499,1,2,0:0:0:0:
448,192,70499,1,8,0:0:0:0:
320,192,70721,1,0,0:0:0:30:LR2_HatCM.wav
64,192,70944,1,2,0:0:0:0:
320,192,71166,1,0,0:0:0:30:LR2_HatCM.wav
64,192,71388,1,2,0:0:0:0:
448,192,71388,1,8,0:0:0:0:
320,192,71610,1,0,0:0:0:30:LR2_HatCM.wav
64,192,71833,128,2,73166:0:0:0:0:
448,192,71833,1,0,0:0:0:0:
320,192,72055,1,0,0:0:0:30:LR2_HatCM.wav
448,192,72277,1,2,0:0:0:0:
192,192,72277,1,8,0:0:0:0:
320,192,72499,1,0,0:0:0:30:LR2_HatCM.wav
192,192,72721,1,2,0:0:0:0:
320,192,72944,1,0,0:0:0:30:LR2_HatCM.wav
192,192,73166,1,2,0:0:0:0:
448,192,73166,1,12,0:0:0:0:
320,192,73388,1,4,0:0:0:0:
192,192,73610,1,2,0:0:0:0:
64,192,73610,1,4,0:0:0:0:
320,192,73833,1,0,0:0:0:30:LR2_HatCM.wav
448,192,74055,1,8,0:0:0:0:
64,192,74055,1,2,0:0:0:0:
320,192,74166,1,0,0:0:0:0:
192,192,74277,1,0,0:0:0:30:LR2_HatCM.wav
64,192,74388,1,0,0:0:0:0:
320,192,74499,1,2,0:0:0:0:
448,192,74499,1,0,0:0:0:0:
192,192,74721,1,2,0:0:0:0:
320,192,74721,1,0,0:0:0:0:
448,192,74944,1,6,0:0:0:0:
64,192,74944,1,8,0:0:0:0:
448,192,75166,1,2,0:0:0:0:
320,192,75277,1,2,0:0:0:0:
64,192,75388,128,4,77166:0:0:0:0:
192,192,75388,1,2,0:0:0:0:
448,192,75610,1,0,0:0:0:30:LR2_HatCM.wav
192,192,75833,1,2,0:0:0:0:
320,192,75833,1,8,0:0:0:0:
448,192,76055,1,0,0:0:0:30:LR2_HatCM.wav
192,192,76277,1,2,0:0:0:0:
448,192,76499,1,0,0:0:0:30:LR2_HatCM.wav
320,192,76721,1,2,0:0:0:0:
192,192,76721,1,8,0:0:0:0:
448,192,76944,1,0,0:0:0:30:LR2_HatCM.wav
192,192,77166,128,2,78944:0:0:0:0:
320,192,77166,1,0,0:0:0:0:
448,192,77388,1,0,0:0:0:30:LR2_HatCM.wav
64,192,77610,1,2,0:0:0:0:
320,192,77610,1,8,0:0:0:0:
448,192,77833,1,0,0:0:0:30:LR2_HatCM.wav
320,192,78055,1,2,0:0:0:0:
64,192,78277,1,0,0:0:0:30:LR2_HatCM.wav
320,192,78499,1,2,0:0:0:0:
448,192,78499,1,8,0:0:0:0:
64,192,78721,1,0,0:0:0:30:LR2_HatCM.wav
320,192,78944,128,2,80277:0:0:0:0:
448,192,78944,1,0,0:0:0:0:
192,192,79166,1,0,0:0:0:30:LR2_HatCM.wav
64,192,79388,1,12,0:0:0:0:
448,192,79388,1,2,0:0:0:0:
192,192,79610,1,0,0:0:0:30:LR2_HatCM.wav
448,192,79833,1,2,0:0:0:0:
192,192,80055,1,0,0:0:0:30:LR2_HatCM.wav
64,192,80277,1,12,0:0:0:0:
448,192,80277,1,2,0:0:0:0:
192,192,80499,1,2,0:0:0:0:
448,192,80721,1,2,0:0:0:0:
320,192,80721,1,4,0:0:0:0:
64,192,80721,1,0,0:0:0:0:
192,192,80944,1,0,0:0:0:30:LR2_HatCM.wav
64,192,81166,128,10,81277:0:0:0:0:
320,192,81277,128,0,81388:0:0:0:0:
448,192,81388,128,2,81499:0:0:0:0:
64,192,81499,128,0,81610:0:0:0:0:
192,192,81610,128,2,81721:0:0:0:0:
448,192,81721,128,2,81833:0:0:0:0:
320,192,81833,128,2,81944:0:0:0:0:
192,192,81944,128,2,82055:0:0:0:0:
448,192,82055,128,10,82166:0:0:0:0:
64,192,82166,128,2,82277:0:0:0:0:
320,192,82277,128,2,82388:0:0:0:0:
448,192,82388,128,2,82499:0:0:0:0:
64,192,82499,1,2,0:0:0:0:
192,192,82499,1,4,0:0:0:0:
320,192,82721,128,0,82944:0:0:0:40:LR_Hit Snare Soft.wav
64,192,82944,1,0,0:0:0:40:LR_Hit Snare Soft.wav
192,192,83055,128,0,83277:0:0:0:0:
448,192,83277,128,0,83833:0:0:0:40:LR_Hit Snare Soft.wav
64,192,83388,1,0,0:0:0:0:
192,192,83499,1,0,0:0:0:0:
320,192,83610,128,0,83833:0:0:0:40:LR_Hit Snare Soft.wav
64,192,83833,1,0,0:0:0:0:
192,192,83944,128,0,84166:0:0:0:40:LR_Hit Snare Soft.wav
64,192,84166,1,0,0:0:0:40:LR_Hit Snare Soft.wav
320,192,84277,1,2,0:0:0:0:
448,192,84277,1,0,0:0:0:0:
192,192,84499,1,0,0:0:0:40:LR_Hit Snare Soft.wav
320,192,84610,1,0,0:0:0:40:LR_Hit Snare Soft.wav
448,192,84721,1,2,0:0:0:0:
64,192,84721,1,8,0:0:0:0:
192,192,84833,1,0,0:0:0:40:LR_Hit Snare Soft.wav
448,192,84944,1,2,0:0:0:0:
320,192,85055,1,0,0:0:0:40:LR_Hit Snare Soft.wav
64,192,85166,1,2,0:0:0:0:
192,192,85166,1,8,0:0:0:0:
448,192,85277,1,2,0:0:0:0:
320,192,85388,1,0,0:0:0:40:LR_Hit Snare Soft.wav
64,192,85499,1,2,0:0:0:0:
192,192,85610,1,2,0:0:0:0:
448,192,85610,1,8,0:0:0:0:
320,192,85721,1,0,0:0:0:40:LR_Hit Snare Soft.wav
64,192,85833,1,2,0:0:0:0:
192,192,85944,1,2,0:0:0:0:
320,192,86055,1,2,0:0:0:0:
448,192,86055,1,4,0:0:0:0:
64,192,86055,1,0,0:0:0:0:
