osu file format v14

[General]
AudioFilename: audio.mp3
AudioLeadIn: 0
PreviewTime: 54033
Countdown: 0
SampleSet: Normal
StackLeniency: 0.4
Mode: 0
LetterboxInBreaks: 1
SkinPreference:Default
WidescreenStoryboard: 0

[Editor]
Bookmarks: 54045
DistanceSpacing: 1.2
BeatDivisor: 4
GridSize: 4
TimelineZoom: 1

[Metadata]
Title:Re-sublimity (TV Size)
TitleUnicode:Re-sublimity (TV Size)
Artist:KOTOKO
ArtistUnicode:KOTOKO
Creator:Net0
Version:Normal
Source:神無月の巫女
Tags:Kannazuki no Miko opening old yuri bossandy CXu Niva happy30 Cyril Scarlet S i R i R u Siriru DJPop Doomsday Doomsday93 Andrea osuplayer111 Mismagius Blue Dragon Muya Sure ykcarrot s_i_r_i_r_u
BeatmapID:1734018
BeatmapSetID:827518

[Difficulty]
HPDrainRate:3
CircleSize:3.5
OverallDifficulty:4
ApproachRate:5
SliderMultiplier:1.3
SliderTickRate:2

[Events]
//Background and Video events
0,0,"Kannazuki-no-Miko-kannazuki-no-miko-10351149-1600-1200.jpg",0,0
Video,-472,"video.avi"
//Break Periods
2,18689,24400
//Storyboard Layer 0 (Background)
//Storyboard Layer 1 (Fail)
//Storyboard Layer 2 (Pass)
//Storyboard Layer 3 (Foreground)
//Storyboard Sound Samples

[TimingPoints]
712,444.444444444444,4,1,0,70,1,0
712,-100,4,1,0,70,0,0
25600,-100,4,1,0,50,0,0
54045,-100,4,1,0,70,0,1
66489,-100,4,1,0,70,0,0
68267,-100,4,1,0,70,0,1
79378,-100,4,1,0,70,0,0
79489,-100,4,2,0,50,0,0
79823,-100,4,2,0,45,0,0
80267,-100,4,2,0,40,0,0
80711,-100,4,2,0,35,0,0
81156,-100,4,2,0,30,0,0
81600,-100,4,2,0,25,0,0
82045,-100,4,2,0,20,0,0
82489,-100,4,1,0,15,0,0

[Colours]
Combo1 : 68,114,219
Combo2 : 254,220,82
Combo3 : 249,0,0
Combo4 : 30,166,53

[HitObjects]
97,347,712,6,0,L|98:193,1,130,0|0,0:0|0:0,0:0:0:0:
256,217,1600,2,0,L|256:346,1,130,0|0,0:0|0:0,0:0:0:0:
415,347,2489,2,0,L|414:193,1,130,0|0,0:0|0:0,0:0:0:0:
335,219,3156,1,0,0:0:0:0:
177,219,3600,1,0,0:0:0:0:
256,84,4045,1,2,0:0:0:0:
308,142,4267,6,0,L|437:141,1,130,0|0,0:0|0:0,0:0:0:0:
437,296,5156,2,0,L|308:296,1,130,0|0,0:0|0:0,0:0:0:0:
256,237,5823,1,0,0:0:0:0:
256,81,6267,2,0,L|256:16,2,65,0|0|0,0:0|0:0|0:0,0:0:0:0:
177,83,6934,2,0,B|142:96|114:83|114:83|86:68|52:83,1,130,0|0,0:0|0:0,0:0:0:0:
102,230,7823,6,0,L|101:359,1,130
257,360,8712,2,0,L|256:230,1,130,0|0,0:0|0:0,0:0:0:0:
177,229,9379,1,0,0:0:0:0:
180,306,9600,6,0,B|180:382,2,65,0|0|8,0:0|0:0|0:0,0:0:0:0:
184,149,10489,2,0,P|182:116|169:86,1,65,8|0,0:0|0:0,0:0:0:0:
105,134,10934,1,0,0:0:0:0:
194,6,11378,5,4,0:0:0:0:
350,6,11823,1,8,0:0:0:0:
350,161,12267,2,0,L|350:235,1,65,0|0,0:0|0:0,0:0:0:0:
292,277,12711,2,0,P|349:305|406:278,1,130,8|0,0:0|0:0,0:0:0:0:
509,160,13600,1,8,0:0:0:0:
428,26,14045,1,0,0:0:0:0:
377,85,14267,2,0,L|248:85,1,130,0|8,0:0|0:0,0:0:0:0:
196,144,14934,1,0,0:0:0:0:
39,144,15379,5,8,0:0:0:0:
39,299,15823,1,0,0:0:0:0:
194,299,16267,2,0,L|259:299,1,65,8|0,0:0|0:0,0:0:0:0:
310,356,16711,2,0,P|337:299|310:242,1,130,0|8,0:0|0:0,0:0:0:0:
312,85,17600,2,0,L|312:20,1,65
390,20,18045,2,0,L|390:86,1,65,0|8,0:0|0:0,0:0:0:0:
351,152,18489,1,4,0:0:0:0:
217,358,25600,6,0,B|154:371|154:371|90:357,1,130,4|0,0:0|0:0,0:0:0:0:
0,229,26489,1,0,0:0:0:0:
155,215,26934,2,0,L|155:146,1,65,8|0,0:0|0:0,0:0:0:0:
155,71,27378,2,0,P|219:63|283:74,1,130
418,152,28267,1,0,0:0:0:0:
360,296,28711,1,8,0:0:0:0:
283,262,28934,6,0,B|271:198|271:198|295:138|295:138|283:74,1,195
148,0,30045,1,0,0:0:0:0:
147,152,30489,2,0,L|83:152,1,65,8|0,0:0|0:0,0:0:0:0:
3,153,30934,2,0,B|-10:216|-10:216|4:280,1,130
134,366,31823,1,0,0:0:0:0:
283,327,32267,2,0,L|283:263,1,65,8|0,0:0|0:0,0:0:0:0:
220,215,32711,6,0,B|283:202|283:202|347:216,1,130,4|0,0:0|0:0,0:0:0:0:
429,349,33600,1,0,0:0:0:0:
512,216,34045,2,0,L|512:147,1,65,8|0,0:0|0:0,0:0:0:0:
512,72,34489,2,0,P|448:64|384:75,1,130
256,165,35378,2,0,L|256:235,1,65
260,314,35823,1,8,0:0:0:0:
260,314,36045,6,0,B|229:302|197:314|197:314|167:326|133:314,1,130
116,158,36934,2,0,B|129:95|129:95|115:31,1,130,0|0,0:0|0:0,0:0:0:0:
38,16,37600,1,12,0:0:0:0:
36,172,38045,1,4,0:0:0:0:
34,328,38489,1,0,0:0:0:0:
168,244,38934,2,0,L|233:244,1,65
233,322,39378,2,0,L|167:322,1,65,0|0,0:0|0:0,0:0:0:0:
101,283,39823,5,4,0:0:0:0:
104,128,40267,2,0,B|104:64|104:64|112:32,2,97.5,0|0|0,0:0|0:0|0:0,0:0:0:0:
104,206,41156,1,0,0:0:0:0:
259,210,41600,1,0,0:0:0:0:
259,210,41823,2,0,B|323:224|323:224|386:211,1,130
447,163,42489,2,0,L|516:163,2,65,0|4|8,0:0|0:0|0:0,0:0:0:0:
309,88,43378,5,4,0:0:0:0:
153,88,43822,2,0,B|89:88|89:88|57:80,2,97.5,0|0|0,0:0|0:0|0:0,0:0:0:0:
231,88,44711,1,0,0:0:0:0:
235,244,45156,1,0,0:0:0:0:
235,244,45379,2,0,B|171:230|171:230|108:243,1,130
47,291,46045,2,0,L|47:360,2,65,0|4|8,0:0|0:0|0:0,0:0:0:0:
47,134,46934,5,4,0:0:0:0:
202,134,47378,2,0,B|202:70|202:70|194:38,2,97.5,0|0|0,0:0|0:0|0:0,0:0:0:0:
174,207,48267,2,0,L|174:283,1,65,8|0,0:0|0:0,0:0:0:0:
202,347,48711,1,0,0:0:0:0:
358,347,49156,2,0,B|358:283|358:283|350:251,2,97.5
280,353,50045,2,0,L|280:285,1,65,8|0,0:0|0:0,0:0:0:0:
280,210,50489,5,4,0:0:0:0:
280,53,50934,1,8,0:0:0:0:
437,53,51378,1,4,0:0:0:0:
437,210,51823,1,8,0:0:0:0:
279,210,52267,2,0,P|235:229|189:218,2,97.5,8|0|8,0:0|0:0|0:0,0:0:0:0:
233,145,53156,2,0,P|119:172|151:295,1,260,0|4,0:0|0:0,0:0:0:0:
113,363,54267,5,0,0:0:0:0:
113,363,54489,2,0,B|177:363|177:363|209:355,1,97.5,0|2,0:0|0:0,0:0:0:0:
301,281,55156,1,0,0:0:0:0:
301,281,55378,2,0,B|237:281|237:281|205:273,1,97.5,0|2,0:0|0:0,0:0:0:0:
113,199,56045,1,0,0:0:0:0:
113,199,56267,2,0,B|177:199|177:199|209:191,1,97.5,0|2,0:0|0:0,0:0:0:0:
243,78,56934,1,0,0:0:0:0:
243,78,57156,2,0,B|307:78|307:78|339:86,1,97.5,0|2,0:0|0:0,0:0:0:0:
453,128,57823,2,0,B|466:162|453:190|453:190|438:218|453:252,1,130
297,253,58711,6,0,L|232:253,1,65,0|4,0:0|0:0,0:0:0:0:
75,253,59378,1,0,0:0:0:0:
199,158,59823,2,0,L|199:93,1,65,2|0,0:0|0:0,0:0:0:0:
121,93,60267,2,0,L|121:159,1,65,2|0,0:0|0:0,0:0:0:0:
160,225,60712,1,4,0:0:0:0:
160,302,60934,1,2,0:0:0:0:
160,379,61156,6,0,B|224:365|224:365|287:378,1,130,4|0,0:0|0:0,0:0:0:0:
414,298,62045,2,0,P|411:267|414:234,1,65,0|0,0:0|0:0,0:0:0:0:
485,202,62489,2,0,P|488:171|485:138,1,65,0|0,0:0|0:0,0:0:0:0:
413,105,62934,2,0,P|409:73|413:41,1,65,0|0,0:0|0:0,0:0:0:0:
257,45,63600,1,0,0:0:0:0:
257,45,63823,2,0,B|193:59|193:59|130:46,1,130
50,179,64711,6,0,P|53:211|50:243,1,65
18,315,65156,2,0,B|82:303|82:303|142:327|142:327|206:315,1,195,4|4,0:0|0:0,0:0:0:0:
189,159,66267,1,0,0:0:0:0:
258,194,66489,2,0,P|289:191|322:194,1,65,2|0,0:0|0:0,0:0:0:0:
344,268,66933,2,0,P|375:271|408:268,1,65,2|0,0:0|0:0,0:0:0:0:
486,266,67378,1,2,0:0:0:0:
444,115,67823,2,0,B|386:93|386:93|300:91,1,130,4|4,0:0|0:0,0:0:0:0:
300,169,68489,5,0,0:0:0:0:
300,169,68711,2,0,B|364:169|364:169|396:177,1,97.5,0|2,0:0|0:0,0:0:0:0:
488,251,69378,1,0,0:0:0:0:
488,251,69600,2,0,B|424:251|424:251|392:259,1,97.5,0|2,0:0|0:0,0:0:0:0:
300,333,70267,1,0,0:0:0:0:
300,333,70489,2,0,B|364:333|364:333|396:341,1,97.5,0|2,0:0|0:0,0:0:0:0:
506,381,71156,1,0,0:0:0:0:
512,303,71378,2,0,L|512:236,1,65,0|0,0:0|0:0,0:0:0:0:
512,159,71823,2,0,B|448:147|448:147|388:171|388:171|324:159,1,195,0|2,0:0|0:0,0:0:0:0:
182,226,72934,6,0,L|117:226,2,65,0|4|4,0:0|0:0|0:0,0:0:0:0:
254,194,73600,1,6,0:0:0:0:
149,77,74045,1,2,0:0:0:0:
45,194,74489,2,0,B|37:226|37:226|37:290,2,97.5,2|6|2,0:0|0:0|0:0,0:0:0:0:
117,226,75378,1,4,0:0:0:0:
342,158,76045,5,0,0:0:0:0:
342,80,76267,2,0,P|383:31|443:6,1,130,0|0,0:0|0:0,0:0:0:0:
510,47,76934,2,0,L|510:177,1,130,0|0,0:0|0:0,0:0:0:0:
482,330,77823,5,0,0:0:0:0:
412,289,78045,2,0,L|347:289,1,65,0|0,0:0|0:0,0:0:0:0:
277,330,78489,1,0,0:0:0:0:
205,360,78711,2,0,B|193:329|205:297|205:297|217:267|205:233,1,130,0|0,0:0|0:0,0:0:0:0:
256,173,79378,1,4,0:0:0:0:
256,192,79489,12,0,82489,0:0:0:0:
