osu file format v14

[General]
AudioFilename: audio.mp3
AudioLeadIn: 0
PreviewTime: 54033
Countdown: 0
SampleSet: Normal
StackLeniency: 0.4
Mode: 0
LetterboxInBreaks: 1
SkinPreference:Default
WidescreenStoryboard: 0

[Editor]
Bookmarks: 54045
DistanceSpacing: 1.3
BeatDivisor: 4
GridSize: 4
TimelineZoom: 1

[Metadata]
Title:Re-sublimity (TV Size)
TitleUnicode:Re-sublimity (TV Size)
Artist:KOTOKO
ArtistUnicode:KOTOKO
Creator:Net0
Version:Hard
Source:神無月の巫女
Tags:Kannazuki no Miko opening old yuri bossandy CXu Niva happy30 Cyril Scarlet S i R i R u Siriru DJPop Doomsday Doomsday93 Andrea osuplayer111 Mismagius Blue Dragon Muya Sure ykcarrot s_i_r_i_r_u
BeatmapID:1734015
BeatmapSetID:827518

[Difficulty]
HPDrainRate:4
CircleSize:4
OverallDifficulty:5
ApproachRate:6
SliderMultiplier:1.5
SliderTickRate:2

[Events]
//Background and Video events
0,0,"Kannazuki-no-Miko-kannazuki-no-miko-10351149-1600-1200.jpg",0,0
Video,-472,"video.avi"
//Break Periods
2,18689,24550
//Storyboard Layer 0 (Background)
//Storyboard Layer 1 (Fail)
//Storyboard Layer 2 (Pass)
//Storyboard Layer 3 (Foreground)
//Storyboard Sound Samples

[TimingPoints]
712,444.444444444444,4,1,0,70,1,0
712,-133.333333333333,4,1,0,70,0,0
25600,-133.333333333333,4,1,0,50,0,0
53156,-100,4,1,0,70,0,0
54045,-100,4,1,0,70,0,1
66489,-100,4,1,0,70,0,0
68267,-100,4,1,0,70,0,1
79378,-100,4,1,0,70,0,0
79489,-100,4,2,0,50,0,0
79823,-100,4,2,0,45,0,0
80267,-100,4,2,0,40,0,0
80711,-100,4,2,0,35,0,0
81156,-100,4,2,0,30,0,0
81600,-100,4,2,0,25,0,0
82045,-100,4,2,0,20,0,0
82489,-100,4,1,0,70,0,0

[Colours]
Combo1 : 68,114,219
Combo2 : 254,220,82
Combo3 : 249,0,0
Combo4 : 30,166,53

[HitObjects]
256,192,712,5,2,0:0:0:0:
194,227,934,2,0,L|134:262,1,56.2500021457673,0|2,0:0|0:0,0:0:0:0:
256,192,1600,1,2,0:0:0:0:
318,228,1823,2,0,L|383:266,1,56.2500021457673,0|2,0:0|0:0,0:0:0:0:
256,192,2489,5,2,0:0:0:0:
256,120,2711,2,0,L|256:63,1,56.2500021457673,0|2,0:0|0:0,0:0:0:0:
313,17,3156,1,0,0:0:0:0:
199,17,3600,1,0,0:0:0:0:
256,120,4045,1,2,0:0:0:0:
194,155,4267,5,2,0:0:0:0:
132,119,4489,2,0,L|71:84,1,56.2500021457673,0|2,0:0|0:0,0:0:0:0:
194,227,5156,2,0,L|194:283,1,56.2500021457673,2|0,0:0|0:0,0:0:0:0:
194,356,5600,2,0,B|118:356,1,56.2500021457673,2|2,0:0|0:0,0:0:0:0:
46,241,6267,5,0,0:0:0:0:
75,172,6489,1,2,0:0:0:0:
46,103,6711,1,0,0:0:0:0:
75,34,6934,2,0,B|154:0|155:71|236:32,1,168.750006437302,0|0,0:0|0:0,0:0:0:0:
297,74,7823,5,2,0:0:0:0:
355,29,8045,2,0,L|415:-5,1,56.2500021457673,0|2,0:0|0:0,0:0:0:0:
299,146,8711,2,0,L|299:202,1,56.2500021457673,2|0,0:0|0:0,0:0:0:0:
299,275,9156,2,0,B|375:275,1,56.2500021457673,2|2,0:0|0:0,0:0:0:0:
428,275,9600,6,0,B|428:351,2,56.2500021457673,0|0|8,0:0|0:0|0:0,0:0:0:0:
483,139,10489,1,0,0:0:0:0:
425,94,10711,1,0,0:0:0:0:
352,95,10934,2,0,L|282:95,1,56.2500021457673,0|8,0:0|0:0,0:0:0:0:
222,95,11378,5,4,0:0:0:0:
222,241,11823,1,8,0:0:0:0:
222,383,12267,2,0,L|148:383,1,56.2500021457673,0|0,0:0|0:0,0:0:0:0:
92,383,12711,1,8,0:0:0:0:
92,309,12934,2,0,L|92:242,2,56.2500021457673,0|0|0,0:0|0:0|0:0,0:0:0:0:
165,309,13600,6,0,L|229:309,1,56.2500021457673,8|0,0:0|0:0,0:0:0:0:
294,309,14045,1,0,0:0:0:0:
257,245,14267,2,0,L|257:196,2,28.1250010728836,0|8|0,0:0|0:0|0:0,0:0:0:0:
221,309,14711,1,8,0:0:0:0:
258,371,14934,5,0,0:0:0:0:
404,371,15378,1,8,0:0:0:0:
404,224,15823,2,0,L|404:158,1,56.2500021457673,0|0,0:0|0:0,0:0:0:0:
404,94,16267,1,8,0:0:0:0:
404,20,16489,2,0,B|481:20,2,56.2500021457673,0|0|0,0:0|0:0|0:0,0:0:0:0:
339,55,17156,6,0,B|260:55,1,56.2500021457673,8|0,0:0|0:0,0:0:0:0:
209,50,17600,2,0,L|211:19,2,28.1250010728836,0|0|0,0:0|0:0|0:0,0:0:0:0:
242,115,18045,2,0,L|238:150,2,28.1250010728836,0|0|8,0:0|0:0|0:0,0:0:0:0:
168,113,18489,1,4,0:0:0:0:
187,303,25600,6,0,L|100:326,1,84.3750032186509,4|0,0:0|0:0,0:0:0:0:
34,344,26156,1,0,0:0:0:0:
92,251,26489,1,0,0:0:0:0:
92,104,26934,2,0,L|92:47,1,56.2500021457673,8|0,0:0|0:0,0:0:0:0:
165,48,27378,6,0,L|251:24,1,84.3750032186509,0|0,0:0|0:0,0:0:0:0:
318,7,27934,1,0,0:0:0:0:
260,100,28267,2,0,L|260:156,1,56.2500021457673,0|0,0:0|0:0,0:0:0:0:
260,229,28711,1,8,0:0:0:0:
332,229,28934,2,0,L|401:229,1,56.2500021457673,0|0,0:0|0:0,0:0:0:0:
461,229,29378,6,0,L|484:315,2,84.3750032186509,0|0|0,0:0|0:0|0:0,0:0:0:0:
461,82,30489,1,8,0:0:0:0:
461,155,30711,1,0,0:0:0:0:
397,118,30934,2,0,B|339:113|339:113|284:118,1,112.500004291535,0|0,0:0|0:0,0:0:0:0:
163,36,31823,2,0,L|106:36,1,56.2500021457673,0|0,0:0|0:0,0:0:0:0:
49,80,32267,1,8,0:0:0:0:
107,126,32489,1,0,0:0:0:0:
49,170,32711,6,0,L|26:257,1,84.3750032186509,4|0,0:0|0:0,0:0:0:0:
8,323,33267,1,0,0:0:0:0:
101,265,33600,1,0,0:0:0:0:
248,265,34045,2,0,L|305:265,1,56.2500021457673,8|0,0:0|0:0,0:0:0:0:
377,265,34489,6,0,L|400:178,1,84.3750032186509,0|0,0:0|0:0,0:0:0:0:
418,112,35045,1,0,0:0:0:0:
325,170,35378,2,0,L|268:170,1,56.2500021457673,0|0,0:0|0:0,0:0:0:0:
195,183,35823,1,8,0:0:0:0:
148,239,36045,2,0,B|132:185|132:185|148:126,1,112.500004291535
256,29,36934,2,0,L|258:-2,2,28.1250010728836,0|0|0,0:0|0:0|0:0,0:0:0:0:
256,102,37378,1,0,0:0:0:0:
319,65,37600,6,0,L|379:65,1,56.2500021457673,12|4,0:0|0:0,0:0:0:0:
448,65,38045,2,0,L|448:125,1,56.2500021457673,4|0,0:0|0:0,0:0:0:0:
377,139,38489,2,0,L|377:199,1,56.2500021457673,0|8,0:0|0:0,0:0:0:0:
377,268,38934,2,0,L|415:270,2,28.1250010728836
313,232,39378,2,0,L|284:205,2,28.1250010728836
315,305,39823,6,0,L|247:305,1,56.2500021457673,4|0,0:0|0:0,0:0:0:0:
211,360,40267,1,0,0:0:0:0:
174,361,40378,1,0,0:0:0:0:
100,356,40600,2,0,L|125:261,1,84.3750032186509,0|0,0:0|0:0,0:0:0:0:
142,204,41156,1,0,0:0:0:0:
288,204,41600,1,0,0:0:0:0:
214,204,41823,2,0,B|209:146|209:146|214:91,1,112.500004291535,0|0,0:0|0:0,0:0:0:0:
222,19,42489,1,0,0:0:0:0:
149,19,42711,2,0,L|89:19,2,56.2500021457673,4|8|0,0:0|0:0|0:0,0:0:0:0:
140,91,43378,6,0,L|140:159,1,56.2500021457673,4|0,0:0|0:0,0:0:0:0:
86,197,43823,1,0,0:0:0:0:
85,233,43934,1,0,0:0:0:0:
89,306,44155,2,0,L|183:280,1,84.3750032186509,0|0,0:0|0:0,0:0:0:0:
241,264,44711,1,0,0:0:0:0:
353,360,45156,1,0,0:0:0:0:
297,312,45378,2,0,B|355:307|355:307|410:312,1,112.500004291535,0|0,0:0|0:0,0:0:0:0:
481,326,46045,1,0,0:0:0:0:
457,256,46267,2,0,L|458:196,2,56.2500021457673,4|8|0,0:0|0:0|0:0,0:0:0:0:
384,242,46934,6,0,L|385:182,1,56.2500021457673,4|0,0:0|0:0,0:0:0:0:
384,112,47378,2,0,B|351:112,1,28.1250010728836,0|0,0:0|0:0,0:0:0:0:
314,172,47711,2,0,B|281:172,1,28.1250010728836,0|0,0:0|0:0,0:0:0:0:
244,232,48045,1,0,0:0:0:0:
170,232,48267,2,0,L|170:292,1,56.2500021457673,8|0,0:0|0:0,0:0:0:0:
170,361,48711,6,0,L|109:361,1,56.2500021457673,0|0,0:0|0:0,0:0:0:0:
40,369,49156,1,0,0:0:0:0:
41,332,49267,1,0,0:0:0:0:
40,259,49489,2,0,L|18:177,1,84.3750032186509,0|0,0:0|0:0,0:0:0:0:
73,129,50045,1,8,0:0:0:0:
128,178,50267,1,4,0:0:0:0:
182,129,50489,6,0,P|209:132|237:130,1,56.2500021457673,4|0,0:0|0:0,0:0:0:0:
311,129,50934,2,0,P|307:157|311:189,1,56.2500021457673,8|0,0:0|0:0,0:0:0:0:
311,257,51378,2,0,P|283:253|251:257,1,56.2500021457673,4|0,0:0|0:0,0:0:0:0:
181,257,51823,2,0,P|183:229|179:201,1,56.2500021457673,8|0,0:0|0:0,0:0:0:0:
113,231,52267,6,0,P|69:237|25:231,2,84.3750032186509,8|0|8,0:0|0:0|0:0,0:0:0:0:
120,155,53156,2,0,L|116:117,2,37.5,0|0|0,0:0|0:0|0:0,0:0:0:0:
193,129,53600,2,0,L|196:91,2,37.5,0|0|0,0:0|0:0|0:0,0:0:0:0:
270,58,54045,6,0,L|362:66,1,75,4|0,0:0|0:0,0:0:0:0:
426,72,54489,1,0,0:0:0:0:
455,148,54711,2,0,L|409:152,1,37.5,0|2,0:0|0:0,0:0:0:0:
294,161,55156,5,0,0:0:0:0:
212,169,55378,1,0,0:0:0:0:
183,245,55600,2,0,L|230:249,1,37.5,0|2,0:0|0:0,0:0:0:0:
344,256,56045,5,0,0:0:0:0:
426,264,56267,1,0,0:0:0:0:
455,340,56489,2,0,L|408:344,1,37.5,0|2,0:0|0:0,0:0:0:0:
294,354,56934,5,0,0:0:0:0:
214,331,57156,1,0,0:0:0:0:
220,248,57378,2,0,L|228:175,1,37.5,0|2,0:0|0:0,0:0:0:0:
232,128,57711,1,0,0:0:0:0:
192,142,57823,2,0,B|149:125|114:142|114:142|80:160|37:142,1,150,0|0,0:0|0:0,0:0:0:0:
0,0,58711,6,0,P|11:37|-1:98,1,75,0|4,0:0|0:0,0:0:0:0:
46,145,59156,1,4,0:0:0:0:
56,184,59267,2,0,L|32:319,1,112.5,0|0,0:0|0:0,0:0:0:0:
119,285,59823,2,0,L|199:272,1,75,2|0,0:0|0:0,0:0:0:0:
274,261,60267,2,0,L|261:340,1,75,2|0,0:0|0:0,0:0:0:0:
342,350,60711,5,4,0:0:0:0:
357,268,60934,1,2,0:0:0:0:
372,186,61156,2,0,P|430:231|430:303,1,150,4|0,0:0|0:0,0:0:0:0:
357,268,61823,1,0,0:0:0:0:
274,261,62045,2,0,P|270:217|282:185,1,75,0|0,0:0|0:0,0:0:0:0:
325,119,62489,2,0,P|329:75|317:43,1,75,0|0,0:0|0:0,0:0:0:0:
297,10,62823,2,0,P|337:34|413:14,1,112.5,0|0,0:0|0:0,0:0:0:0:
478,0,63378,1,0,0:0:0:0:
462,80,63600,2,0,L|462:139,1,37.5,0|0,0:0|0:0,0:0:0:0:
462,159,63823,6,0,B|407:154|407:154|349:159,2,112.500004291535,0|0|0,0:0|0:0|0:0,0:0:0:0:
444,239,64711,2,0,P|407:230|371:238,1,75,0|0,0:0|0:0,0:0:0:0:
353,318,65156,2,0,B|316:337|279:309|279:309|242:337|205:318,2,150,4|0|0,0:0|0:0|0:0,0:0:0:0:
371,238,66267,2,0,L|371:200,1,37.5,0|0,0:0|0:0,0:0:0:0:
371,159,66489,2,0,P|345:130|309:114,1,75,2|0,0:0|0:0,0:0:0:0:
284,192,66934,2,0,P|250:212|210:214,1,75,2|0,0:0|0:0,0:0:0:0:
228,133,67378,2,0,L|232:95,2,37.5,2|0|0,0:0|0:0|0:0,0:0:0:0:
155,107,67822,2,0,L|152:69,2,37.5,4|0|2,0:0|0:0|0:0,0:0:0:0:
58,66,68267,6,0,L|49:157,1,75,4|0,0:0|0:0,0:0:0:0:
44,222,68711,1,0,0:0:0:0:
114,263,68933,2,0,L|125:218,1,37.5,0|2,0:0|0:0,0:0:0:0:
155,107,69378,5,0,0:0:0:0:
177,28,69600,1,0,0:0:0:0:
257,12,69822,2,0,L|252:58,1,37.5,0|2,0:0|0:0,0:0:0:0:
240,173,70267,5,0,0:0:0:0:
233,255,70489,1,0,0:0:0:0:
303,297,70711,2,0,L|315:251,1,37.5,0|2,0:0|0:0,0:0:0:0:
346,141,71156,1,0,0:0:0:0:
428,149,71378,2,0,P|427:186|433:239,1,75,0|0,0:0|0:0,0:0:0:0:
466,243,71711,2,0,P|343:290|244:375,1,262.5,0|2,0:0|0:0,0:0:0:0:
110,278,72934,6,0,L|22:278,2,75,0|4|4,0:0|0:0|0:0,0:0:0:0:
190,260,73600,2,0,P|170:224|122:196,1,75,6|0,0:0|0:0,0:0:0:0:
89,140,74045,2,0,P|55:153|18:152,1,75,2|0,0:0|0:0,0:0:0:0:
171,127,74489,6,0,P|179:71|209:24,2,112.5,2|6|2,0:0|0:0|0:0,0:0:0:0:
226,188,75378,1,4,0:0:0:0:
226,188,76045,5,0,0:0:0:0:
307,182,76267,2,0,P|362:233|382:304,1,150,0|0,0:0|0:0,0:0:0:0:
307,340,76934,2,0,L|456:340,1,150,0|0,0:0|0:0,0:0:0:0:
457,175,77823,5,0,0:0:0:0:
457,257,78045,2,0,L|364:257,1,75,0|0,0:0|0:0,0:0:0:0:
310,216,78489,1,0,0:0:0:0:
240,257,78711,2,0,B|223:214|240:179|240:179|258:145|240:102,1,150,0|0,0:0|0:0,0:0:0:0:
256,29,79378,1,4,0:0:0:0:
256,192,79489,12,0,82489,0:0:0:0:
