osu file format v14

[General]
AudioFilename: audio.mp3
AudioLeadIn: 0
PreviewTime: 67783
Countdown: 0
SampleSet: Soft
StackLeniency: 0
Mode: 2
LetterboxInBreaks: 0
WidescreenStoryboard: 0

[Editor]
Bookmarks: 13783,25783,30845,31783,43783,55783,56158,66283,67783,79783,88783,91783,103783,108845,109783
DistanceSpacing: 2.4
BeatDivisor: 4
GridSize: 16
TimelineZoom: 1

[Metadata]
Title:One Small Step
TitleUnicode:One Small Step
Artist:KOTOKO
ArtistUnicode:KOTOKO
Creator:Mniam
Version:Salad
Source:蒼の彼方のフォーリズム EXTRA1
Tags:4dpt anime aozora fly boots mashiro mama girl 1 aokana ao no kanata visual novel vn video game japanese pop jpop j-pop rew0825 alexdemon- pure white
BeatmapID:3070008
BeatmapSetID:1497839

[Difficulty]
HPDrainRate:3.5
CircleSize:3
OverallDifficulty:6.6
ApproachRate:6.6
SliderMultiplier:1.6
SliderTickRate:1

[Events]
//Background and Video events
0,0,"aokanaa.png",0,0
//Break Periods
//Storyboard Layer 0 (Background)
//Storyboard Layer 1 (Fail)
//Storyboard Layer 2 (Pass)
//Storyboard Layer 3 (Foreground)
//Storyboard Layer 4 (Overlay)
//Storyboard Sound Samples

[TimingPoints]
1783,375,4,2,1,30,1,0
13783,-100,4,2,2,50,0,0
31783,-100,4,2,3,40,0,0
56158,-100,4,2,3,50,0,0
67783,-100,4,2,3,60,0,1
88783,-100,4,2,3,50,0,0
91783,-100,4,2,2,50,0,0
109783,-100,4,2,2,40,0,0
110533,-100,4,2,2,35,0,0
111283,-100,4,2,2,30,0,0
112033,-100,4,2,2,25,0,0
112783,-100,4,2,2,20,0,0
113533,-100,4,2,2,15,0,0
114283,-100,4,2,2,10,0,0
115033,-100,4,2,2,5,0,0

[Colours]
Combo1 : 154,225,119
Combo2 : 177,175,139
Combo3 : 141,89,200
Combo4 : 120,198,235

[HitObjects]
320,256,2158,6,0,P|352:192|224:128,1,240,2|2,0:0|0:0,0:0:0:0:
64,192,3095,1,2,0:0:0:0:
224,192,3470,1,2,0:0:0:0:
272,304,3658,6,0,P|166:277|185:169,1,240,2|2,0:0|0:0,0:0:0:0:
320,128,4595,1,2,0:0:0:0:
128,256,5158,6,0,P|96:192|224:128,1,240,2|2,0:0|0:0,0:0:0:0:
384,192,6095,1,2,0:0:0:0:
224,192,6470,1,2,0:0:0:0:
176,304,6658,5,2,0:0:0:0:
256,272,6845,2,0,P|304:224|256:160,1,160,0|2,0:0|0:0,0:0:0:0:
176,160,7408,1,2,0:0:0:0:
160,80,7595,1,2,0:0:0:0:
384,176,8158,6,0,L|160:80,1,240,2|2,0:0|0:0,0:0:0:0:
320,64,9095,1,2,0:0:0:0:
160,192,9470,1,2,0:0:0:0:
240,256,9658,6,0,P|320:208|240:128,1,240,2|2,0:0|0:0,0:0:0:0:
80,256,10595,1,2,0:0:0:0:
256,192,11158,12,2,13408,0:0:0:0:
128,160,13783,5,6,0:0:0:0:
80,96,13970,1,2,0:0:0:0:
128,160,14158,1,10,0:0:0:0:
208,112,14345,1,2,0:0:0:0:
288,160,14533,2,0,P|336:176|288:240,1,160,2|8,0:0|0:0,0:0:0:0:
112,160,15095,6,0,P|16:192|112:224,1,240,2|8,0:0|0:0,0:0:0:0:
256,272,16033,2,0,L|96:272,1,160,2|10,0:0|0:0,0:0:0:0:
416,208,16783,6,0,P|448:128|384:112,1,160,2|10,0:0|0:0,0:0:0:0:
320,112,17345,1,2,0:0:0:0:
160,112,17720,1,2,0:0:0:0:
320,112,18095,1,2,0:0:0:0:
144,208,18283,6,0,P|80:208|64:112,1,160,4|10,0:0|0:0,0:0:0:0:
144,208,18845,2,0,P|218:214|233:287,1,160,6|0,0:0|0:0,0:0:0:0:
144,208,19408,1,8,0:0:0:0:
464,160,19783,5,6,0:0:0:0:
480,96,19970,1,2,0:0:0:0:
432,32,20158,1,10,0:0:0:0:
352,80,20345,1,2,0:0:0:0:
432,160,20533,2,0,P|480:176|432:240,1,160,2|8,0:0|0:0,0:0:0:0:
256,256,21095,6,0,P|224:192|352:128,1,240,2|8,0:0|0:0,0:0:0:0:
176,304,22033,2,0,L|16:304,1,160,2|10,0:0|0:0,0:0:0:0:
336,272,22783,6,0,P|384:208|368:128,1,160,2|10,0:0|0:0,0:0:0:0:
272,80,23345,1,2,0:0:0:0:
432,48,23720,1,2,0:0:0:0:
272,64,24095,1,2,0:0:0:0:
448,224,24283,6,0,P|464:160|368:144,1,160,0|10,0:0|0:0,0:0:0:0:
304,208,24845,2,0,L|144:208,1,160,2|0,0:0|0:0,0:0:0:0:
224,160,25408,1,14,0:0:0:0:
237,81,25595,1,2,0:0:0:0:
64,224,25783,6,0,P|48:160|144:144,1,160,6|10,0:0|0:0,0:0:0:0:
208,224,26345,2,0,P|288:208|224:112,1,240,2|10,0:0|0:0,0:0:0:0:
320,160,27095,2,0,P|384:176|400:336,1,240,2|10,0:0|0:0,0:0:0:0:
320,336,27845,2,0,L|64:336,1,240,2|14,0:0|0:0,0:0:0:0:
160,272,28595,1,2,0:0:0:0:
336,128,28783,6,0,P|405:151|394:223,1,160,6|10,0:0|0:0,0:0:0:0:
320,224,29345,2,0,P|240:208|304:112,1,240,2|10,0:0|0:0,0:0:0:0:
192,160,30095,2,0,P|128:176|112:336,1,240,2|10,0:0|0:0,0:0:0:0:
192,336,30845,1,2,0:0:0:0:
320,336,31783,5,4,0:0:0:0:
160,256,32158,1,10,0:0:0:0:
80,256,32345,1,2,0:0:0:0:
160,256,32533,2,0,L|320:256,1,160,2|10,0:0|0:0,0:0:0:0:
240,216,33095,6,0,P|192:232|240:296,1,160,2|2,0:0|0:0,0:0:0:0:
320,256,33658,1,10,0:0:0:0:
240,208,33845,2,0,P|224:144|368:80,1,240,2|8,0:0|0:0,0:0:0:0:
32,144,34783,6,0,L|272:144,2,240,2|2|10,0:0|0:0|0:0,0:0:0:0:
352,240,36283,6,0,L|112:240,2,240,2|2|14,0:0|0:0|0:0,0:0:0:0:
32,128,37783,5,4,0:0:0:0:
192,16,38158,1,10,0:0:0:0:
272,16,38345,1,2,0:0:0:0:
352,16,38533,2,0,P|400:32|352:96,1,160,2|10,0:0|0:0,0:0:0:0:
272,128,39095,6,0,P|240:192|368:256,1,240,2|10,0:0|0:0,0:0:0:0:
192,176,40033,2,0,L|352:176,1,160,2|10,0:0|0:0,0:0:0:0:
32,224,40783,6,0,P|0:144|32:80,1,160,6|8,0:0|0:0,0:0:0:0:
192,144,41533,1,0,0:0:0:0:
272,144,41720,1,0,0:0:0:0:
304,176,41908,1,10,0:0:0:0:
272,208,42095,1,2,0:0:0:0:
96,272,42283,6,0,P|48:240|96:160,1,160,4|8,0:0|0:0,0:0:0:0:
176,160,42845,2,0,P|224:128|176:48,1,160,2|0,0:0|0:0,0:0:0:0:
96,48,43408,1,14,0:0:0:0:
80,128,43595,1,0,0:0:0:0:
256,272,43783,6,0,L|416:272,1,160,4|10,0:0|0:0,0:0:0:0:
448,192,44345,1,2,0:0:0:0:
368,128,44533,2,0,P|304:160|320:240,1,160,2|10,0:0|0:0,0:0:0:0:
400,320,45095,6,0,L|240:320,1,160,2|2,0:0|0:0,0:0:0:0:
160,320,45658,1,10,0:0:0:0:
80,320,45845,2,0,P|64:208|192:182,1,240,2|8,0:0|0:0,0:0:0:0:
496,144,46783,6,0,L|256:144,2,240,2|2|10,0:0|0:0|0:0,0:0:0:0:
176,240,48283,6,0,L|416:240,2,240,6|2|14,0:0|0:0|0:0,0:0:0:0:
496,144,49783,5,4,0:0:0:0:
336,192,50158,2,0,L|160:192,1,160,10|2,0:0|0:0,0:0:0:0:
16,128,50908,1,10,0:0:0:0:
96,96,51095,6,0,P|176:112|96:192,1,240,2|10,0:0|0:0,0:0:0:0:
264,209,52033,1,2,0:0:0:0:
88,289,52408,1,10,0:0:0:0:
408,145,52783,6,0,P|488:161|408:241,1,240,6|2,0:0|0:0,0:0:0:0:
175,178,53908,1,10,0:0:0:0:
479,273,54283,6,0,L|495:113,1,160,6|8,0:0|0:0,0:0:0:0:
415,65,54845,2,0,L|255:65,1,160,2|0,0:0|0:0,0:0:0:0:
335,113,55408,1,14,0:0:0:0:
415,113,55595,1,8,0:0:0:0:
32,240,56158,6,0,P|32:320|112:304,1,160,14|2,0:0|0:0,0:0:0:0:
176,272,56720,1,2,0:0:0:0:
256,224,56908,1,10,0:0:0:0:
288,112,57095,6,0,P|288:160|176:176,1,160,2|2,0:0|0:0,0:0:0:0:
128,96,57658,2,0,L|288:96,2,160,10|2|10,0:0|0:0|0:0,0:0:0:0:
48,96,58595,1,0,0:0:0:0:
480,192,59158,5,14,0:0:0:0:
496,113,59345,1,2,0:0:0:0:
448,48,59533,1,2,0:0:0:0:
368,48,59720,1,2,0:0:0:0:
365,57,59908,1,10,0:0:0:0:
448,64,60095,6,0,P|496:112|448:192,1,160,2|2,0:0|0:0,0:0:0:0:
384,224,60658,1,10,0:0:0:0:
160,224,61220,1,2,0:0:0:0:
144,176,61407,1,10,0:0:0:0:
464,128,61783,6,0,P|464:80|288:64,2,240,14|2|10,0:3|0:0|0:0,0:0:0:0:
144,240,63283,6,0,L|384:240,2,240,10|2|10,0:3|0:0|0:0,0:0:0:0:
464,192,64783,6,0,L|480:32,1,160,10|10,0:3|0:0,0:0:0:0:
320,288,65533,2,0,L|304:128,1,160,10|10,0:3|0:0,0:0:0:0:
384,96,66095,1,8,0:0:0:0:
304,32,66283,1,10,0:3:0:0:
400,160,67783,6,0,L|432:320,1,160,14|8,0:3|0:0,0:0:0:0:
352,320,68345,1,2,0:0:0:0:
176,320,68533,2,0,L|16:320,1,160,10|8,0:3|0:0,0:0:0:0:
336,176,69283,6,0,L|496:176,1,160,10|8,0:3|0:0,0:0:0:0:
416,144,69845,1,2,0:0:0:0:
240,144,70033,2,0,P|192:160|240:224,1,160,10|8,0:3|0:0,0:0:0:0:
320,208,70595,1,2,0:0:0:0:
144,144,70783,6,0,L|112:304,1,160,10|8,0:3|0:0,0:0:0:0:
192,320,71345,1,2,0:0:0:0:
368,272,71533,2,0,P|416:288|368:352,1,160,10|8,0:3|0:0,0:0:0:0:
48,96,72283,5,10,0:3:0:0:
16,176,72470,1,0,0:0:0:0:
64,224,72658,2,0,L|224:224,1,160,8|10,0:0|0:3,0:0:0:0:
384,128,73408,1,8,0:0:0:0:
64,128,73783,6,0,L|224:128,1,160,14|10,0:3|0:0,0:0:0:0:
384,128,74533,2,0,L|416:288,1,160,10|10,0:3|0:0,0:0:0:0:
336,288,75095,1,0,0:0:0:0:
160,192,75283,6,0,L|320:192,1,160,10|10,0:3|0:0,0:0:0:0:
160,192,76033,2,0,P|112:208|160:272,1,160,10|10,0:3|0:0,0:0:0:0:
240,224,76595,1,0,0:0:0:0:
416,96,76783,6,0,L|256:96,1,160,14|10,0:3|0:0,0:0:0:0:
432,80,77533,2,0,L|272:80,1,160,10|10,0:3|0:0,0:0:0:0:
192,80,78095,1,0,0:0:0:0:
368,176,78283,6,0,P|416:192|368:256,1,160,14|8,0:3|0:0,0:0:0:0:
48,96,79033,1,10,0:3:0:0:
16,176,79220,1,0,0:0:0:0:
48,96,79408,1,8,0:0:0:0:
128,64,79595,1,0,0:0:0:0:
304,64,79783,6,0,L|464:64,1,160,14|10,0:3|0:0,0:0:0:0:
336,192,80533,1,10,0:3:0:0:
304,256,80720,1,2,0:0:0:0:
384,128,80908,1,10,0:0:0:0:
416,192,81095,1,2,0:0:0:0:
240,112,81283,6,0,L|80:112,1,160,10|10,0:3|0:0,0:0:0:0:
240,208,82033,1,10,0:3:0:0:
320,208,82220,1,0,0:0:0:0:
352,192,82408,1,10,0:0:0:0:
32,176,82783,6,0,L|16:352,1,160,8|10,0:3|0:0,0:0:0:0:
96,336,83345,1,2,0:0:0:0:
176,336,83532,1,10,0:3:0:0:
96,336,83720,1,2,0:0:0:0:
16,336,83908,1,10,0:0:0:0:
336,256,84283,6,0,P|400:240|352:176,1,160,10|10,0:3|0:0,0:0:0:0:
272,176,84845,2,0,L|432:176,1,160,2|0,0:0|0:0,0:0:0:0:
352,96,85408,1,8,0:0:0:0:
32,176,85783,6,0,L|16:352,1,160,12|8,0:3|0:0,0:0:0:0:
96,336,86345,1,2,0:0:0:0:
272,320,86533,1,10,0:3:0:0:
352,320,86720,1,2,0:0:0:0:
432,320,86908,1,10,0:0:0:0:
112,256,87283,6,0,P|64:240|112:176,1,160,10|10,0:3|0:0,0:0:0:0:
192,176,87845,2,0,L|432:176,1,240,2|14,0:0|0:0,0:0:0:0:
112,96,88783,5,14,0:3:0:0:
352,272,89345,1,8,0:3:0:0:
432,224,89532,1,10,0:3:0:0:
352,176,89720,1,8,0:3:0:0:
32,224,90095,5,8,0:3:0:0:
64,144,90283,1,10,0:3:0:0:
144,128,90470,1,8,0:3:0:0:
464,256,90845,1,8,0:3:0:0:
496,208,91032,1,10,0:3:0:0:
464,256,91220,1,8,0:3:0:0:
384,256,91408,1,2,0:3:0:0:
64,160,91783,5,2,0:0:0:0:
48,81,91970,1,2,0:0:0:0:
128,96,92158,1,10,0:0:0:0:
143,17,92345,1,2,0:0:0:0:
64,160,92533,2,0,P|80:112|192:96,1,160,2|8,0:0|0:0,0:0:0:0:
352,240,93095,6,0,P|464:208|400:128,1,240,2|8,0:0|0:0,0:0:0:0:
256,288,94033,2,0,L|427:288,1,160,2|10,0:0|0:0,0:0:0:0:
96,208,94783,6,0,P|112:128|176:144,1,160,2|10,0:0|0:0,0:0:0:0:
256,224,95345,1,2,0:0:0:0:
96,80,95720,1,2,0:0:0:0:
416,288,96095,6,0,P|464:256|416:176,1,160,2|2,0:0|0:0,0:0:0:0:
336,192,96658,1,10,0:0:0:0:
288,192,96845,1,2,0:0:0:0:
272,192,97033,2,0,L|448:192,1,160,2|10,0:0|0:0,0:0:0:0:
128,80,97783,5,2,0:0:0:0:
98,154,97970,1,2,0:0:0:0:
128,80,98158,1,10,0:0:0:0:
208,64,98345,1,2,0:0:0:0:
288,192,98533,2,0,P|352:160|288:128,1,160,2|8,0:0|0:0,0:0:0:0:
128,256,99095,6,0,L|384:256,1,240,2|8,0:0|0:0,0:0:0:0:
208,208,100033,2,0,L|176:48,1,160,2|10,0:0|0:0,0:0:0:0:
480,208,100783,6,0,P|464:128|400:144,1,160,2|10,0:0|0:0,0:0:0:0:
320,128,101345,1,2,0:0:0:0:
480,208,101720,1,2,0:0:0:0:
176,288,102095,6,0,P|96:272|96:176,1,160,2|2,0:0|0:0,0:0:0:0:
160,176,102658,1,10,0:0:0:0:
240,176,102845,1,2,0:0:0:0:
80,288,103220,1,0,0:0:0:0:
16,256,103408,1,10,0:0:0:0:
32,176,103595,1,2,0:0:0:0:
208,144,103783,6,0,L|368:144,1,160,2|10,0:0|0:0,0:0:0:0:
288,224,104345,2,0,P|208:208|272:112,1,240,2|10,0:0|0:0,0:0:0:0:
176,160,105095,6,0,P|112:176|96:336,1,240,2|10,0:0|0:0,0:0:0:0:
176,336,105845,2,0,L|432:336,1,240,2|10,0:0|0:0,0:0:0:0:
336,272,106595,1,2,0:0:0:0:
160,128,106783,6,0,P|91:151|102:223,1,160,2|10,0:0|0:0,0:0:0:0:
176,224,107345,2,0,P|256:208|192:112,1,240,2|10,0:0|0:0,0:0:0:0:
304,160,108095,2,0,P|368:176|384:336,1,240,2|10,0:0|0:0,0:0:0:0:
304,336,108845,5,2,0:0:0:0:
256,192,109783,12,0,115595,0:0:0:0:
