osu file format v14

[General]
AudioFilename: audio.mp3
AudioLeadIn: 0
PreviewTime: 67783
Countdown: 0
SampleSet: Soft
StackLeniency: 0
Mode: 2
LetterboxInBreaks: 0
WidescreenStoryboard: 1

[Editor]
Bookmarks: 13783,25783,30845,31783,43783,55783,56158,66283,67783,79783,88783,91783,103783,108845,109783
DistanceSpacing: 0.9
BeatDivisor: 4
GridSize: 4
TimelineZoom: 1

[Metadata]
Title:One Small Step
TitleUnicode:One Small Step
Artist:KOTOKO
ArtistUnicode:KOTOKO
Creator:Mniam
Version:Rew's Platter
Source:蒼の彼方のフォーリズム EXTRA1
Tags:4dpt anime aozora fly boots mashiro mama girl 1 aokana ao no kanata visual novel vn video game japanese pop jpop j-pop rew0825 alexdemon- pure white
BeatmapID:3085608
BeatmapSetID:1497839

[Difficulty]
HPDrainRate:4.5
CircleSize:3.4
OverallDifficulty:7.7
ApproachRate:7.7
SliderMultiplier:1.76
SliderTickRate:1

[Events]
//Background and Video events
0,0,"aokanaa.png",0,0
//Break Periods
//Storyboard Layer 0 (Background)
//Storyboard Layer 1 (Fail)
//Storyboard Layer 2 (Pass)
//Storyboard Layer 3 (Foreground)
//Storyboard Layer 4 (Overlay)
//Storyboard Sound Samples

[TimingPoints]
1783,375,4,2,1,30,1,0
13783,-100,4,2,2,50,0,0
31783,-100,4,2,3,40,0,0
56158,-100,4,2,3,50,0,0
67783,-100,4,2,3,60,0,1
88783,-100,4,2,3,50,0,0
91783,-100,4,2,2,50,0,0
109783,-100,4,2,2,40,0,0
110533,-100,4,2,2,35,0,0
111283,-100,4,2,2,30,0,0
112033,-100,4,2,2,25,0,0
112783,-100,4,2,2,20,0,0
113533,-100,4,2,2,15,0,0
114283,-100,4,2,2,10,0,0
115033,-100,4,2,2,5,0,0

[Colours]
Combo1 : 154,225,119
Combo2 : 177,175,139
Combo3 : 141,89,200
Combo4 : 120,198,235

[HitObjects]
408,308,1783,5,0,0:0:0:0:
100,308,2158,2,0,P|48:248|112:200,1,176,2|0,0:0|0:0,0:0:0:0:
196,200,2720,1,2,0:0:0:0:
372,200,3095,1,2,0:0:0:0:
376,112,3283,5,0,0:0:0:0:
288,112,3470,1,2,0:0:0:0:
376,112,3658,2,0,P|420:152|352:216,1,176,2|0,0:0|0:0,0:0:0:0:
264,216,4220,1,2,0:0:0:0:
88,220,4595,1,2,0:0:0:0:
84,308,4783,5,0,0:0:0:0:
392,308,5158,2,0,P|440:236|376:192,1,176,2|0,0:0|0:0,0:0:0:0:
296,192,5720,1,2,0:0:0:0:
120,192,6095,1,2,0:0:0:0:
116,280,6283,5,0,0:0:0:0:
204,280,6470,1,2,0:0:0:0:
116,280,6658,1,2,0:0:0:0:
292,280,6845,2,0,P|380:268|400:192,1,176,0|2,0:0|0:0,0:0:0:0:
312,196,7408,1,2,0:0:0:0:
400,196,7595,1,2,0:0:0:0:
404,108,7783,5,0,0:0:0:0:
96,112,8158,2,0,P|48:184|108:240,1,176,2|0,0:0|0:0,0:0:0:0:
188,236,8720,1,2,0:0:0:0:
364,232,9095,1,2,0:0:0:0:
368,320,9283,5,0,0:0:0:0:
280,324,9470,1,2,0:0:0:0:
368,320,9658,2,0,P|416:264|352:204,1,176,2|0,0:0|0:0,0:0:0:0:
268,208,10220,1,2,0:0:0:0:
92,208,10595,1,2,0:0:0:0:
256,192,10783,12,2,13408,0:0:0:0:
204,164,13783,5,6,0:0:0:0:
120,168,13970,1,2,0:0:0:0:
72,244,14158,1,10,0:0:0:0:
124,316,14345,1,2,0:0:0:0:
300,316,14533,2,0,P|356:260|300:200,1,176,2|8,0:0|0:0,0:0:0:0:
128,200,15095,1,2,0:0:0:0:
40,188,15283,6,0,P|48:128|152:96,1,176,0|8,0:0|0:0,0:0:0:0:
448,96,16033,2,0,L|452:188,1,88,2|0,0:0|0:0,0:0:0:0:
364,184,16408,1,10,0:0:0:0:
452,184,16595,1,0,0:0:0:0:
196,184,16783,6,0,P|136:232|192:296,1,176,2|10,0:0|0:0,0:0:0:0:
364,296,17345,2,0,P|380:220|296:176,1,176,2|2,0:0|0:0,0:0:0:0:
128,180,18095,1,2,0:0:0:0:
304,180,18283,6,0,L|308:88,1,88,4|2,0:0|0:0,0:0:0:0:
220,92,18658,1,10,0:0:0:0:
396,92,18845,2,0,P|372:164|280:188,1,176,6|0,0:0|0:0,0:0:0:0:
460,192,19408,2,0,L|464:288,1,88,8|0,0:0|0:0,0:0:0:0:
200,280,19783,5,6,0:0:0:0:
152,208,19970,1,2,0:0:0:0:
208,140,20158,1,10,0:0:0:0:
296,136,20345,1,2,0:0:0:0:
120,136,20533,2,0,P|60:120|52:16,1,176,2|8,0:0|0:0,0:0:0:0:
224,16,21095,1,2,0:0:0:0:
312,16,21283,6,0,P|380:32|400:128,1,176,0|8,0:0|0:0,0:0:0:0:
100,124,22033,2,0,L|96:212,1,88,2|0,0:0|0:0,0:0:0:0:
184,208,22408,1,10,0:0:0:0:
96,208,22595,1,0,0:0:0:0:
352,208,22783,6,0,P|396:144|328:88,1,176,2|10,0:0|0:0,0:0:0:0:
156,92,23345,2,0,P|72:108|56:200,1,176,2|2,0:0|0:0,0:0:0:0:
356,188,24095,6,0,P|411:133|354:77,1,176,2|2,0:0|0:0,0:0:0:0:
180,188,24658,2,0,P|124:135|184:82,1,176,10|0,0:0|0:0,0:0:0:0:
480,120,25408,1,14,0:0:0:0:
492,168,25501,1,0,0:0:0:0:
476,212,25595,1,2,0:0:0:0:
220,212,25783,6,0,P|168:164|236:104,1,176,6|10,0:0|0:0,0:0:0:0:
404,104,26345,2,0,P|444:160|376:224,1,176,2|0,0:0|0:0,0:0:0:0:
288,228,26908,1,10,0:0:0:0:
112,228,27095,6,0,P|52:288|116:332,1,176,2|0,0:0|0:0,0:0:0:0:
196,332,27658,1,10,0:0:0:0:
372,328,27845,2,0,P|420:260|356:216,1,176,2|0,0:0|0:0,0:0:0:0:
184,216,28408,1,14,0:0:0:0:
140,208,28501,5,0,0:0:0:0:
108,180,28595,1,2,0:0:0:0:
364,180,28783,6,0,P|408:104|348:64,1,176,6|10,0:0|0:0,0:0:0:0:
172,64,29345,2,0,P|128:120|200:184,1,176,2|0,0:0|0:0,0:0:0:0:
280,180,29908,1,10,0:0:0:0:
104,180,30095,6,0,P|48:232|116:288,1,176,2|0,0:0|0:0,0:0:0:0:
192,288,30658,1,10,0:0:0:0:
368,288,30845,1,2,0:0:0:0:
84,288,31783,5,4,0:0:0:0:
260,284,32158,2,0,L|264:192,1,88,10|2,0:0|0:0,0:0:0:0:
176,196,32533,2,0,P|116:172|92:68,1,176,2|10,0:0|0:0,0:0:0:0:
268,72,33095,6,0,P|348:88|368:172,1,176,2|2,0:0|0:0,0:0:0:0:
280,172,33658,1,10,0:0:0:0:
192,172,33845,2,0,P|100:184|68:260,1,176,2|0,0:0|0:0,0:0:0:0:
156,268,34408,1,8,0:0:0:0:
464,268,34783,6,0,P|484:180|412:136,1,176,2|8,0:0|0:0,0:0:0:0:
336,136,35345,2,0,P|292:84|364:28,1,176,2|0,0:0|0:0,0:0:0:0:
448,28,35908,1,10,0:0:0:0:
140,36,36283,5,2,0:0:0:0:
52,40,36470,1,0,0:0:0:0:
140,44,36658,1,8,0:0:0:0:
228,44,36845,2,0,P|296:52|312:148,1,176,2|0,0:0|0:0,0:0:0:0:
136,144,37408,2,0,L|132:232,1,88,14|0,0:0|0:0,0:0:0:0:
388,232,37783,5,4,0:0:0:0:
212,240,38158,2,0,L|208:152,1,88,10|2,0:0|0:0,0:0:0:0:
296,148,38533,2,0,P|344:192|288:268,1,176,2|10,0:0|0:0,0:0:0:0:
112,224,39095,6,0,P|60:164|136:112,1,176,2|0,0:0|0:0,0:0:0:0:
296,108,39658,2,0,L|476:104,1,176,10|2,0:0|0:0,0:0:0:0:
472,280,40408,1,10,0:0:0:0:
172,288,40783,6,0,P|136:220|208:164,1,176,6|8,0:0|0:0,0:0:0:0:
288,164,41345,2,0,P|308:112|216:48,1,176,0|0,0:0|0:0,0:0:0:0:
136,44,41908,2,0,L|132:132,1,88,10|2,0:0|0:0,0:0:0:0:
308,128,42283,5,4,0:0:0:0:
396,132,42470,1,0,0:0:0:0:
392,220,42658,1,8,0:0:0:0:
304,220,42845,2,0,P|248:264|304:336,1,176,2|0,0:0|0:0,0:0:0:0:
476,336,43408,2,0,L|480:248,1,88,14|0,0:0|0:0,0:0:0:0:
224,248,43783,5,4,0:0:0:0:
48,252,44158,2,0,L|44:156,1,88,10|2,0:0|0:0,0:0:0:0:
132,164,44533,2,0,P|216:152|256:68,1,176,2|10,0:0|0:0,0:0:0:0:
80,72,45095,6,0,P|36:124|124:180,1,176,2|2,0:0|0:0,0:0:0:0:
188,188,45658,1,10,0:0:0:0:
276,192,45845,2,0,P|264:260|160:292,1,176,2|0,0:0|0:0,0:0:0:0:
84,292,46408,1,8,0:0:0:0:
384,292,46783,6,0,P|432:220|360:168,1,176,2|8,0:0|0:0,0:0:0:0:
288,168,47345,2,0,P|252:96|328:48,1,176,2|0,0:0|0:0,0:0:0:0:
404,52,47908,1,10,0:0:0:0:
104,48,48283,5,6,0:0:0:0:
100,136,48470,1,0,0:0:0:0:
188,144,48658,1,8,0:0:0:0:
276,144,48845,2,0,P|324:208|256:264,1,176,2|0,0:0|0:0,0:0:0:0:
88,260,49408,2,0,L|84:352,1,88,14|0,0:0|0:0,0:0:0:0:
340,344,49783,5,4,0:0:0:0:
164,344,50158,1,10,0:0:0:0:
340,344,50533,2,0,P|408:332|432:232,1,176,2|10,0:0|0:0,0:0:0:0:
260,236,51095,6,0,L|76:220,1,176,2|0,0:0|0:0,0:0:0:0:
172,220,51658,2,0,L|360:212,2,176,10|2|10,0:0|0:0|0:0,0:0:0:0:
472,224,52783,6,0,P|488:136|428:80,1,176,6|8,0:0|0:0,0:0:0:0:
344,84,53345,2,0,P|272:100|240:200,1,176,2|0,0:0|0:0,0:0:0:0:
412,192,53908,2,0,L|416:280,1,88,10|2,0:0|0:0,0:0:0:0:
240,284,54283,6,0,L|136:280,2,88,6|0|8,0:0|0:0|0:0,0:0:0:0:
416,276,54845,2,0,P|464:212|392:156,1,176,2|0,0:0|0:0,0:0:0:0:
316,152,55408,1,14,0:0:0:0:
404,152,55595,1,8,0:0:0:0:
404,152,55970,1,0,0:0:0:0:
148,156,56158,6,0,P|100:108|172:56,1,176,14|2,0:0|0:0,0:0:0:0:
256,56,56720,1,2,0:0:0:0:
168,56,56908,1,10,0:0:0:0:
344,56,57095,6,0,P|392:100|328:168,1,176,2|2,0:0|0:0,0:0:0:0:
156,168,57658,2,0,L|152:256,1,88,10|0,0:0|0:0,0:0:0:0:
240,256,58033,2,0,P|288:180|224:144,1,176,2|10,0:0|0:0,0:0:0:0:
144,144,58595,1,0,0:0:0:0:
144,144,58970,1,0,0:0:0:0:
400,148,59158,6,0,P|448:104|384:40,1,176,14|2,0:0|0:0,0:0:0:0:
296,36,59720,1,2,0:0:0:0:
384,36,59908,1,10,0:0:0:0:
208,36,60095,6,0,P|168:88|244:148,1,176,2|2,0:0|0:0,0:0:0:0:
412,148,60658,2,0,P|448:188|364:260,1,176,10|0,0:0|0:0,0:0:0:0:
292,264,61220,1,2,0:0:0:0:
380,268,61408,2,0,L|384:176,1,88,10|0,0:0|0:0,0:0:0:0:
128,184,61783,6,0,P|52:168|40:80,1,176,14|8,0:3|0:0,0:0:0:0:
216,84,62345,1,2,0:0:0:0:
304,84,62533,2,0,L|120:84,1,176,8|10,0:3|0:0,0:0:0:0:
436,80,63283,6,0,P|484:128|412:188,1,176,10|8,0:3|0:0,0:0:0:0:
332,188,63845,1,2,0:0:0:0:
244,188,64033,2,0,L|240:276,1,88,8|0,0:3|0:0,0:0:0:0:
416,272,64408,2,0,L|420:360,1,88,10|0,0:0|0:0,0:0:0:0:
164,356,64783,6,0,P|80:344|64:264,1,176,10|10,0:3|0:0,0:0:0:0:
152,264,65345,1,0,0:0:0:0:
328,268,65533,2,0,P|396:256|424:160,1,176,10|10,0:3|0:0,0:0:0:0:
336,164,66095,1,8,0:0:0:0:
160,164,66283,5,10,0:3:0:0:
388,312,67783,6,0,P|444:260|380:200,1,176,14|8,0:3|0:0,0:0:0:0:
300,196,68345,1,2,0:0:0:0:
124,204,68533,2,0,P|68:140|128:104,1,176,10|8,0:3|0:0,0:0:0:0:
216,104,69095,1,2,0:0:0:0:
472,108,69283,6,0,P|468:168|368:200,1,176,10|8,0:3|0:0,0:0:0:0:
280,200,69845,1,2,0:0:0:0:
456,200,70033,2,0,P|492:248|416:320,1,176,10|8,0:3|0:0,0:0:0:0:
336,320,70595,1,2,0:0:0:0:
80,328,70783,6,0,P|36:268|104:220,1,176,10|8,0:3|0:0,0:0:0:0:
192,220,71345,1,2,0:0:0:0:
368,220,71533,2,0,P|428:212|456:112,1,176,10|8,0:3|0:0,0:0:0:0:
368,112,72095,1,2,0:0:0:0:
192,112,72283,6,0,L|16:112,1,176,10|8,0:3|0:0,0:0:0:0:
316,112,73033,2,0,L|128:112,1,176,10|8,0:3|0:0,0:0:0:0:
228,108,73595,1,0,0:0:0:0:
484,108,73783,6,0,L|488:200,1,88,14|0,0:3|0:0,0:0:0:0:
400,196,74158,2,0,L|396:284,1,88,10|0,0:0|0:0,0:0:0:0:
220,284,74533,2,0,L|216:192,1,88,10|0,0:3|0:0,0:0:0:0:
304,196,74908,2,0,L|308:108,1,88,10|0,0:0|0:0,0:0:0:0:
52,104,75283,6,0,L|48:192,1,88,10|0,0:3|0:0,0:0:0:0:
136,192,75658,2,0,L|140:280,1,88,10|0,0:0|0:0,0:0:0:0:
316,280,76033,2,0,L|320:188,1,88,10|0,0:3|0:0,0:0:0:0:
232,192,76408,2,0,L|132:192,1,88,10|0,0:0|0:0,0:0:0:0:
400,188,76783,6,0,L|404:100,1,88,14|0,0:3|0:0,0:0:0:0:
316,96,77158,2,0,L|312:192,1,88,10|0,0:0|0:0,0:0:0:0:
136,188,77533,2,0,L|132:280,1,88,10|0,0:3|0:0,0:0:0:0:
220,280,77908,1,10,0:0:0:0:
132,284,78095,1,0,0:0:0:0:
388,276,78283,6,0,P|444:224|380:176,1,176,14|8,0:3|0:0,0:0:0:0:
296,176,78845,1,2,0:0:0:0:
120,176,79033,1,10,0:3:0:0:
76,172,79126,1,0,0:0:0:0:
56,136,79220,1,0,0:0:0:0:
76,172,79314,1,0,0:0:0:0:
120,176,79408,1,8,0:0:0:0:
208,176,79595,1,0,0:0:0:0:
464,176,79783,6,0,P|456:240|344:276,1,176,14|10,0:3|0:0,0:0:0:0:
64,296,80533,2,0,L|60:204,1,88,10|2,0:3|0:0,0:0:0:0:
148,208,80908,1,10,0:0:0:0:
60,208,81095,1,2,0:0:0:0:
316,208,81283,6,0,P|392:184|408:96,1,176,10|10,0:3|0:0,0:0:0:0:
108,120,82033,2,0,L|104:220,1,88,10|0,0:3|0:0,0:0:0:0:
188,84,82408,1,10,0:0:0:0:
108,120,82595,1,0,0:0:0:0:
360,216,82783,6,0,P|424:224|460:320,1,176,8|10,0:3|0:0,0:0:0:0:
372,320,83345,1,2,0:0:0:0:
196,324,83533,1,10,0:3:0:0:
284,320,83720,1,2,0:0:0:0:
328,244,83908,1,10,0:0:0:0:
312,156,84095,1,0,0:0:0:0:
56,160,84283,6,0,P|20:100|104:40,1,176,10|10,0:3|0:0,0:0:0:0:
264,40,84845,2,0,P|304:108|228:168,1,176,2|0,0:0|0:0,0:0:0:0:
156,172,85408,2,0,L|152:268,1,88,8|0,0:0|0:0,0:0:0:0:
416,260,85783,5,12,0:3:0:0:
504,264,85970,2,0,P|496:332|384:356,1,176,2|2,0:0|0:0,0:0:0:0:
228,364,86533,2,0,L|224:272,1,88,10|2,0:3|0:0,0:0:0:0:
312,272,86908,1,10,0:0:0:0:
224,272,87095,1,0,0:0:0:0:
480,272,87283,6,0,P|492:208|400:148,1,176,10|10,0:3|0:0,0:0:0:0:
236,152,87845,2,0,P|216:88|320:40,1,176,2|0,0:0|0:0,0:0:0:0:
472,36,88408,2,0,L|476:128,1,88,14|0,0:0|0:0,0:0:0:0:
220,128,88783,5,14,0:3:0:0:
60,128,89158,1,0,0:0:0:0:
236,128,89345,1,8,0:3:0:0:
324,128,89533,1,10,0:3:0:0:
304,216,89720,1,8,0:3:0:0:
216,216,89908,1,0,0:0:0:0:
392,212,90095,5,8,0:3:0:0:
396,300,90283,1,10,0:3:0:0:
308,300,90470,1,8,0:3:0:0:
396,300,90658,1,0,0:0:0:0:
220,300,90845,1,8,0:3:0:0:
216,216,91033,1,10,0:3:0:0:
304,216,91220,1,8,0:3:0:0:
128,216,91408,2,0,L|124:128,1,88,2|0,0:3|0:0,0:0:0:0:
380,116,91783,5,2,0:0:0:0:
464,136,91970,1,2,0:0:0:0:
460,224,92158,1,10,0:0:0:0:
372,232,92345,1,2,0:0:0:0:
196,232,92533,2,0,P|160:172|248:124,1,176,2|8,0:0|0:0,0:0:0:0:
408,120,93095,1,2,0:0:0:0:
496,124,93283,6,0,P|472:192|364:216,1,176,0|8,0:0|0:0,0:0:0:0:
80,224,94033,2,0,L|76:132,1,88,2|0,0:0|0:0,0:0:0:0:
164,132,94408,1,10,0:0:0:0:
76,132,94595,1,0,0:0:0:0:
332,128,94783,6,0,P|376:180|296:244,1,176,2|10,0:0|0:0,0:0:0:0:
224,248,95345,2,0,L|220:160,1,88,2|0,0:0|0:0,0:0:0:0:
396,160,95720,2,0,P|464:152|488:56,1,176,2|2,0:0|0:0,0:0:0:0:
312,56,96283,6,0,L|204:52,1,88,0|2,0:0|0:0,0:0:0:0:
228,140,96658,1,10,0:0:0:0:
404,136,96845,2,0,P|452:192|380:256,1,176,2|0,0:0|0:0,0:0:0:0:
216,256,97408,2,0,L|124:248,1,88,10|0,0:0|0:0,0:0:0:0:
384,252,97783,5,2,0:0:0:0:
440,184,97970,1,2,0:0:0:0:
388,116,98158,1,10,0:0:0:0:
300,116,98345,1,2,0:0:0:0:
476,116,98533,2,0,P|484:188|400:240,1,176,2|8,0:0|0:0,0:0:0:0:
228,240,99095,1,2,0:0:0:0:
140,220,99283,6,0,P|72:208|64:112,1,176,0|8,0:0|0:0,0:0:0:0:
368,92,100033,2,0,L|372:184,1,88,2|0,0:0|0:0,0:0:0:0:
284,184,100408,1,10,0:0:0:0:
372,184,100595,1,0,0:0:0:0:
116,188,100783,6,0,P|72:236|140:312,1,176,2|10,0:0|0:0,0:0:0:0:
304,312,101345,2,0,P|392:304|428:228,1,176,2|2,0:0|0:0,0:0:0:0:
128,236,102095,1,2,0:0:0:0:
40,228,102283,1,0,0:0:0:0:
48,140,102470,1,2,0:0:0:0:
140,140,102658,1,10,0:0:0:0:
316,140,102845,2,0,P|369:86|314:23,1,176,2|0,0:0|0:0,0:0:0:0:
132,28,103408,1,10,0:0:0:0:
112,68,103501,1,0,0:0:0:0:
136,104,103595,1,2,0:0:0:0:
392,104,103783,6,0,P|448:156|384:208,1,176,2|10,0:0|0:0,0:0:0:0:
212,208,104345,2,0,P|124:228|104:312,1,176,2|0,0:0|0:0,0:0:0:0:
188,312,104908,1,10,0:0:0:0:
364,308,105095,6,0,P|408:244|340:204,1,176,2|0,0:0|0:0,0:0:0:0:
252,200,105658,1,10,0:0:0:0:
76,200,105845,2,0,P|24:136|96:92,1,176,2|0,0:0|0:0,0:0:0:0:
260,92,106408,1,10,0:0:0:0:
304,84,106501,1,0,0:0:0:0:
336,52,106595,1,2,0:0:0:0:
80,52,106783,6,0,P|32:116|96:168,1,176,2|10,0:0|0:0,0:0:0:0:
268,164,107345,2,0,P|316:212|248:284,1,176,2|0,0:0|0:0,0:0:0:0:
172,284,107908,1,10,0:0:0:0:
348,284,108095,6,0,P|428:272|460:176,1,176,2|0,0:0|0:0,0:0:0:0:
376,192,108658,1,10,0:0:0:0:
200,188,108845,5,2,0:0:0:0:
256,192,109783,12,0,115595,0:0:0:0:
