osu file format v14

[General]
AudioFilename: audio.mp3
AudioLeadIn: 0
PreviewTime: 67783
Countdown: 0
SampleSet: Soft
StackLeniency: 0
Mode: 2
LetterboxInBreaks: 0
WidescreenStoryboard: 1

[Editor]
Bookmarks: 13783,25783,30845,31783,43783,55783,56158,66283,67783,79783,88783,91783,103783,108845,109783
DistanceSpacing: 2.4
BeatDivisor: 4
GridSize: 16
TimelineZoom: 1

[Metadata]
Title:One Small Step
TitleUnicode:One Small Step
Artist:KOTOKO
ArtistUnicode:KOTOKO
Creator:Mniam
Version:Cup
Source:蒼の彼方のフォーリズム EXTRA1
Tags:4dpt anime aozora fly boots mashiro mama girl 1 aokana ao no kanata visual novel vn video game japanese pop jpop j-pop rew0825 alexdemon- pure white
BeatmapID:3070005
BeatmapSetID:1497839

[Difficulty]
HPDrainRate:2.5
CircleSize:2.6
OverallDifficulty:5.5
ApproachRate:5.5
SliderMultiplier:1.5
SliderTickRate:1

[Events]
//Background and Video events
0,0,"aokanaa.png",0,0
//Break Periods
//Storyboard Layer 0 (Background)
//Storyboard Layer 1 (Fail)
//Storyboard Layer 2 (Pass)
//Storyboard Layer 3 (Foreground)
//Storyboard Layer 4 (Overlay)
//Storyboard Sound Samples

[TimingPoints]
1783,375,4,2,1,30,1,0
13783,-100,4,2,2,50,0,0
31783,-100,4,2,3,40,0,0
56158,-100,4,2,3,50,0,0
67783,-100,4,2,3,60,0,1
88783,-100,4,2,3,50,0,0
91783,-100,4,2,2,50,0,0
109783,-100,4,2,2,40,0,0
110533,-100,4,2,2,35,0,0
111283,-100,4,2,2,30,0,0
112033,-100,4,2,2,25,0,0
112783,-100,4,2,2,20,0,0
113533,-100,4,2,2,15,0,0
114283,-100,4,2,2,10,0,0
115033,-100,4,2,2,5,0,0

[Colours]
Combo1 : 154,225,119
Combo2 : 177,175,139
Combo3 : 141,89,200
Combo4 : 120,198,235

[HitObjects]
368,352,2158,6,0,P|448:304|368:256,1,225,2|2,0:0|0:0,0:0:0:0:
224,320,3095,1,2,0:0:0:0:
368,160,3470,1,2,0:0:0:0:
384,64,3658,1,2,0:0:0:0:
176,240,4220,2,0,L|336:208,1,150,2|2,0:0|0:0,0:0:0:0:
144,352,5158,6,0,P|64:304|144:256,1,225,2|2,0:0|0:0,0:0:0:0:
288,320,6095,1,2,0:0:0:0:
144,160,6470,1,2,0:0:0:0:
128,64,6658,1,2,0:0:0:0:
208,16,6845,2,0,P|352:32|320:160,1,300,0|2,0:0|0:0,0:0:0:0:
144,256,8158,6,0,B|240:320|240:320|336:256,1,225,2|2,0:0|0:0,0:0:0:0:
192,160,9095,1,2,0:0:0:0:
336,96,9470,1,2,0:0:0:0:
400,96,9658,1,2,0:0:0:0:
192,272,10220,2,0,L|160:112,1,150,2|2,0:0|0:0,0:0:0:0:
256,192,11158,12,2,13408,0:0:0:0:
208,128,13783,6,0,L|368:128,1,150,6|10,0:0|0:0,0:0:0:0:
208,128,14533,2,0,P|128:176|208:240,1,225,2|2,0:0|0:0,0:0:0:0:
416,240,15658,1,8,0:0:0:0:
272,176,16033,2,0,L|256:336,1,150,2|10,0:0|0:0,0:0:0:0:
400,128,16783,6,0,P|480:176|400:240,1,225,2|2,0:0|0:0,0:0:0:0:
256,240,17720,1,2,0:0:0:0:
400,128,18095,1,2,0:0:0:0:
464,64,18283,2,0,P|448:128|288:144,2,225,4|6|8,0:0|0:0|0:0,0:0:0:0:
320,16,19783,6,0,L|170:16,1,150,6|10,0:0|0:0,0:0:0:0:
320,16,20533,2,0,P|400:64|320:128,1,225,2|2,0:0|0:0,0:0:0:0:
112,128,21658,1,8,0:0:0:0:
256,208,22033,2,0,P|304:272|256:304,1,150,2|10,0:0|0:0,0:0:0:0:
112,272,22783,6,0,L|352:240,1,225,2|2,0:0|0:0,0:0:0:0:
192,144,23720,1,2,0:0:0:0:
336,96,24095,1,2,0:0:0:0:
112,224,24658,1,10,0:0:0:0:
48,288,24845,2,0,P|16:224|128:128,1,225,2|14,0:0|0:0,0:0:0:0:
272,128,25783,5,6,0:0:0:0:
112,224,26345,2,0,L|288:240,1,150,2|0,0:0|0:0,0:0:0:0:
400,96,27095,2,0,L|224:112,1,150,2|0,0:0|0:0,0:0:0:0:
112,224,27845,1,2,0:0:0:0:
336,288,28408,1,14,0:0:0:0:
192,240,28783,5,6,0:0:0:0:
400,176,29345,2,0,L|416:336,1,150,2|0,0:0|0:0,0:0:0:0:
272,144,30095,2,0,L|96:160,1,150,2|0,0:0|0:0,0:0:0:0:
272,224,30845,1,2,0:0:0:0:
48,192,31783,5,4,0:0:0:0:
96,80,32158,2,0,L|256:112,1,150,10|2,0:0|0:0,0:0:0:0:
384,208,32908,1,10,0:0:0:0:
464,272,33095,2,0,L|480:112,1,150,2|2,0:0|0:0,0:0:0:0:
336,32,33845,2,0,P|224:64|224:160,1,225,2|8,0:0|0:0,0:0:0:0:
368,32,34783,6,0,L|496:240,2,225,2|2|10,0:0|0:0|0:0,0:0:0:0:
224,208,36283,2,0,L|16:304,2,225,2|2|14,0:0|0:0|0:0,0:0:0:0:
368,144,37783,5,4,0:0:0:0:
224,80,38158,2,0,L|64:112,1,150,10|2,0:0|0:0,0:0:0:0:
224,176,38908,1,10,0:0:0:0:
304,240,39095,2,0,P|384:224|320:144,1,225,2|10,0:0|0:0,0:0:0:0:
176,352,40033,2,0,L|336:320,1,150,2|10,0:0|0:0,0:0:0:0:
176,128,40783,5,6,0:0:0:0:
32,208,41158,2,0,L|16:368,1,150,8|0,0:0|0:0,0:0:0:0:
160,128,41908,1,10,0:0:0:0:
304,240,42283,2,0,L|480:64,2,225,4|2|14,0:0|0:0|0:0,0:0:0:0:
176,256,43783,5,4,0:0:0:0:
256,160,44158,2,0,L|416:192,1,150,10|2,0:0|0:0,0:0:0:0:
256,160,44908,1,10,0:0:0:0:
176,80,45095,2,0,L|160:240,1,150,2|2,0:0|0:0,0:0:0:0:
304,272,45845,2,0,P|368:240|272:176,1,225,2|8,0:0|0:0,0:0:0:0:
144,32,46783,6,0,L|16:240,2,225,2|2|10,0:0|0:0|0:0,0:0:0:0:
288,208,48283,2,0,L|496:304,2,225,6|2|14,0:0|0:0|0:0,0:0:0:0:
112,208,49783,5,4,0:0:0:0:
256,176,50158,2,0,P|304:128|256:80,1,150,10|2,0:0|0:0,0:0:0:0:
112,80,50908,1,10,0:0:0:0:
32,128,51095,2,0,L|256:160,1,225,2|10,0:0|0:0,0:0:0:0:
400,192,52033,1,2,0:0:0:0:
256,256,52408,1,10,0:0:0:0:
112,192,52783,6,0,L|336:224,2,225,6|2|10,0:0|0:0|0:0,0:0:0:0:
256,336,54283,6,0,P|304:272|272:208,1,150,6|8,0:0|0:0,0:0:0:0:
208,128,54845,1,2,0:0:0:0:
352,80,55220,2,0,L|432:64,2,75,0|14|8,0:0|0:0|0:0,0:0:0:0:
128,288,56158,6,0,P|80:240|128:192,1,150,14|2,0:0|0:0,0:0:0:0:
272,192,56908,1,10,0:0:0:0:
352,192,57095,2,0,L|112:160,1,225,2|10,0:0|0:0,0:0:0:0:
272,64,58033,2,0,L|288:224,1,150,2|10,0:0|0:0,0:0:0:0:
48,288,59158,6,0,P|48:224|128:208,1,150,14|2,0:0|0:0,0:0:0:0:
256,272,59908,2,0,L|336:288,1,75,10|2,0:0|0:0,0:0:0:0:
208,112,60470,2,0,L|192:192,1,75,2|10,0:0|0:0,0:0:0:0:
384,288,61220,2,0,L|400:192,1,75,2|10,0:0|0:0,0:0:0:0:
256,208,61783,6,0,L|496:192,2,225,14|2|10,0:3|0:0|0:0,0:0:0:0:
112,112,63283,2,0,L|352:96,2,225,10|2|10,0:3|0:0|0:0,0:0:0:0:
256,192,64783,6,0,L|272:352,1,150,10|10,0:3|0:0,0:0:0:0:
128,112,65533,2,0,L|112:272,1,150,10|10,0:3|0:0,0:0:0:0:
256,192,66283,5,10,0:3:0:0:
384,288,67783,6,0,P|448:240|368:144,1,225,14|2,0:3|0:0,0:0:0:0:
304,208,68533,2,0,L|144:208,1,150,10|8,0:3|0:0,0:0:0:0:
304,112,69283,2,0,P|384:144|384:272,1,225,10|2,0:3|0:0,0:0:0:0:
320,320,70033,2,0,L|304:160,1,150,10|8,0:3|0:0,0:0:0:0:
448,64,70783,6,0,L|224:64,1,225,10|2,0:3|0:0,0:0:0:0:
304,112,71533,2,0,P|336:208|176:288,1,300,10|10,0:3|0:3,0:0:0:0:
320,224,72658,1,8,0:0:0:0:
336,128,73033,1,10,0:3:0:0:
192,80,73408,1,8,0:0:0:0:
336,128,73783,6,0,L|486:128,1,150,14|10,0:3|0:0,0:0:0:0:
336,224,74533,2,0,L|186:224,1,150,10|10,0:3|0:0,0:0:0:0:
336,224,75283,2,0,L|352:384,1,150,10|10,0:3|0:0,0:0:0:0:
208,96,76033,2,0,L|192:256,1,150,10|10,0:3|0:0,0:0:0:0:
336,224,76783,6,0,L|186:224,1,150,14|10,0:3|0:0,0:0:0:0:
49,126,77533,2,0,L|199:126,1,150,10|10,0:3|0:0,0:0:0:0:
336,128,78283,2,0,P|416:176|336:240,1,225,14|2,0:3|0:0,0:0:0:0:
256,192,79033,2,0,P|192:144|64:272,1,300,10|14,0:3|0:3,0:0:0:0:
208,320,80158,5,10,0:0:0:0:
352,240,80533,2,0,L|384:80,1,150,10|10,0:3|0:0,0:0:0:0:
240,48,81283,1,10,0:3:0:0:
96,128,81658,2,0,L|256:128,2,150,10|10|10,0:0|0:3|0:0,0:0:0:0:
240,208,82783,5,8,0:3:0:0:
384,272,83158,2,0,L|416:64,1,150,10|10,0:0|0:3,0:0:0:0:
288,64,83908,1,10,0:0:0:0:
144,160,84283,2,0,L|336:176,1,150,10|10,0:3|0:0,0:0:0:0:
368,144,84845,2,0,L|144:128,1,225,2|8,0:0|0:0,0:0:0:0:
288,96,85783,6,0,P|368:208|304:272,1,225,12|2,0:3|0:0,0:0:0:0:
240,272,86533,2,0,L|80:256,1,150,10|10,0:3|0:0,0:0:0:0:
240,256,87283,2,0,L|416:240,1,150,10|10,0:3|0:0,0:0:0:0:
304,192,87845,2,0,P|192:192|176:80,1,225,2|14,0:0|0:0,0:0:0:0:
320,96,88783,5,14,0:3:0:0:
112,208,89345,2,0,L|64:144,2,75,8|10|8,0:3|0:3|0:3,0:0:0:0:
259,252,90095,6,0,L|307:188,2,75,8|10|8,0:3|0:3|0:3,0:0:0:0:
112,208,90845,2,0,L|208:208,1,75,8|10,0:3|0:3,0:0:0:0:
336,144,91408,1,2,0:3:0:0:
192,192,91783,6,0,L|176:32,1,150,2|10,0:0|0:0,0:0:0:0:
320,128,92533,2,0,P|400:176|320:240,1,225,2|2,0:0|0:0,0:0:0:0:
112,240,93658,1,8,0:0:0:0:
256,256,94033,2,0,L|272:96,1,150,2|10,0:0|0:0,0:0:0:0:
128,80,94783,6,0,L|352:64,1,225,2|2,0:0|0:0,0:0:0:0:
368,192,95720,1,2,0:0:0:0:
224,256,96095,1,2,0:0:0:0:
160,224,96283,2,0,P|144:144|272:128,2,225,0|2|10,0:0|0:0|0:0,0:0:0:0:
304,256,97783,6,0,L|464:240,1,150,2|10,0:0|0:0,0:0:0:0:
304,192,98533,2,0,P|240:208|224:64,1,225,2|2,0:0|0:0,0:0:0:0:
416,64,99658,1,8,0:0:0:0:
272,176,100033,2,0,L|256:336,1,150,2|10,0:0|0:0,0:0:0:0:
400,352,100783,6,0,P|416:304|272:256,1,225,2|2,0:0|0:0,0:0:0:0:
144,320,101720,1,2,0:0:0:0:
288,256,102095,2,0,P|368:208|288:144,1,225,2|10,0:0|0:0,0:0:0:0:
208,176,102845,1,2,0:0:0:0:
352,112,103408,1,10,0:0:0:0:
208,48,103783,5,2,0:0:0:0:
416,144,104345,2,0,L|432:320,1,150,2|0,0:0|0:0,0:0:0:0:
288,336,105095,2,0,L|128:352,1,150,2|0,0:0|0:0,0:0:0:0:
272,224,105845,1,2,0:0:0:0:
128,160,106408,1,10,0:0:0:0:
272,112,106783,5,2,0:0:0:0:
64,80,107345,2,0,L|48:256,1,150,2|0,0:0|0:0,0:0:0:0:
192,272,108095,2,0,L|352:288,1,150,2|0,0:0|0:0,0:0:0:0:
384,256,108658,1,10,0:0:0:0:
368,176,108845,5,2,0:0:0:0:
256,192,109783,12,0,115595,0:0:0:0:
