osu file format v14

[General]
AudioFilename: audio.mp3
AudioLeadIn: 0
PreviewTime: 67783
Countdown: 0
SampleSet: Soft
StackLeniency: 0
Mode: 2
LetterboxInBreaks: 0
WidescreenStoryboard: 1

[Editor]
Bookmarks: 13783,25783,30845,31783,43783,55783,56158,66283,67783,79783,88783,91783,103783,108845,109783,115595
DistanceSpacing: 1.9
BeatDivisor: 4
GridSize: 16
TimelineZoom: 2

[Metadata]
Title:One Small Step
TitleUnicode:One Small Step
Artist:KOTOKO
ArtistUnicode:KOTOKO
Creator:Mniam
Version:AlexDemon's Rain
Source:蒼の彼方のフォーリズム EXTRA1
Tags:4dpt anime aozora fly boots mashiro mama girl 1 aokana ao no kanata visual novel vn video game japanese pop jpop j-pop rew0825 alexdemon- pure white
BeatmapID:3077634
BeatmapSetID:1497839

[Difficulty]
HPDrainRate:5.5
CircleSize:3.8
OverallDifficulty:8.8
ApproachRate:8.8
SliderMultiplier:1.88
SliderTickRate:1

[Events]
//Background and Video events
0,0,"aokanaa.png",0,0
//Break Periods
//Storyboard Layer 0 (Background)
//Storyboard Layer 1 (Fail)
//Storyboard Layer 2 (Pass)
//Storyboard Layer 3 (Foreground)
//Storyboard Layer 4 (Overlay)
//Storyboard Sound Samples

[TimingPoints]
1783,375,4,2,1,30,1,0
13783,-100,4,2,2,50,0,0
31783,-100,4,2,3,40,0,0
36189,-100,4,2,3,5,0,0
36283,-100,4,2,3,40,0,0
37689,-100,4,2,3,5,0,0
37783,-100,4,2,3,40,0,0
48189,-100,4,2,3,5,0,0
48283,-100,4,2,3,40,0,0
49689,-100,4,2,3,5,0,0
49783,-100,4,2,3,40,0,0
56158,-100,4,2,3,50,0,0
67783,-100,4,2,3,60,0,1
88689,-100,4,2,3,5,0,1
88783,-100,4,2,3,50,0,0
91783,-100,4,2,2,50,0,0
109783,-100,4,2,2,40,0,0
110533,-100,4,2,2,35,0,0
111283,-100,4,2,2,30,0,0
112033,-100,4,2,2,25,0,0
112783,-100,4,2,2,20,0,0
113533,-100,4,2,2,15,0,0
114283,-100,4,2,2,10,0,0
115033,-100,4,2,2,5,0,0

[Colours]
Combo1 : 154,225,119
Combo2 : 177,175,139
Combo3 : 141,89,200
Combo4 : 120,198,235

[HitObjects]
188,233,2158,5,2,0:0:0:0:
366,233,2345,2,0,P|401:171|296:114,1,188,0|2,0:0|0:0,0:0:0:0:
137,117,3095,2,0,P|65:182|148:231,1,188,2|2,0:0|0:0,0:0:0:0:
291,241,3658,6,0,P|339:196|262:116,1,188,2|0,0:0|0:0,0:0:0:0:
99,121,4220,2,0,L|85:217,1,94,2|0,0:0|0:0,0:0:0:0:
263,199,4595,2,0,L|293:297,1,94,2|0,0:0|0:0,0:0:0:0:
342,293,5158,5,2,0:0:0:0:
164,299,5345,2,0,P|109:261|158:163,1,188,0|2,0:0|0:0,0:0:0:0:
338,121,6095,2,0,P|296:226|221:253,1,188,2|2,0:0|0:0,0:0:0:0:
137,256,6658,5,2,0:0:0:0:
390,178,6845,2,0,P|419:221|319:274,1,188,0|2,0:0|0:0,0:0:0:0:
235,286,7408,1,2,0:0:0:0:
328,289,7595,1,2,0:0:0:0:
412,282,8158,5,2,0:0:0:0:
234,287,8345,2,0,P|178:257|208:132,1,188,0|2,0:0|0:0,0:0:0:0:
375,154,9095,2,0,P|407:205|308:254,1,188,2|2,0:0|0:0,0:0:0:0:
141,253,9658,6,0,P|107:196|219:158,1,188,2|0,0:0|0:0,0:0:0:0:
369,135,10220,2,0,L|370:243,1,94,2|0,0:0|0:0,0:0:0:0:
190,231,10595,2,0,L|190:343,1,94,2|0,0:0|0:0,0:0:0:0:
256,192,10970,12,2,13595,0:0:0:0:
107,280,13783,6,0,L|50:178,1,94,6|2,0:0|0:0,0:0:0:0:
239,184,14158,2,0,L|292:86,1,94,10|2,0:0|0:0,0:0:0:0:
104,107,14533,2,0,P|38:183|111:245,1,188,2|8,0:0|0:0,0:0:0:0:
336,243,15095,6,0,P|349:177|259:87,1,188,2|0,0:0|0:0,0:0:0:0:
181,96,15658,2,0,L|74:111,1,94,8|0,0:0|0:0,0:0:0:0:
265,89,16033,2,0,L|266:193,1,94,2|0,0:0|0:0,0:0:0:0:
87,199,16408,2,0,P|59:145|96:117,1,94,10|0,0:0|0:0,0:0:0:0:
329,109,16783,6,0,P|366:172|273:213,1,188,2|10,0:0|0:0,0:0:0:0:
104,232,17345,2,0,P|73:186|109:159,1,94,2|0,0:0|0:0,0:0:0:0:
270,143,17720,2,0,L|284:245,1,94,2|8,0:0|0:0,0:0:0:0:
105,167,18095,1,2,0:0:0:0:
359,221,18283,6,0,L|461:216,2,94,4|2|10,0:0|0:0|0:0,0:0:0:0:
180,227,18845,2,0,P|152:181|241:116,1,188,6|0,0:0|0:0,0:0:0:0:
420,118,19408,2,0,P|444:167|419:208,1,94,8|0,0:0|0:0,0:0:0:0:
175,202,19783,5,6,0:0:0:0:
81,202,19970,2,0,L|190:196,1,94,2|10,0:0|0:0,0:0:0:0:
269,202,20345,1,2,0:0:0:0:
89,202,20533,2,0,P|37:276|119:337,1,188,2|8,0:0|0:0,0:0:0:0:
347,319,21095,6,0,P|372:259|278:205,1,188,2|0,0:0|0:0,0:0:0:0:
189,217,21658,2,0,L|189:330,1,94,8|0,0:0|0:0,0:0:0:0:
368,306,22033,2,0,L|484:308,1,94,2|0,0:0|0:0,0:0:0:0:
282,307,22408,2,0,L|152:315,1,94,10|0,0:0|0:0,0:0:0:0:
444,312,22783,6,0,P|484:255|388:200,1,188,2|10,0:0|0:0,0:0:0:0:
228,196,23345,2,0,L|122:197,1,94,2|0,0:0|0:0,0:0:0:0:
312,205,23720,2,0,P|321:154|290:129,1,94,2|8,0:0|0:0,0:0:0:0:
113,272,24095,6,0,P|52:204|113:160,1,188,2|2,0:0|0:0,0:0:0:0:
293,102,24658,2,0,L|397:99,1,94,10|2,0:0|0:0,0:0:0:0:
293,101,25033,2,0,P|254:121|235:171,1,94,0|0,0:0|0:0,0:0:0:0:
414,191,25408,1,14,0:0:0:0:
397,147,25501,1,0,0:0:0:0:
366,112,25595,1,2,0:0:0:0:
324,91,25689,1,0,0:0:0:0:
169,143,25783,5,6,0:0:0:0:
76,152,25970,2,0,P|51:205|82:216,1,94,2|10,0:0|0:0,0:0:0:0:
245,243,26345,2,0,L|303:138,1,94,2|0,0:0|0:0,0:0:0:0:
111,162,26720,2,0,L|54:68,1,94,0|10,0:0|0:0,0:0:0:0:
317,75,27095,6,0,P|393:145|353:197,1,188,2|0,0:0|0:0,0:0:0:0:
174,200,27658,2,0,L|108:208,2,47,10|0|2,0:0|0:0|0:0,0:0:0:0:
353,195,28033,2,0,L|406:191,2,47,0|0|0,0:0|0:0|0:0,0:0:0:0:
173,211,28408,2,0,L|55:213,1,94,14|2,0:0|0:0,0:0:0:0:
126,212,28689,1,0,0:0:0:0:
282,208,28783,5,6,0:0:0:0:
371,208,28970,2,0,P|387:160|339:124,1,94,2|10,0:0|0:0,0:0:0:0:
107,124,29345,2,0,P|61:141|114:251,1,188,2|0,0:0|0:0,0:0:0:0:
182,235,29908,1,10,0:0:0:0:
435,242,30095,6,0,P|467:172|367:134,1,188,2|0,0:0|0:0,0:0:0:0:
291,121,30658,1,10,0:0:0:0:
38,129,30845,1,2,0:0:0:0:
148,160,31783,5,4,0:0:0:0:
336,160,32158,1,10,0:0:0:0:
430,157,32345,1,2,0:0:0:0:
251,176,32533,2,0,L|206:78,1,94,2|0,0:0|0:0,0:0:0:0:
306,175,32908,1,10,0:0:0:0:
53,167,33095,6,0,P|74:220|220:265,1,188,2|2,0:0|0:0,0:0:0:0:
281,273,33658,1,10,0:0:0:0:
459,278,33845,2,0,P|447:192|344:164,1,188,2|0,0:0|0:0,0:0:0:0:
266,146,34408,2,0,L|165:150,1,94,8|0,0:0|0:0,0:0:0:0:
426,140,34783,6,0,P|451:186|342:237,1,188,2|8,0:0|0:0,0:0:0:0:
181,246,35345,2,0,P|129:206|204:141,1,188,2|0,0:0|0:0,0:0:0:0:
378,134,35908,2,0,P|418:170|365:235,1,141,10|0,0:0|0:0,0:0:0:0:
223,256,36283,6,0,P|169:234|236:158,1,188,2|8,0:0|0:0,0:0:0:0:
406,148,36845,2,0,L|193:147,1,188,2|0,0:0|0:0,0:0:0:0:
39,156,37408,2,0,P|42:226|128:260,1,141,14|0,0:0|0:0,0:0:0:0:
253,197,37783,6,0,P|335:252|282:323,1,188,4|10,0:0|0:0,0:0:0:0:
209,244,38345,1,2,0:0:0:0:
388,246,38533,2,0,P|413:190|322:132,1,188,2|10,0:0|0:0,0:0:0:0:
69,122,39095,6,0,P|22:159|102:263,1,188,2|0,0:0|0:0,0:0:0:0:
243,270,39658,2,0,L|353:271,1,94,10|0,0:0|0:0,0:0:0:0:
157,275,40033,2,0,L|23:276,1,94,2|0,0:0|0:0,0:0:0:0:
242,273,40408,2,0,L|357:270,1,94,10|0,0:0|0:0,0:0:0:0:
81,271,40783,6,0,P|34:205|113:140,1,188,6|8,0:0|0:0,0:0:0:0:
220,127,41345,1,0,0:0:0:0:
342,129,41533,2,0,P|377:187|341:210,1,94,0|0,0:0|0:0,0:0:0:0:
218,209,41908,1,10,0:0:0:0:
367,211,42095,1,2,0:0:0:0:
112,209,42283,6,0,P|97:275|192:317,1,188,4|8,0:0|0:0,0:0:0:0:
286,319,42845,2,0,L|384:315,2,94,2|0|0,0:0|0:0|0:0,0:0:0:0:
107,322,43408,2,0,P|103:270|138:233,1,94,14|0,0:0|0:0,0:0:0:0:
382,236,43783,6,0,P|428:185|350:126,1,188,4|10,0:0|0:0,0:0:0:0:
257,129,44345,1,2,0:0:0:0:
78,136,44533,2,0,P|80:192|208:224,1,188,2|10,0:0|0:0,0:0:0:0:
440,214,45095,6,0,L|243:210,1,188,2|2,0:0|0:0,0:0:0:0:
157,205,45658,1,10,0:0:0:0:
335,213,45845,2,0,P|360:174|300:62,1,188,2|0,0:0|0:0,0:0:0:0:
206,64,46408,2,0,L|102:66,1,94,8|0,0:0|0:0,0:0:0:0:
366,69,46783,6,0,P|427:104|362:184,1,188,2|8,0:0|0:0,0:0:0:0:
196,187,47345,2,0,L|413:187,1,188,2|0,0:0|0:0,0:0:0:0:
204,184,47908,2,0,P|139:135|176:78,1,141,10|0,0:0|0:0,0:0:0:0:
312,80,48283,6,0,P|347:122|255:186,1,188,6|8,0:0|0:0,0:0:0:0:
84,195,48845,2,0,P|91:252|220:265,1,188,2|0,0:0|0:0,0:0:0:0:
381,278,49408,2,0,P|396:177|375:152,1,141,14|0,0:0|0:0,0:0:0:0:
220,152,49783,6,0,L|52:268,1,188,4|10,0:0|0:0,0:0:0:0:
159,143,50345,1,2,0:0:0:0:
338,144,50533,2,0,P|406:206|342:274,1,188,2|10,0:0|0:0,0:0:0:0:
106,288,51095,6,0,P|71:239|148:159,1,188,2|0,0:0|0:0,0:0:0:0:
323,159,51658,2,0,L|325:257,1,94,10|0,0:0|0:0,0:0:0:0:
145,256,52033,2,0,L|143:154,1,94,2|0,0:0|0:0,0:0:0:0:
322,161,52408,2,0,L|375:257,1,94,10|0,0:0|0:0,0:0:0:0:
113,254,52783,6,0,P|79:214|161:125,1,188,6|8,0:0|0:0,0:0:0:0:
327,127,53345,2,0,L|137:124,1,188,2|0,0:0|0:0,0:0:0:0:
393,128,53908,2,0,P|426:178|391:205,1,94,10|2,0:0|0:0,0:0:0:0:
157,221,54283,6,0,L|78:157,1,94,6|0,0:0|0:0,0:0:0:0:
224,160,54658,1,8,0:0:0:0:
83,150,54845,2,0,P|71:221|96:244,1,94,2|0,0:0|0:0,0:0:0:0:
259,243,55220,1,0,0:0:0:0:
79,243,55408,1,14,0:0:0:0:
257,243,55595,1,8,0:0:0:0:
356,254,56158,6,0,P|418:176|337:132,1,188,14|2,0:0|0:0,0:0:0:0:
188,136,56720,2,0,P|169:211|198:236,1,94,2|10,0:0|0:0,0:0:0:0:
428,231,57095,2,0,P|453:183|351:106,1,188,2|2,0:0|0:0,0:0:0:0:
191,91,57658,5,10,0:0:0:0:
99,91,57845,1,0,0:0:0:0:
36,157,58033,1,2,0:0:0:0:
41,249,58220,1,0,0:0:0:0:
111,308,58408,1,10,0:0:0:0:
202,299,58595,1,0,0:0:0:0:
365,302,59158,6,0,L|453:242,1,94,14|2,0:0|0:0,0:0:0:0:
263,254,59533,2,0,L|158:249,1,94,2|2,0:0|0:0,0:0:0:0:
75,243,59908,1,10,0:0:0:0:
328,260,60095,6,0,P|377:210|305:143,1,188,2|2,0:0|0:0,0:0:0:0:
128,112,60658,2,0,P|97:153|174:243,1,188,10|0,0:0|0:0,0:0:0:0:
348,236,61220,1,2,0:0:0:0:
169,248,61408,2,0,L|57:242,1,94,10|0,0:0|0:0,0:0:0:0:
329,240,61783,6,0,P|364:176|262:91,1,188,14|8,0:3|0:0,0:0:0:0:
124,96,62345,2,0,L|351:96,1,188,2|0,0:0|0:0,0:0:0:0:
132,93,62908,2,0,P|125:144|180:175,1,94,10|0,0:0|0:0,0:0:0:0:
407,175,63283,6,0,P|438:218|353:304,1,188,10|8,0:3|0:0,0:0:0:0:
184,305,63845,2,0,P|124:264|202:201,1,188,2|0,0:0|0:0,0:0:0:0:
364,200,64408,2,0,P|385:146|362:123,1,94,10|0,0:0|0:0,0:0:0:0:
110,125,64783,6,0,L|36:203,1,94,10|0,0:3|0:0,0:0:0:0:
224,202,65158,2,0,L|290:270,1,94,10|0,0:0|0:0,0:0:0:0:
110,265,65533,2,0,L|105:152,1,94,10|0,0:3|0:0,0:0:0:0:
284,166,65908,2,0,L|396:167,1,94,10|8,0:0|0:0,0:0:0:0:
330,164,66189,1,0,0:0:0:0:
174,170,66283,5,10,0:3:0:0:
356,264,67783,6,0,P|411:206|329:106,1,188,14|8,0:3|0:0,0:0:0:0:
193,114,68345,1,2,0:0:0:0:
372,112,68533,2,0,L|173:110,1,188,10|8,0:3|0:0,0:0:0:0:
363,110,69095,1,2,0:0:0:0:
108,118,69283,6,0,P|72:172|150:241,1,188,10|8,0:3|0:0,0:0:0:0:
327,234,69845,1,2,0:0:0:0:
148,240,70033,2,0,P|54:202|32:113,1,188,10|8,0:3|0:0,0:0:0:0:
208,112,70595,1,2,0:0:0:0:
462,111,70783,6,0,L|270:108,1,188,10|8,0:3|0:0,0:0:0:0:
95,113,71345,1,2,0:0:0:0:
350,111,71533,2,0,L|380:218,1,94,10|0,0:3|0:0,0:0:0:0:
234,210,71908,2,0,L|217:332,1,94,8|2,0:0|0:0,0:0:0:0:
361,312,72283,6,0,L|245:310,1,94,10|0,0:3|0:0,0:0:0:0:
125,310,72658,2,0,L|252:310,1,94,8|0,0:0|0:0,0:0:0:0:
361,312,73033,2,0,L|489:306,1,94,10|0,0:3|0:0,0:0:0:0:
312,308,73408,2,0,L|182:310,1,94,8|0,0:0|0:0,0:0:0:0:
471,309,73783,6,0,P|484:243|443:222,1,94,14|0,0:3|0:0,0:0:0:0:
291,222,74158,2,0,P|269:164|316:114,1,94,10|0,0:0|0:0,0:0:0:0:
459,138,74533,2,0,P|483:190|449:226,1,94,10|0,0:3|0:0,0:0:0:0:
286,216,74908,2,0,L|405:218,1,94,10|0,0:0|0:0,0:0:0:0:
125,218,75283,6,0,L|22:221,1,94,10|0,0:3|0:0,0:0:0:0:
210,223,75658,2,0,P|244:186|196:139,1,94,10|0,0:0|0:0,0:0:0:0:
51,161,76033,2,0,P|22:122|59:85,1,94,10|0,0:3|0:0,0:0:0:0:
222,90,76408,2,0,L|114:93,1,94,10|0,0:0|0:0,0:0:0:0:
382,105,76783,6,0,L|344:209,1,94,14|0,0:3|0:0,0:0:0:0:
170,194,77158,2,0,L|64:195,1,94,10|0,0:0|0:0,0:0:0:0:
330,186,77533,2,0,L|398:108,1,94,10|0,0:3|0:0,0:0:0:0:
211,101,77908,2,0,L|84:101,1,94,10|0,0:0|0:0,0:0:0:0:
372,124,78283,6,0,P|391:215|313:281,1,188,14|8,0:3|0:0,0:0:0:0:
151,256,78845,1,2,0:0:0:0:
406,256,79033,2,0,P|446:216|359:136,1,188,10|8,0:3|0:0,0:0:0:0:
272,128,79501,2,0,L|223:128,2,47,0|0|0,0:0|0:0|0:0,0:0:0:0:
429,128,79783,6,0,P|471:171|432:213,1,94,14|0,0:3|0:0,0:0:0:0:
278,212,80158,2,0,L|161:215,1,94,10|0,0:0|0:0,0:0:0:0:
363,215,80533,2,0,L|458:201,1,94,10|2,0:3|0:0,0:0:0:0:
276,206,80908,1,10,0:0:0:0:
454,205,81095,1,2,0:0:0:0:
199,211,81283,6,0,P|137:178|147:145,1,94,10|0,0:3|0:0,0:0:0:0:
316,164,81658,2,0,P|367:146|373:104,1,94,10|0,0:0|0:0,0:0:0:0:
195,111,82033,2,0,L|312:111,1,94,10|0,0:3|0:0,0:0:0:0:
468,111,82408,2,0,L|345:110,1,94,10|0,0:0|0:0,0:0:0:0:
119,119,82783,6,0,P|86:155|121:190,1,94,8|0,0:3|0:0,0:0:0:0:
286,185,83158,1,10,0:0:0:0:
108,199,83345,1,2,0:0:0:0:
286,187,83533,2,0,L|401:183,1,94,10|2,0:3|0:0,0:0:0:0:
125,195,83908,2,0,P|107:149|143:128,1,94,10|0,0:0|0:0,0:0:0:0:
392,111,84283,6,0,P|420:151|387:197,1,94,10|0,0:3|0:0,0:0:0:0:
224,193,84658,1,10,0:0:0:0:
402,190,84845,2,0,P|480:272|409:317,1,188,2|0,0:0|0:0,0:0:0:0:
354,320,85408,2,0,L|479:318,1,94,8|0,0:0|0:0,0:0:0:0:
193,324,85783,5,12,0:3:0:0:
99,315,85970,2,0,P|71:260|101:246,1,94,2|8,0:0|0:0,0:0:0:0:
263,244,86345,2,0,L|369:243,2,94,2|10|2,0:0|0:3|0:0,0:0:0:0:
83,247,86908,2,0,L|193:242,1,94,10|0,0:0|0:0,0:0:0:0:
431,243,87283,6,0,P|468:181|373:107,1,188,10|10,0:3|0:0,0:0:0:0:
221,110,87845,2,0,L|432:112,1,188,2|0,0:0|0:0,0:0:0:0:
229,108,88408,2,0,P|183:149|239:217,1,141,14|0,0:0|0:0,0:0:0:0:
369,223,88783,6,0,L|470:222,2,94,14|0|0,0:3|0:0|0:0,0:0:0:0:
115,222,89345,2,0,L|4:221,2,94,8|10|8,0:3|0:3|0:3,0:0:0:0:
209,222,89908,1,0,0:0:0:0:
462,221,90095,6,0,L|333:219,1,94,8|10,0:3|0:3,0:0:0:0:
273,219,90470,2,0,L|142:219,1,94,8|0,0:3|0:0,0:0:0:0:
433,213,90845,2,0,P|474:169|468:122,1,94,8|10,0:3|0:3,0:0:0:0:
379,126,91220,1,8,0:3:0:0:
124,229,91408,6,0,P|87:182|124:165,1,94,2|0,0:3|0:0,0:0:0:0:
354,157,91783,2,0,L|359:265,1,94,2|2,0:0|0:0,0:0:0:0:
179,251,92158,2,0,L|180:152,1,94,10|2,0:0|0:0,0:0:0:0:
359,154,92533,2,0,P|416:206|348:283,1,188,2|8,0:0|0:0,0:0:0:0:
108,258,93095,6,0,P|55:211|137:162,1,188,2|0,0:0|0:0,0:0:0:0:
224,158,93658,2,0,P|251:199|216:255,1,94,8|0,0:0|0:0,0:0:0:0:
59,246,94033,2,0,P|33:199|66:167,1,94,2|0,0:0|0:0,0:0:0:0:
232,170,94408,2,0,L|362:170,1,94,10|0,0:0|0:0,0:0:0:0:
72,164,94783,6,0,P|42:209|131:302,1,188,2|10,0:0|0:0,0:0:0:0:
290,305,95345,2,0,L|405:304,1,94,2|0,0:0|0:0,0:0:0:0:
204,309,95720,2,0,P|172:266|194:223,1,94,2|8,0:0|0:0,0:0:0:0:
361,208,96095,1,2,0:0:0:0:
107,217,96283,6,0,L|3:196,2,94,0|2|10,0:0|0:0|0:0,0:0:0:0:
284,208,96845,2,0,P|357:176|284:102,1,188,2|0,0:0|0:0,0:0:0:0:
136,104,97408,2,0,P|93:147|120:193,1,94,10|0,0:0|0:0,0:0:0:0:
354,203,97783,5,2,0:0:0:0:
448,202,97970,2,0,L|448:324,1,94,2|10,0:0|0:0,0:0:0:0:
354,300,98345,1,2,0:0:0:0:
175,308,98533,2,0,P|119:276|168:175,1,188,2|8,0:0|0:0,0:0:0:0:
409,181,99095,6,0,P|417:121|302:74,1,188,2|0,0:0|0:0,0:0:0:0:
222,69,99658,2,0,P|209:116|241:149,1,94,8|0,0:0|0:0,0:0:0:0:
415,158,100033,2,0,L|296:155,1,94,2|0,0:0|0:0,0:0:0:0:
142,166,100408,2,0,L|28:171,1,94,10|0,0:0|0:0,0:0:0:0:
301,169,100783,6,0,P|328:233|247:311,1,188,2|10,0:0|0:0,0:0:0:0:
76,314,101345,2,0,L|197:318,1,94,2|0,0:0|0:0,0:0:0:0:
348,328,101720,2,0,L|475:329,1,94,2|8,0:0|0:0,0:0:0:0:
188,323,102095,6,0,P|140:278|218:183,1,188,2|2,0:0|0:0,0:0:0:0:
370,183,102658,2,0,L|262:180,1,94,10|2,0:0|0:0,0:0:0:0:
182,184,103033,2,0,P|151:225|190:260,1,94,0|0,0:0|0:0,0:0:0:0:
349,262,103408,1,10,0:0:0:0:
380,228,103501,1,0,0:0:0:0:
377,182,103595,1,2,0:0:0:0:
343,152,103689,1,0,0:0:0:0:
188,260,103783,5,2,0:0:0:0:
188,260,103970,2,0,L|302:254,1,94,2|10,0:0|0:0,0:0:0:0:
460,256,104345,2,0,P|468:186|423:154,1,94,2|0,0:0|0:0,0:0:0:0:
277,169,104720,2,0,L|160:171,1,94,0|10,0:0|0:0,0:0:0:0:
362,168,105095,6,0,P|403:211|317:279,1,188,2|0,0:0|0:0,0:0:0:0:
149,283,105658,1,10,0:0:0:0:
102,282,105751,1,0,0:0:0:0:
55,282,105845,1,2,0:0:0:0:
234,287,106033,1,0,0:0:0:0:
280,287,106126,1,0,0:0:0:0:
327,288,106220,1,0,0:0:0:0:
148,286,106408,2,0,P|127:231|161:210,1,94,10|2,0:0|0:0,0:0:0:0:
194,207,106689,1,0,0:0:0:0:
349,209,106783,5,2,0:0:0:0:
443,205,106970,2,0,P|452:151|418:118,1,94,2|10,0:0|0:0,0:0:0:0:
174,122,107345,2,0,P|147:175|229:257,1,188,2|0,0:0|0:0,0:0:0:0:
320,258,107908,1,10,0:0:0:0:
67,271,108095,6,0,P|20:198|99:148,1,188,2|0,0:0|0:0,0:0:0:0:
181,139,108658,1,10,0:0:0:0:
434,134,108845,1,2,0:0:0:0:
256,192,109783,12,0,115595,0:0:0:0:
