osu file format v14

[General]
AudioFilename: audio.mp3
AudioLeadIn: 0
PreviewTime: 67408
Countdown: 0
SampleSet: Soft
StackLeniency: 0.7
Mode: 0
LetterboxInBreaks: 0
WidescreenStoryboard: 0

[Editor]
Bookmarks: 109783,115595
DistanceSpacing: 2.3
BeatDivisor: 4
GridSize: 32
TimelineZoom: 1

[Metadata]
Title:One Small Step
TitleUnicode:One Small Step
Artist:KOTOKO
ArtistUnicode:KOTOKO
Creator:Akitoshi
Version:Insane
Source:蒼の彼方のフォーリズム EXTRA1
Tags:aokana sprite ao no kanata four rhythm 川田まみ Kawada Mami 中沢伴行 Nakazawa Tomoyuki Kalibe Asagi
BeatmapID:1290383
BeatmapSetID:611224

[Difficulty]
HPDrainRate:6
CircleSize:4
OverallDifficulty:7.5
ApproachRate:8.5
SliderMultiplier:1.7
SliderTickRate:1

[Events]
//Background and Video events
0,0,"aokanaa.png",0,0
//Break Periods
//Storyboard Layer 0 (Background)
//Storyboard Layer 1 (Fail)
//Storyboard Layer 2 (Pass)
//Storyboard Layer 3 (Foreground)
//Storyboard Sound Samples

[TimingPoints]
1783,375,4,2,0,30,1,0
1783,-142.857142857143,4,2,0,30,0,0
6845,-125,4,2,0,30,0,0
7783,-142.857142857143,4,2,0,30,0,0
11533,-142.857142857143,4,2,0,40,0,0
11908,-142.857142857143,4,2,0,45,0,0
12283,-142.857142857143,4,2,0,50,0,0
13783,-111.111111111111,4,2,0,70,0,0
31783,-125,4,2,0,65,0,0
56158,-117.647058823529,4,2,0,75,0,0
61783,-125,4,2,0,65,0,0
64783,-111.111111111111,4,2,0,65,0,0
67033,-111.111111111111,4,2,0,20,0,0
67220,-111.111111111111,4,2,0,30,0,0
67408,-111.111111111111,4,2,0,40,0,0
67595,-111.111111111111,4,2,0,60,0,0
67783,-100,4,2,0,85,0,1
88783,-90.9090909090909,4,2,0,85,0,1
91408,-76.9230769230769,4,2,0,85,0,1
91783,-111.111111111111,4,2,0,70,0,0
109783,-200,4,2,0,30,0,0
109970,-200,4,2,0,20,0,0
115595,-200,4,2,0,5,0,0

[Colours]
Combo1 : 255,192,0
Combo2 : 0,255,255
Combo3 : 128,128,64
Combo4 : 0,128,255

[HitObjects]
72,164,1783,6,0,L|151:157,1,59.4999981842042
203,105,2158,2,0,B|177:147|177:147|189:236,1,118.999996368408,2|0,0:0|0:0,0:0:0:0:
245,282,2720,2,0,P|275:284|308:277,1,59.4999981842042,2|0,0:0|0:0,0:0:0:0:
384,240,3095,6,0,L|398:317,1,59.4999981842042,2|0,0:0|0:0,0:0:0:0:
473,255,3470,1,2,0:0:0:0:
437,172,3658,2,0,P|383:154|314:190,1,118.999996368408,2|0,0:0|0:0,0:0:0:0:
246,215,4220,2,0,L|236:150,1,59.4999981842042,2|0,0:0|0:0,0:0:0:0:
218,50,4595,5,2,0:0:0:0:
218,50,4689,1,0,0:0:0:0:
218,50,4783,2,0,P|182:43|151:48,1,59.4999981842042
237,156,5158,2,0,B|316:165|316:165|375:146,1,118.999996368408,2|0,0:0|0:0,0:0:0:0:
430,197,5720,2,0,P|439:229|434:261,1,59.4999981842042,2|0,0:0|0:0,0:0:0:0:
359,301,6095,6,0,P|350:333|353:364,1,59.4999981842042,2|0,0:0|0:0,0:0:0:0:
439,340,6470,1,2,0:0:0:0:
439,340,6658,1,0,0:0:0:0:
350,222,6845,6,0,B|281:203|292:252|208:231,1,136,2|2,0:0|0:0,0:0:0:0:
142,164,7408,1,2,0:0:0:0:
238,130,7595,1,2,0:0:0:0:
218,233,7783,6,0,L|222:298,1,59.4999981842042
285,355,8158,2,0,B|250:338|250:338|153:348,1,118.999996368408,2|0,0:0|0:0,0:0:0:0:
90,306,8720,2,0,P|84:277|88:247,1,59.4999981842042,2|0,0:0|0:0,0:0:0:0:
143,177,9095,6,0,L|136:112,1,59.4999981842042,2|0,0:0|0:0,0:0:0:0:
59,163,9470,1,2,0:0:0:0:
88,248,9658,2,0,P|142:268|210:239,1,118.999996368408,2|0,0:0|0:0,0:0:0:0:
263,187,10220,2,0,L|326:191,1,59.4999981842042,2|0,0:0|0:0,0:0:0:0:
441,191,10595,5,2,0:0:0:0:
441,191,10689,1,0,0:0:0:0:
441,191,10783,2,0,P|448:161|445:126,1,59.4999981842042
382,70,11158,2,0,B|342:68|342:68|307:80|307:80|254:78,1,118.999996368408,2|0,0:0|0:0,0:0:0:0:
235,79,11626,1,0,0:0:0:0:
235,79,11720,1,0,3:0:0:0:
263,187,11908,1,0,1:0:0:0:
148,157,12095,5,0,0:0:0:0:
148,157,12189,1,0,0:0:0:0:
148,157,12283,1,6,0:0:0:0:
176,273,12470,1,2,0:0:0:0:
52,189,12658,1,0,1:0:0:0:
248,122,12845,5,0,0:0:0:0:
248,122,12939,1,0,3:0:0:0:
248,122,13033,2,0,L|294:122,1,29.7499990921021,0|0,3:0|3:0,0:0:0:0:
328,188,13220,2,0,L|374:188,1,29.7499990921021,0|0,3:0|3:0,0:0:0:0:
427,235,13408,1,0,1:0:0:0:
446,256,13501,1,2,0:0:0:0:
458,283,13595,1,2,0:0:0:0:
459,312,13689,1,2,0:0:0:0:
448,348,13783,6,0,L|358:344,1,76.4999976654053,6|0,0:0|0:0,0:0:0:0:
287,266,14158,2,0,L|197:270,1,76.4999976654053,0|0,1:0|0:0,0:0:0:0:
108,215,14533,2,0,P|98:168|170:198,1,152.999995330811,2|0,0:0|1:0,0:0:0:0:
28,131,15095,6,0,P|72:84|160:72,1,152.999995330811,2|2,0:0|0:0,0:0:0:0:
282,129,15658,1,0,1:0:0:0:
171,181,15845,1,0,0:0:0:0:
282,129,16033,2,0,L|374:122,1,76.4999976654053,2|0,0:0|0:0,0:0:0:0:
461,215,16408,2,0,L|342:224,1,114.749996498108,0|0,1:0|0:0,0:0:0:0:
312,229,16783,6,0,P|303:264|317:317,1,76.4999976654053,2|0,0:0|0:0,0:0:0:0:
423,322,17158,1,0,1:0:0:0:
461,215,17345,2,0,L|455:121,1,76.4999976654053,2|0,0:0|0:0,0:0:0:0:
358,77,17720,2,0,L|352:171,1,76.4999976654053,2|0,0:0|1:0,0:0:0:0:
248,105,18095,1,0,0:0:0:0:
312,229,18283,6,0,P|354:240|414:222,1,76.4999976654053,6|0,0:0|0:0,0:0:0:0:
248,105,18658,1,0,1:0:0:0:
353,153,18845,1,0,0:0:0:0:
221,193,19033,2,0,L|227:286,1,76.4999976654053,2|0,0:0|0:0,0:0:0:0:
135,340,19408,2,0,L|129:247,1,76.4999976654053,0|0,1:0|0:0,0:0:0:0:
120,133,19783,6,0,P|80:128|28:143,1,76.4999976654053,6|0,0:0|0:0,0:0:0:0:
221,193,20158,2,0,P|261:188|313:203,1,76.4999976654053,0|0,1:0|0:0,0:0:0:0:
227,333,20533,2,0,P|218:282|294:312,1,152.999995330811,2|0,0:0|1:0,0:0:0:0:
125,360,21095,6,0,B|110:311|110:311|120:195,1,152.999995330811,2|2,0:0|0:0,0:0:0:0:
140,57,21658,1,0,1:0:0:0:
46,122,21845,1,0,0:0:0:0:
182,144,22033,2,0,P|205:179|209:221,1,76.4999976654053,2|0,0:0|0:0,0:0:0:0:
255,343,22408,2,0,P|291:305|356:293,1,114.749996498108,0|0,1:0|0:0,0:0:0:0:
384,293,22783,6,0,L|390:205,1,76.4999976654053,2|0,0:0|0:0,0:0:0:0:
406,79,23158,1,0,1:0:0:0:
297,116,23345,2,0,P|257:123|209:111,1,76.4999976654053,2|0,0:0|0:0,0:0:0:0:
131,45,23720,2,0,P|91:38|43:50,1,76.4999976654053,2|0,0:0|1:0,0:0:0:0:
16,152,24095,6,0,B|26:264|26:264|83:217,1,152.999995330811,2|0,0:0|0:0,0:0:0:0:
156,176,24658,2,0,P|196:168|244:175,1,76.4999976654053,0|0,1:0|0:0,0:0:0:0:
329,230,25033,1,2,0:0:0:0:
329,230,25126,1,0,0:0:0:0:
329,230,25220,2,0,L|324:288,1,38.2499988327027
320,371,25408,1,0,1:0:0:0:
354,366,25501,1,2,0:0:0:0:
388,359,25595,1,2,0:0:0:0:
422,352,25689,1,2,0:0:0:0:
455,339,25783,6,0,P|456:296|448:230,1,76.4999976654053,6|0,0:0|0:0,0:0:0:0:
387,132,26158,1,0,1:0:0:0:
287,236,26345,2,0,P|280:174|286:79,1,152.999995330811,2|2,0:0|0:0,0:0:0:0:
154,18,26908,1,0,1:0:0:0:
28,90,27095,6,0,B|21:210|21:210|65:175,1,152.999995330811,2|2,0:0|0:0,0:0:0:0:
163,102,27658,1,0,1:0:0:0:
294,163,27845,2,0,P|318:217|290:316,1,152.999995330811,2|2,0:0|0:0,0:0:0:0:
149,346,28408,1,0,1:0:0:0:
112,336,28501,1,2,0:0:0:0:
76,322,28595,1,0,1:0:0:0:
40,307,28689,1,0,1:0:0:0:
5,290,28783,6,0,L|12:199,1,76.4999976654053,6|0,0:0|0:0,0:0:0:0:
22,68,29158,1,0,1:0:0:0:
149,136,29345,2,0,B|245:141|245:141|300:110,1,152.999995330811,2|2,0:0|0:0,0:0:0:0:
408,18,29908,1,0,1:0:0:0:
396,162,30095,6,0,P|394:239|381:319,1,152.999995330811,2|2,0:2|0:2,0:2:0:0:
221,365,30658,2,0,P|215:328|207:295,1,38.2499988327027,0|0,1:0|0:0,0:0:0:0:
276,224,30845,1,4,0:3:0:0:
276,224,31783,6,0,L|270:133,1,68,6|0,0:0|0:0,0:0:0:0:
177,117,32158,2,0,L|183:208,1,68,0|0,1:0|0:0,0:0:0:0:
209,283,32533,2,0,P|266:314|347:275,1,136,2|0,0:0|1:0,0:0:0:0:
397,216,33095,6,0,B|401:167|401:167|388:129|388:129|396:61,1,136,2|2,0:0|0:0,0:0:0:0:
318,13,33658,1,0,1:0:0:0:
235,72,33845,2,0,P|193:88|107:55,1,136,2|2,0:0|0:0,0:0:0:0:
20,9,34408,2,0,P|10:48|17:98,1,68,0|0,1:0|0:0,0:0:0:0:
83,182,34783,6,0,P|85:271|74:345,1,136,2|0,0:0|1:0,0:0:0:0:
231,207,35345,2,0,P|229:118|240:44,1,136,2|0,0:0|0:0,0:0:0:0:
372,33,35908,2,0,P|429:37|458:33,1,68,0|0,1:0|0:0,0:0:0:0:
477,152,36283,6,0,P|416:147|327:162,1,136,2|0,0:0|1:0,0:0:0:0:
231,207,36845,2,0,P|188:154|158:93,1,136,2|0,0:0|0:0,0:0:0:0:
51,33,37408,2,0,P|42:69|22:108,1,68,0|0,1:0|0:0,0:0:0:0:
0,216,37783,6,0,L|12:303,1,68,6|0,0:0|0:0,0:0:0:0:
84,352,38158,1,0,1:0:0:0:
84,352,38345,1,0,0:0:0:0:
172,301,38533,2,0,B|241:291|224:346|313:328,1,136,2|0,0:0|1:0,0:0:0:0:
421,267,39095,6,0,P|444:212|393:133,1,136,2|2,0:0|0:0,0:0:0:0:
294,215,39658,2,0,L|362:210,1,68,0|0,1:0|0:0,0:0:0:0:
266,132,40033,2,0,L|198:137,1,68,2|0,0:0|0:0,0:0:0:0:
116,229,40408,2,0,L|183:223,1,68,0|0,1:0|0:0,0:0:0:0:
37,166,40783,6,0,P|15:223|56:310,2,136,6|0|2,0:0|1:0|0:0,0:0:0:0:
116,229,41720,1,0,0:0:0:0:
100,72,41908,1,0,1:0:0:0:
37,166,42095,1,0,0:0:0:0:
197,136,42283,5,6,0:0:0:0:
198,271,42470,1,0,0:0:0:0:
315,201,42658,1,0,1:0:0:0:
314,336,42845,5,2,0:0:0:0:
315,201,43032,1,0,0:0:0:0:
432,271,43220,1,0,3:0:0:0:
314,336,43408,2,0,P|258:352|194:326,1,102,0|0,1:0|0:0,0:0:0:0:
198,271,43783,6,0,L|205:190,1,68,6|0,0:0|0:0,0:0:0:0:
94,295,44158,2,0,L|101:376,1,68,0|0,1:0|0:0,0:0:0:0:
217,342,44533,2,0,L|229:196,1,136,2|0,0:0|1:0,0:0:0:0:
319,96,45095,6,0,B|395:82|376:132|467:118,1,136,2|2,0:0|0:0,0:0:0:0:
506,34,45658,1,0,1:0:0:0:
404,24,45845,2,0,P|353:14|260:34,1,136,2|2,0:0|0:0,0:0:0:0:
223,138,46408,2,0,L|229:219,1,68,0|0,1:0|0:0,0:0:0:0:
227,355,46783,6,0,P|185:329|96:307,1,136,2|0,0:0|1:0,0:0:0:0:
228,205,47345,2,0,P|287:171|353:157,1,136,2|0,0:0|0:0,0:0:0:0:
487,139,47908,2,0,P|497:106|497:64,1,68,0|0,1:0|0:0,0:0:0:0:
352,157,48283,6,0,P|333:225|341:313,1,136,2|0,0:0|1:0,0:0:0:0:
227,355,48845,2,0,P|176:305|139:225,1,136,2|0,0:0|0:0,0:0:0:0:
87,126,49408,2,0,P|50:123|-8:136,1,68,0|0,1:0|0:0,0:0:0:0:
145,248,49783,6,0,L|232:239,1,68,6|0,0:0|0:0,0:0:0:0:
289,145,50158,2,0,L|202:136,1,68,0|0,1:0|0:0,0:0:0:0:
343,62,50533,2,0,P|378:102|367:204,1,136,2|0,0:0|1:0,0:0:0:0:
320,304,51095,6,0,B|367:296|367:296|469:312,1,136,2|2,0:0|0:0,0:0:0:0:
380,181,51658,2,0,L|297:193,1,68,0|0,1:0|0:0,0:0:0:0:
219,91,52033,2,0,L|286:81,1,68,2|0,0:0|0:0,0:0:0:0:
221,200,52408,2,0,L|138:212,1,68,0|0,1:0|0:0,0:0:0:0:
21,138,52783,6,0,P|23:71|81:22,1,136,6|0,0:0|1:0,0:0:0:0:
203,51,53345,2,0,B|245:72|245:72|355:58,1,136,2|2,0:0|0:0,0:0:0:0:
468,46,53908,2,0,P|481:80|477:118,1,68,0|0,1:0|0:0,0:0:0:0:
362,264,54283,5,0,1:0:0:0:
381,119,54470,1,0,0:0:0:0:
495,208,54658,1,0,0:0:0:0:
301,184,54845,5,0,1:0:0:0:
281,329,55032,1,0,0:0:0:0:
167,240,55220,1,0,0:0:0:0:
362,264,55408,5,0,1:0:0:0:
381,119,55595,1,0,0:0:0:0:
381,119,56158,6,0,L|284:114,1,72.2500013780594,6|0,0:0|0:0,0:0:0:0:
149,102,56533,1,0,3:0:0:0:
246,27,56720,1,0,0:0:0:0:
221,184,56908,1,0,1:0:0:0:
64,159,57095,6,0,P|47:99|88:19,1,144.500002756119,2|0,0:0|0:0,0:0:0:0:
149,186,57658,2,0,P|155:224|140:272,1,72.2500013780594,0|0,3:0|0:0,0:0:0:0:
9,224,58033,1,0,1:0:0:0:
149,102,58220,1,0,3:0:0:0:
149,102,58314,1,0,3:0:0:0:
149,102,58408,2,0,L|156:39,1,36.1250006890297,0|0,3:0|0:0,0:0:0:0:
250,37,58595,1,0,3:0:0:0:
250,37,59158,6,0,B|262:110,1,72.2500013780594,6|0,0:0|0:0,0:0:0:0:
286,221,59533,1,0,3:0:0:0:
371,144,59720,1,0,0:0:0:0:
261,108,59908,1,0,1:0:0:0:
405,237,60095,6,0,P|457:192|455:94,1,144.500002756119,2|0,0:0|0:0,0:0:0:0:
335,25,60658,2,0,L|241:18,1,72.2500013780594,0|0,3:0|0:0,0:0:0:0:
136,90,61033,1,0,1:0:0:0:
250,178,61220,1,0,3:0:0:0:
250,178,61314,1,0,3:0:0:0:
250,178,61408,2,0,L|246:233,1,36.1250006890297,0|0,3:0|0:0,0:0:0:0:
171,256,61595,2,0,L|175:311,1,36.1250006890297,0|0,3:0|0:0,0:0:0:0:
239,348,61783,6,0,P|200:333|97:351,1,136,2|0,0:0|1:0,0:0:0:0:
13,268,62345,2,0,L|30:129,1,136,2|0,0:0|0:0,0:0:0:0:
128,61,62908,2,0,P|157:71|220:72,1,68,0|0,1:0|0:0,0:0:0:0:
309,34,63283,6,0,P|365:24|452:29,1,136,2|0,0:0|1:0,0:0:0:0:
287,155,63845,2,0,P|267:208|219:281,1,136,2|0,0:0|0:0,0:0:0:0:
194,74,64408,2,0,P|175:52|156:13,1,68,0|0,1:0|0:0,0:0:0:0:
309,34,64783,5,2,0:0:0:0:
287,155,64970,1,0,0:0:0:0:
79,114,65158,1,0,1:0:0:0:
172,195,65345,5,2,0:0:0:0:
194,74,65532,1,0,0:0:0:0:
287,155,65720,1,2,0:0:0:0:
79,114,65908,5,0,1:0:0:0:
265,276,66095,1,0,3:0:0:0:
265,276,66189,1,0,3:0:0:0:
265,276,66283,1,0,1:0:0:0:
265,276,67033,6,0,L|261:304,14,19.1249994163513,0|0|0|0|0|0|0|0|0|0|0|0|0|0|0,3:0|3:0|3:0|3:0|3:0|3:0|3:0|3:0|3:0|3:0|3:0|3:0|3:0|3:0|3:0,3:0:0:0:
265,276,67783,6,0,B|314:271|314:271|379:293|379:293|450:286,1,170,6|0,0:0|1:0,0:0:0:0:
304,369,68345,1,0,0:0:0:0:
389,194,68533,2,0,P|381:152|370:81,1,85,2|0,0:0|0:0,0:0:0:0:
265,276,68908,1,0,1:0:0:0:
430,287,69095,1,0,0:0:0:0:
276,166,69283,6,0,B|221:132|151:137|151:137|109:164,1,170,2|0,0:0|1:0,0:0:0:0:
33,243,69845,1,0,0:0:0:0:
192,348,70033,2,0,L|185:263,1,85,2|0,0:0|0:0,0:0:0:0:
165,46,70408,1,0,1:0:0:0:
25,155,70595,1,0,0:0:0:0:
251,180,70783,6,0,B|341:196|328:149|423:162,1,170,2|0,0:0|1:0,0:0:0:0:
387,280,71345,1,0,0:0:0:0:
283,85,71533,2,0,P|243:69|178:80,1,85,2|0,0:0|0:0,0:0:0:0:
90,223,71908,1,0,1:0:0:0:
229,163,72095,1,0,0:0:0:0:
99,112,72283,5,2,3:2:0:0:
99,112,72376,1,0,3:0:0:0:
99,112,72470,1,0,3:0:0:0:
211,283,72658,2,0,P|204:323|200:374,1,85,0|2,1:0|0:0,0:0:0:0:
319,155,73033,2,0,P|315:112|308:70,1,85,0|2,3:0|0:0,0:0:0:0:
203,169,73408,1,0,1:0:0:0:
412,206,73595,1,2,0:0:0:0:
211,283,73783,6,0,L|98:257,1,85,6|0,0:0|0:0,0:0:0:0:
319,155,74158,2,0,L|293:267,1,85,0|0,1:0|0:0,0:0:0:0:
201,44,74533,2,0,L|313:69,1,85,2|0,0:0|0:0,0:0:0:0:
89,170,74908,2,0,L|114:57,1,85,0|0,1:0|0:0,0:0:0:0:
211,283,75283,6,0,P|218:324|206:371,1,85,2|0,0:0|0:0,0:0:0:0:
339,230,75658,2,0,P|332:189|344:142,1,85,0|0,1:0|0:0,0:0:0:0:
214,201,76033,2,0,P|221:242|209:289,1,85,2|0,0:0|0:0,0:0:0:0:
341,147,76408,2,0,P|334:106|346:59,1,85,0|0,1:0|0:0,0:0:0:0:
511,202,76783,6,0,L|395:190,1,85,2|0,0:0|0:0,0:0:0:0:
211,283,77158,2,0,L|327:271,1,85,0|0,1:0|0:0,0:0:0:0:
426,193,77533,2,0,L|418:109,1,85,2|0,0:0|0:0,0:0:0:0:
295,274,77908,2,0,L|287:359,1,85,0|0,1:0|0:0,0:0:0:0:
149,230,78283,6,0,B|165:188|143:152|143:152|120:108|155:57,1,170,2|0,0:0|1:0,0:0:0:0:
314,29,78845,1,0,3:0:0:0:
314,29,78939,1,0,3:0:0:0:
314,29,79033,2,0,P|320:64|319:87,1,42.5,2|0,3:2|3:0,0:0:0:0:
250,133,79220,2,0,P|244:168|245:191,1,42.5,0|0,3:0|3:0,0:0:0:0:
253,269,79408,1,0,1:0:0:0:
275,304,79501,1,0,3:0:0:0:
309,328,79595,1,0,3:0:0:0:
350,338,79689,1,0,3:0:0:0:
390,326,79783,6,0,L|483:332,1,85,6|0,0:0|0:0,0:0:0:0:
253,269,80158,2,0,L|168:263,1,85,0|0,1:0|0:0,0:0:0:0:
353,186,80533,1,2,0:0:0:0:
390,326,80720,1,0,0:0:0:0:
218,186,80908,1,0,1:0:0:0:
168,347,81095,1,0,0:0:0:0:
47,202,81283,6,0,L|48:105,1,85,2|0,0:0|0:0,0:0:0:0:
168,263,81658,2,0,L|169:360,1,85,0|0,1:0|0:0,0:0:0:0:
393,159,82033,2,0,P|351:151|296:160,1,85,2|0,0:0|0:0,0:0:0:0:
278,370,82408,2,0,P|320:378|375:369,1,85,0|0,1:0|0:0,0:0:0:0:
478,152,82783,6,0,L|394:159,1,85,2|0,0:0|0:0,0:0:0:0:
169,181,83158,1,0,1:0:0:0:
373,299,83345,1,0,0:0:0:0:
277,83,83533,1,2,0:0:0:0:
228,315,83720,1,0,0:0:0:0:
394,159,83908,2,0,L|478:152,1,85,0|0,1:0|0:0,0:0:0:0:
277,83,84283,6,0,P|198:60|106:112,1,170,2|0,0:0|1:0,0:0:0:0:
251,170,84845,2,0,P|211:137|178:221,1,170,2|0,0:0|0:0,0:0:0:0:
334,280,85408,2,0,L|444:262,1,85,0|0,1:0|0:0,0:0:0:0:
277,83,85783,5,6,0:0:0:0:
172,224,85970,2,0,P|88:231|34:173,1,170,2|0,0:0|0:0,0:0:0:0:
123,142,86533,1,2,0:0:0:0:
155,317,86720,1,0,0:0:0:0:
288,168,86908,2,0,L|277:76,1,85,0|0,1:0|0:0,0:0:0:0:
232,273,87283,6,0,P|304:259|412:241,1,170,2|0,0:0|1:0,0:0:0:0:
498,106,87845,2,0,P|462:98|408:89,1,85,2|0,0:0|3:0,0:0:0:0:
373,102,88126,1,0,3:0:0:0:
353,139,88220,1,0,3:0:0:0:
347,181,88314,1,0,3:0:0:0:
367,218,88408,1,0,1:0:0:0:
400,243,88501,1,0,3:0:0:0:
442,247,88595,1,0,3:0:0:0:
482,234,88689,1,0,3:0:0:0:
500,196,88783,6,0,P|508:160|492:95,1,93.5000028533936,6|0,0:0|0:0,0:0:0:0:
305,10,89158,1,2,0:0:0:0:
407,154,89345,1,0,0:0:0:0:
474,12,89533,1,0,3:0:0:0:
474,12,89720,1,0,3:0:0:0:
281,109,89908,5,2,0:0:0:0:
354,249,90095,1,0,0:0:0:0:
384,54,90283,1,0,3:0:0:0:
384,54,90470,1,0,3:0:0:0:
246,220,90658,5,2,0:0:0:0:
407,154,90845,1,0,0:0:0:0:
221,88,91033,1,0,3:0:0:0:
221,88,91220,1,0,3:0:0:0:
445,230,91408,6,0,B|469:271|456:344|456:344|438:308|398:295,1,165.749992412568,6|0,0:0|0:0,0:0:0:0:
385,379,91783,6,0,L|292:372,1,76.4999976654053,6|0,0:0|0:0,0:0:0:0:
231,288,92158,2,0,L|138:295,1,76.4999976654053,0|0,1:0|0:0,0:0:0:0:
68,217,92533,2,0,P|45:168|96:77,1,152.999995330811,2|0,0:0|1:0,0:0:0:0:
191,42,93095,6,0,B|230:60|230:60|357:43,1,152.999995330811,2|2,0:0|0:0,0:0:0:0:
452,20,93658,1,0,1:0:0:0:
419,129,93845,1,0,0:0:0:0:
319,70,94033,2,0,L|226:83,1,76.4999976654053,2|0,0:0|0:0,0:0:0:0:
164,164,94408,2,0,L|279:180,1,114.749996498108,0|0,1:0|0:0,0:0:0:0:
311,187,94783,6,0,P|323:227|314:284,1,76.4999976654053,2|0,0:0|0:0,0:0:0:0:
219,354,95158,1,0,1:0:0:0:
124,289,95345,2,0,P|81:291|18:299,1,76.4999976654053,2|0,0:0|0:0,0:0:0:0:
11,185,95720,2,0,P|53:182|117:175,1,76.4999976654053,2|0,0:0|1:0,0:0:0:0:
42,73,96095,1,0,0:0:0:0:
175,212,96283,6,0,P|185:161|189:105,1,76.4999976654053,6|0,0:0|0:0,0:0:0:0:
276,11,96658,1,0,1:0:0:0:
288,160,96845,1,0,0:0:0:0:
397,64,97033,2,0,P|439:60|475:58,1,76.4999976654053,2|0,0:0|0:0,0:0:0:0:
365,166,97408,2,0,P|323:162|287:160,1,76.4999976654053,0|0,1:0|0:0,0:0:0:0:
160,243,97783,6,0,P|150:282|159:330,1,76.4999976654053,6|0,0:0|0:0,0:0:0:0:
268,327,98158,2,0,P|278:288|269:240,1,76.4999976654053,0|0,1:0|0:0,0:0:0:0:
196,147,98533,2,0,B|94:156|94:156|41:135,1,152.999995330811,2|0,0:0|1:0,0:0:0:0:
219,38,99095,6,0,P|272:66|305:163,1,152.999995330811,2|2,0:0|0:0,0:0:0:0:
203,274,99658,1,0,1:0:0:0:
196,147,99845,1,0,0:0:0:0:
327,240,100033,2,0,P|362:224|390:190,1,76.4999976654053,2|0,0:0|0:0,0:0:0:0:
480,74,100408,2,0,L|493:201,1,114.749996498108,0|0,1:0|0:0,0:0:0:0:
509,217,100783,6,0,L|500:300,1,76.4999976654053,2|0,0:0|0:0,0:0:0:0:
373,346,101158,1,0,1:0:0:0:
327,240,101345,2,0,P|282:237|251:245,1,76.4999976654053,2|0,0:0|0:0,0:0:0:0:
151,302,101720,2,0,P|114:305|76:297,1,76.4999976654053,2|0,0:0|1:0,0:0:0:0:
72,181,102095,6,0,B|112:169|148:184|148:184|169:144|224:131,1,152.999995330811,2|0,0:0|0:0,0:0:0:0:
313,99,102658,2,0,L|306:13,1,76.4999976654053,0|0,1:0|0:0,0:0:0:0:
419,114,103033,2,0,L|412:200,1,76.4999976654053,2|0,0:0|0:0,0:0:0:0:
326,317,103408,1,0,1:0:0:0:
296,334,103501,1,2,0:0:0:0:
261,336,103595,1,2,0:0:0:0:
227,327,103689,1,2,0:0:0:0:
196,310,103783,6,0,P|157:312|88:325,1,76.4999976654053,6|0,0:0|0:0,0:0:0:0:
144,174,104158,1,0,1:0:0:0:
2,211,104345,2,0,P|35:135|52:45,1,152.999995330811,2|2,0:0|0:0,0:0:0:0:
180,19,104908,1,0,1:0:0:0:
270,122,105095,6,0,L|434:112,1,152.999995330811,2|2,0:0|0:0,0:0:0:0:
340,1,105658,1,0,1:0:0:0:
472,37,105845,2,0,P|512:103|475:187,1,152.999995330811,2|2,0:0|0:0,0:0:0:0:
368,265,106408,1,0,1:0:0:0:
330,261,106501,1,2,0:0:0:0:
292,254,106595,1,0,1:0:0:0:
254,247,106689,1,0,1:0:0:0:
216,238,106783,6,0,B|225:162,1,76.4999976654053,6|0,0:0|0:0,0:0:0:0:
152,35,107158,1,0,1:0:0:0:
83,162,107345,2,0,B|98:266|98:266|79:320,1,152.999995330811,2|2,0:0|0:0,0:0:0:0:
0,252,107908,1,0,1:0:0:0:
80,131,108095,6,0,B|135:126|135:126|177:140|177:140|240:135,1,152.999995330811,2|2,0:0|0:0,0:0:0:0:
375,117,108658,2,0,P|375:88|371:71,1,38.2499988327027,0|0,1:0|0:0,0:0:0:0:
255,22,108845,1,4,2:3:0:0:
288,360,109783,6,0,B|360:360|432:320|456:248|440:168|368:144|368:144|416:104|416:16|416:16|328:40|304:104|304:104|256:88|208:104|208:104|184:40|96:16|96:16|96:104|144:144|144:144|72:168|56:248|80:320|152:360|224:360,1,1317.5,2|0,0:0|0:0,0:0:0:0:
