osu file format v14

[General]
AudioFilename: audio.mp3
AudioLeadIn: 0
PreviewTime: 67408
Countdown: 0
SampleSet: Soft
StackLeniency: 0.7
Mode: 0
LetterboxInBreaks: 0
WidescreenStoryboard: 0

[Editor]
Bookmarks: 109783,115595
DistanceSpacing: 1
BeatDivisor: 4
GridSize: 32
TimelineZoom: 1

[Metadata]
Title:One Small Step
TitleUnicode:One Small Step
Artist:KOTOKO
ArtistUnicode:KOTOKO
Creator:Akitoshi
Version:Easy
Source:蒼の彼方のフォーリズム EXTRA1
Tags:aokana sprite ao no kanata four rhythm 川田まみ Kawada Mami 中沢伴行 Nakazawa Tomoyuki Kalibe Asagi
BeatmapID:1290381
BeatmapSetID:611224

[Difficulty]
HPDrainRate:2
CircleSize:3
OverallDifficulty:3
ApproachRate:3
SliderMultiplier:0.8
SliderTickRate:1

[Events]
//Background and Video events
0,0,"aokanaa.png",0,0
//Break Periods
//Storyboard Layer 0 (Background)
//Storyboard Layer 1 (Fail)
//Storyboard Layer 2 (Pass)
//Storyboard Layer 3 (Foreground)
//Storyboard Sound Samples

[TimingPoints]
1783,375,4,2,0,30,1,0
11533,-100,4,2,0,40,0,0
11908,-100,4,2,0,45,0,0
12283,-100,4,2,0,50,0,0
13783,-100,4,2,0,70,0,0
31783,-100,4,2,0,65,0,0
56158,-100,4,2,0,75,0,0
61783,-100,4,2,0,65,0,0
64783,-100,4,2,0,65,0,0
67783,-100,4,2,0,85,0,1
88783,-100,4,2,0,85,0,1
91783,-100,4,2,0,70,0,0
109783,-100,4,2,0,30,0,0
115595,-100,4,2,0,5,0,0

[Colours]
Combo1 : 255,192,0
Combo2 : 0,255,255
Combo3 : 128,128,64
Combo4 : 0,128,255

[HitObjects]
119,173,1783,5,0,0:0:0:0:
185,218,2158,2,0,P|231:229|299:198,1,120,2|2,0:0|0:0,0:0:0:0:
352,145,3095,2,0,L|481:157,2,120,2|2|2,0:0|0:0|0:0,0:0:0:0:
297,86,4595,1,2,0:0:0:0:
195,150,5158,6,0,P|157:193|153:260,1,120,2|2,0:0|0:0,0:0:0:0:
189,323,6095,2,0,L|277:314,1,80,2|2,0:0|0:0,0:0:0:0:
319,252,6845,2,0,L|441:264,1,120,2|2,0:0|0:0,0:0:0:0:
507,222,7783,5,0,0:0:0:0:
482,145,8158,2,0,P|432:109|374:109,1,120,2|2,0:0|0:0,0:0:0:0:
297,128,9095,2,0,L|168:118,2,120,2|2|2,0:0|0:0|0:0,0:0:0:0:
353,185,10595,1,2,0:0:0:0:
308,296,11158,6,0,P|244:310|157:269,1,160,2|0,0:0|1:0,0:0:0:0:
115,206,12283,2,0,L|119:112,1,80,6|0,0:0|1:0,0:0:0:0:
167,62,13033,1,0,3:0:0:0:
240,29,13408,1,0,1:0:0:0:
317,49,13783,6,0,P|353:64|408:66,1,80,6|0,0:0|1:0,0:0:0:0:
473,71,14533,2,0,B|487:148|487:148|473:191,2,120,2|2|0,0:0|0:0|1:0,0:0:0:0:
393,67,16033,2,0,P|360:93|344:137,1,80,2|0,0:0|1:0,0:0:0:0:
330,205,16783,6,0,L|194:202,1,120,2|2,0:0|0:0,0:0:0:0:
131,202,17720,1,2,0:0:0:0:
98,274,18095,2,0,P|130:324|190:342,1,120,2|0,0:0|1:0,0:0:0:0:
257,306,19033,2,0,L|343:298,1,80,2|0,0:0|1:0,0:0:0:0:
373,228,19783,6,0,L|364:137,1,80,6|0,0:0|1:0,0:0:0:0:
308,91,20533,2,0,P|356:68|422:91,2,120,2|2|0,0:0|0:0|1:0,0:0:0:0:
243,138,22033,2,0,L|152:131,1,80,2|0,0:0|1:0,0:0:0:0:
83,133,22783,6,0,B|65:194|65:194|81:259,1,120,2|2,0:0|0:0,0:0:0:0:
128,310,23720,1,2,0:0:0:0:
183,367,24095,2,0,P|227:351|300:358,1,120,2|0,0:0|1:0,0:0:0:0:
374,332,25033,1,2,0:0:0:0:
438,284,25408,1,0,1:0:0:0:
499,232,25783,6,0,L|490:105,1,120,6|2,0:0|0:0,0:0:0:0:
437,52,26720,1,2,0:0:0:0:
364,18,27095,2,0,P|325:36|275:36,1,80,2|2,0:0|0:0,0:0:0:0:
208,28,27845,2,0,P|152:25|82:59,1,120,2|0,0:0|1:0,0:0:0:0:
48,115,28783,6,0,L|54:253,1,120,6|2,0:0|0:0,0:0:0:0:
95,302,29720,1,2,0:0:0:0:
152,357,30095,2,0,P|203:339|239:339,1,80,2|2,0:2|0:2,0:0:0:0:
308,346,30845,1,4,0:3:0:0:
415,177,31783,6,0,L|410:88,1,80,6|0,0:0|1:0,0:0:0:0:
353,40,32533,2,0,P|394:18|465:38,2,120,2|2|0,0:0|0:0|1:0,0:0:0:0:
284,80,34033,2,0,L|201:84,1,80,2|0,0:0|1:0,0:0:0:0:
147,140,34783,6,0,L|17:133,2,120,2|2|0,0:0|0:0|1:0,0:0:0:0:
203,196,36283,2,0,L|333:189,2,120,2|2|0,0:0|0:0|1:0,0:0:0:0:
146,252,37783,6,0,P|138:293|150:337,1,80,6|0,0:0|1:0,0:0:0:0:
220,361,38533,2,0,P|284:353|356:356,2,120,2|2|0,0:0|0:0|1:0,0:0:0:0:
146,329,40033,2,0,P|101:323|50:325,1,80,2|0,0:0|1:0,0:0:0:0:
11,265,40783,6,0,P|7:188|70:123,1,160,6|2,0:0|0:0,0:0:0:0:
138,118,41908,1,0,1:0:0:0:
217,128,42283,2,0,P|273:146|334:153,2,120,6|2|0,0:0|0:0|1:0,0:0:0:0:
138,118,43783,6,0,L|127:198,1,80,6|0,0:0|1:0,0:0:0:0:
69,252,44533,2,0,P|132:278|188:249,2,120,2|2|0,0:0|0:0|1:0,0:0:0:0:
23,186,46033,2,0,L|34:106,1,80,2|0,0:0|1:0,0:0:0:0:
92,51,46783,6,0,P|154:43|206:92,2,120,2|2|0,0:0|0:0|1:0,0:0:0:0:
132,120,48283,2,0,L|116:249,2,120,2|2|0,0:0|0:0|1:0,0:0:0:0:
198,75,49783,6,0,P|238:79|286:71,1,80,6|0,0:0|1:0,0:0:0:0:
350,40,50533,2,0,L|483:46,2,120,2|2|0,0:0|0:0|1:0,0:0:0:0:
277,73,52033,2,0,P|273:113|281:161,1,80,2|0,0:0|1:0,0:0:0:0:
328,215,52783,6,0,L|462:206,2,120,6|2|0,0:0|0:0|1:0,0:0:0:0:
271,271,54283,2,0,L|137:262,2,120,0|0|0,1:0|1:0|1:0,0:0:0:0:
414,199,56158,5,6,0:0:0:0:
363,136,56533,2,0,P|303:119|235:141,2,120,0|2|0,3:0|0:0|3:0,0:0:0:0:
414,199,58033,2,0,L|408:288,1,80,0|0,1:0|3:0,0:0:0:0:
272,362,59158,5,6,0:0:0:0:
207,314,59533,2,0,P|146:325|79:302,2,120,0|2|0,3:0|0:0|3:0,0:0:0:0:
255,250,61033,2,0,L|250:164,1,80,0|0,1:0|3:0,0:0:0:0:
193,113,61783,6,0,P|248:89|312:117,2,120,2|2|0,0:0|0:0|1:0,0:0:0:0:
138,171,63283,2,0,L|6:162,2,120,2|2|0,0:0|0:0|1:0,0:0:0:0:
200,220,64783,6,0,P|171:282|184:343,2,120,2|2|0,0:0|0:0|1:0,0:0:0:0:
268,178,66283,1,0,1:0:0:0:
268,178,67783,6,0,P|335:183|404:117,1,160,6|2,0:0|0:0,0:0:0:0:
395,44,68908,1,0,1:0:0:0:
318,20,69283,2,0,B|241:43|241:43|146:35,1,160,2|2,0:0|0:0,0:0:0:0:
82,26,70408,1,0,1:0:0:0:
31,87,70783,6,0,P|8:164|43:248,1,160,2|2,0:0|0:0,0:0:0:0:
93,290,71908,1,0,1:0:0:0:
164,326,72283,2,0,L|255:318,1,80,2|0,3:2|1:0,0:0:0:0:
300,262,73033,2,0,L|391:270,1,80,0|0,3:0|1:0,0:0:0:0:
459,280,73783,6,0,L|451:371,2,80,6|0|2,0:0|1:0|0:0,0:0:0:0:
431,204,74908,1,0,1:0:0:0:
403,128,75283,2,0,L|411:37,2,80,2|0|2,0:0|1:0|0:0,0:0:0:0:
353,190,76408,1,0,1:0:0:0:
296,246,76783,6,0,P|251:249|214:238,1,80,2|0,0:0|1:0,0:0:0:0:
148,199,77533,2,0,P|103:196|66:207,1,80,2|0,0:0|1:0,0:0:0:0:
11,260,78283,2,0,L|26:91,1,160,2|2,0:0|0:0,0:0:0:0:
89,53,79408,1,0,3:0:0:0:
162,21,79783,6,0,P|229:57|320:44,1,160,6|2,0:0|0:0,0:0:0:0:
381,13,80908,1,0,1:0:0:0:
450,51,81283,2,0,L|460:148,1,80,2|0,0:0|1:0,0:0:0:0:
504,195,82033,2,0,L|494:292,1,80,2|0,0:0|1:0,0:0:0:0:
445,337,82783,6,0,B|403:349|368:335|368:335|329:318|278:333,1,160,2|2,0:0|0:0,0:0:0:0:
211,353,83908,1,0,1:0:0:0:
154,296,84283,2,0,B|31:307,2,120,2|2|0,0:0|0:0|1:0,0:0:0:0:
231,275,85783,6,0,P|259:211|230:120,1,160,6|2,0:0|0:0,0:0:0:0:
191,60,86908,1,0,1:0:0:0:
127,108,87283,2,0,P|72:117|12:92,2,120,2|2|0,0:0|0:0|1:0,0:0:0:0:
191,60,88783,6,0,L|355:71,1,160,6|0,0:0|3:0,0:0:0:0:
416,117,89908,1,2,0:0:0:0:
465,179,90283,2,0,P|409:236|325:240,1,160,0|0,3:0|3:0,0:0:0:0:
260,206,91408,1,2,3:2:0:0:
186,174,91783,6,0,L|98:180,1,80,6|0,0:0|1:0,0:0:0:0:
49,236,92533,2,0,P|26:184|55:118,2,120,2|2|0,0:0|0:0|1:0,0:0:0:0:
118,275,94033,2,0,L|197:269,1,80,2|0,0:0|1:0,0:0:0:0:
256,213,94783,6,0,L|382:221,1,120,2|2,0:0|0:0,0:0:0:0:
455,226,95720,1,2,0:0:0:0:
511,168,96095,2,0,P|501:110|443:68,1,120,2|0,0:0|1:0,0:0:0:0:
378,50,97033,2,0,L|280:45,1,80,2|0,0:0|1:0,0:0:0:0:
232,93,97783,6,0,L|134:88,1,80,6|0,0:0|1:0,0:0:0:0:
72,97,98533,2,0,P|48:149|54:211,2,120,2|2|0,0:0|0:0|1:0,0:0:0:0:
152,88,100033,2,0,P|183:115|198:161,1,80,2|0,0:0|1:0,0:0:0:0:
225,225,100783,6,0,L|358:213,1,120,2|2,0:0|0:0,0:0:0:0:
424,207,101720,1,2,0:0:0:0:
502,193,102095,2,0,P|508:137|472:78,1,120,2|0,0:0|1:0,0:0:0:0:
406,46,103033,1,2,0:0:0:0:
326,33,103408,1,0,1:0:0:0:
253,66,103783,6,0,L|130:61,1,120,6|2,0:0|0:0,0:0:0:0:
63,100,104720,1,2,0:0:0:0:
11,161,105095,2,0,P|7:200|21:242,1,80,2|2,0:0|0:0,0:0:0:0:
87,278,105845,2,0,B|146:267|146:267|210:279,1,120,2|0,0:0|1:0,0:0:0:0:
279,307,106783,6,0,L|417:298,1,120,6|2,0:0|0:0,0:0:0:0:
463,252,107720,1,2,0:0:0:0:
505,184,108095,2,0,P|508:147|490:107,1,80,2|2,0:0|0:0,0:0:0:0:
424,63,108845,1,4,2:3:0:0:
256,192,109783,12,0,115595,0:0:0:0:
