osu file format v14

[General]
AudioFilename: audio.mp3
AudioLeadIn: 0
PreviewTime: 112449
Countdown: 0
SampleSet: Soft
StackLeniency: 0.7
Mode: 0
LetterboxInBreaks: 0
WidescreenStoryboard: 1

[Editor]
DistanceSpacing: 1
BeatDivisor: 4
GridSize: 32
TimelineZoom: 1.8

[Metadata]
Title:Oboetete Ii yo
TitleUnicode:覚えてていいよ
Artist:KOTOKO
ArtistUnicode:KOTOKO
Creator:ckharv
Version:Resolve
Source:
Tags:japanese pop j-pop jpop ayesha altugle kazato asa shizuku- shikibe mayu kowari silky fuyuyu- kanau mamayu zekk twintail loli
BeatmapID:3775251
BeatmapSetID:1838384

[Difficulty]
HPDrainRate:6
CircleSize:4
OverallDifficulty:8.8
ApproachRate:9.2
SliderMultiplier:1.8
SliderTickRate:1

[Events]
//Background and Video events
0,0,"512222.jpg",0,0
//Break Periods
2,81300,87272
2,167593,174912
//Storyboard Layer 0 (Background)
//Storyboard Layer 1 (Fail)
//Storyboard Layer 2 (Pass)
//Storyboard Layer 3 (Foreground)
//Storyboard Layer 4 (Overlay)
//Storyboard Sound Samples

[TimingPoints]
202,337.078651685393,4,2,1,100,1,0
202,-133.333333333333,4,2,1,55,0,0
5595,-113.636363636364,4,2,1,65,0,0
10988,-100,4,2,1,80,0,0
21437,-80.3212851405623,4,2,1,80,0,0
21775,-113.636363636364,4,2,1,65,0,0
43348,-125,4,2,1,65,0,0
48741,-113.636363636364,4,2,1,70,0,0
54134,-105.263157894737,4,2,1,75,0,0
56494,-71.4285714285714,4,2,1,80,0,0
56578,-71.4285714285714,4,2,1,5,0,0
56831,-100,4,2,1,85,0,1
67575,-100,4,2,1,85,0,0
67617,-100,4,2,1,85,0,1
78404,-100,4,2,1,85,0,0
81100,-100,4,2,1,70,0,0
87842,-100,4,2,1,80,0,0
88853,-80,4,2,1,80,0,0
89190,-113.636363636364,4,2,1,65,0,0
99977,-125,4,2,1,65,0,0
105370,-113.636363636364,4,2,1,70,0,0
113123,-71.4285714285714,4,2,1,80,0,0
113207,-71.4285714285714,4,2,1,5,0,0
113460,-100,4,2,1,85,0,1
124204,-100,4,2,1,85,0,0
124246,-100,4,2,1,85,0,1
135033,-100,4,2,3,70,0,0
135117,-100,4,2,1,55,0,0
140426,-117.647058823529,4,2,1,65,0,0
144471,-117.647058823529,4,2,1,70,0,0
145819,-98.0392156862745,4,2,1,80,0,0
146325,-108.695652173913,4,2,1,80,0,0
175482,-133.333333333333,4,2,1,65,0,0
176831,-113.636363636364,4,2,1,65,0,0
178179,-113.636363636364,4,2,1,75,0,0
187954,-113.636363636364,4,2,1,60,0,0
188123,-113.636363636364,4,2,1,65,0,0
188291,-113.636363636364,4,2,1,70,0,0
188460,-113.636363636364,4,2,1,75,0,0
188628,-113.636363636364,4,2,1,80,0,0
188966,-90.9090909090909,4,2,1,85,0,1
189471,-95.2380952380952,4,2,1,85,0,1
199710,-95.2380952380952,4,2,1,85,0,0
199752,-95.2380952380952,4,2,1,85,0,1
210539,-100,4,2,1,80,0,0
232196,-100,4,2,1,55,0,0

[Colours]
Combo1 : 253,217,164
Combo2 : 228,180,254
Combo3 : 152,188,254
Combo4 : 249,166,209

[HitObjects]
151,208,202,5,0,1:2:0:0:
151,208,370,1,0,1:2:0:0:
245,186,539,6,0,P|285:175|318:161,1,67.5000025749208,2|0,0:2|0:2,0:2:0:0:
134,302,876,2,0,P|122:342|118:378,1,67.5000025749208,2|0,0:2|0:2,0:2:0:0:
78,142,1213,2,0,P|48:112|19:90,1,67.5000025749208,2|0,0:2|0:2,0:2:0:0:
254,20,1550,6,0,P|285:68|369:80,1,135.000005149842,2|0,0:2|0:2,0:2:0:0:
512,196,2055,2,0,P|458:192|394:267,1,135.000005149842,2|0,0:2|0:2,0:2:0:0:
473,81,2561,2,0,P|460:40|456:7,1,67.5000025749208,2|2,0:2|0:2,0:2:0:0:
308,189,2898,5,0,0:2:0:0:
308,189,3067,1,0,0:2:0:0:
262,260,3235,2,0,P|224:280|183:285,1,67.5000025749208,2|0,0:2|0:2,0:2:0:0:
60,97,3572,1,2,0:2:0:0:
107,171,3740,2,0,P|145:191|186:196,1,67.5000025749208,2|0,0:2|0:2,0:2:0:0:
302,18,4078,1,0,0:2:0:0:
259,89,4246,6,0,P|221:109|180:114,1,67.5000025749208,2|0,0:2|0:2,0:2:0:0:
12,252,4584,1,0,0:2:0:0:
57,336,4752,2,0,P|101:364|198:377,1,135.000005149842,2|2,0:2|0:2,0:2:0:0:
356,228,5258,2,0,P|401:208|440:200,1,67.5000025749208,2|2,0:2|0:2,0:2:0:0:
328,372,5595,5,0,1:2:0:0:
328,372,5763,1,0,1:2:0:0:
240,282,5932,2,0,P|221:232|211:146,1,118.800003625488,10|0,0:2|0:2,0:2:0:0:
211,167,6269,2,0,L|260:178,1,39.6000012084961,2|0,1:2|1:2,0:2:0:0:
136,78,6437,2,0,L|178:60,1,39.6000012084961,0|0,1:2|1:2,0:2:0:0:
9,240,6606,5,10,0:2:0:0:
9,240,6943,2,0,P|66:257|107:274,1,79.2000024169923,2|0,1:2|0:2,0:2:0:0:
211,166,7280,1,8,0:2:0:0:
182,308,7449,1,2,1:2:0:0:
182,308,7533,1,0,1:2:0:0:
182,308,7617,2,0,L|159:254,1,39.6000012084961,0|0,1:2|1:2,0:2:0:0:
267,384,7786,2,0,L|280:321,1,39.6000012084961,2|0,1:2|1:2,0:2:0:0:
404,196,7954,5,10,0:2:0:0:
404,196,8291,2,0,P|464:216|499:221,1,79.2000024169923,0|0,1:2|1:2,0:2:0:0:
391,72,8628,1,10,0:2:0:0:
283,206,8797,1,0,1:2:0:0:
283,206,8881,1,0,1:2:0:0:
283,206,8966,2,0,L|227:227,1,39.6000012084961,2|0,1:2|1:2,0:2:0:0:
179,114,9134,2,0,L|133:100,1,39.6000012084961,2|0,1:2|1:2,0:2:0:0:
322,7,9303,1,10,0:2:0:0:
283,90,9471,1,0,1:2:0:0:
70,21,9640,5,10,0:2:0:0:
106,34,9724,1,0,1:2:0:0:
131,65,9808,1,0,1:2:0:0:
141,102,9892,1,0,1:2:0:0:
130,140,9977,2,0,L|76:157,1,39.6000012084961,0|0,1:2|1:2,0:2:0:0:
30,309,10145,5,10,0:2:0:0:
48,274,10229,1,0,1:2:0:0:
80,251,10313,1,0,1:2:0:0:
119,247,10397,1,0,1:2:0:0:
155,261,10482,2,0,L|212:292,1,39.6000012084961,0|0,1:2|1:2,0:2:0:0:
395,384,10651,5,10,0:2:0:0:
427,363,10735,1,8,0:2:0:0:
448,329,10819,1,8,0:2:0:0:
454,290,10903,1,8,0:2:0:0:
434,257,10988,6,0,B|333:251|368:312|248:310,1,180,6|8,1:2|0:2,0:2:0:0:
422,137,11494,1,2,0:2:0:0:
317,92,11662,2,0,P|301:48|296:0,1,90,2|0,1:2|1:2,0:2:0:0:
240,198,11999,1,8,0:2:0:0:
401,38,12168,6,0,P|443:26|492:16,1,90,2|0,1:2|0:2,0:2:0:0:
351,208,12505,1,0,1:2:0:0:
221,112,12673,2,0,P|177:123|135:138,1,90,8|0,0:2|0:2,0:2:0:0:
26,359,13010,1,2,1:2:0:0:
181,262,13179,1,0,1:2:0:0:
47,200,13348,2,0,P|24:140|23:96,1,90,8|0,0:2|0:2,0:2:0:0:
274,12,13685,6,0,P|305:84|301:192,2,180,2|8|0,1:2|0:2|1:2,0:2:0:0:
215,113,14527,1,0,1:2:0:0:
79,147,14696,1,10,0:2:0:0:
242,293,14864,6,0,B|343:309|305:354|421:372,1,180,2|0,1:2|1:2,0:2:0:0:
488,216,15370,1,8,0:2:0:0:
488,216,15454,1,0,1:2:0:0:
488,216,15539,2,0,P|434:238|401:245,1,90,4|2,1:2|1:2,0:2:0:0:
297,189,15876,1,0,1:2:0:0:
455,0,16044,2,0,P|438:59|422:143,1,135,8|0,0:2|0:2,0:2:0:0:
423,153,16381,6,0,P|380:97|267:97,1,180,6|8,1:2|0:2,0:2:0:0:
276,91,16887,1,0,0:2:0:0:
91,263,17055,1,0,1:2:0:0:
201,172,17224,1,0,1:2:0:0:
24,61,17393,1,8,0:2:0:0:
142,0,17561,6,0,P|122:75|98:194,1,180,2|0,1:2|1:2,0:2:0:0:
200,384,18067,2,0,P|244:348|284:351,1,90,8|0,0:2|0:2,0:2:0:0:
457,266,18404,1,2,1:2:0:0:
457,266,18572,1,0,1:2:0:0:
302,148,18741,2,0,P|322:214|332:263,1,90,8|0,0:2|0:2,0:2:0:0:
510,17,19078,6,0,P|482:61|336:66,1,180,6|10,1:2|0:2,0:2:0:0:
363,82,19584,1,0,0:2:0:0:
138,0,19752,1,2,1:2:0:0:
218,97,19921,1,2,1:2:0:0:
55,261,20089,1,10,0:2:0:0:
177,187,20258,1,0,1:2:0:0:
22,34,20426,5,8,0:2:0:0:
155,303,20595,1,8,0:2:0:0:
63,380,20932,5,8,0:2:0:0:
358,230,21100,1,8,0:2:0:0:
267,33,21353,5,0,1:2:0:0:
270,41,21437,2,0,P|330:76|452:101,1,168.075007757979,8|0,0:2|0:2,0:2:0:0:
494,130,21775,6,0,P|441:144|418:189,1,79.2000024169922,6|2,1:2|0:2,0:2:0:0:
405,5,22112,2,0,P|363:33|345:69,1,79.2000024169922,10|2,0:2|0:2,0:2:0:0:
278,234,22449,1,2,1:2:0:0:
182,173,22617,2,0,P|226:165|266:140,1,79.2000024169922,2|8,1:2|0:2,0:2:0:0:
122,4,22954,1,0,1:2:0:0:
35,61,23123,6,0,P|6:124|0:217,1,158.400004833984,2|10,0:2|0:2,0:2:0:0:
183,375,23628,2,0,P|179:297|148:225,1,158.400004833984,2|0,0:2|1:2,0:2:0:0:
76,358,24134,1,8,0:2:0:0:
293,295,24471,6,0,B|377:303|352:339|475:346,1,158.400004833984,2|10,0:2|0:2,0:2:0:0:
442,343,24977,1,0,0:2:0:0:
512,187,25145,1,2,1:2:0:0:
413,230,25314,1,2,1:2:0:0:
306,140,25482,1,10,0:2:0:0:
393,0,25651,6,0,P|426:37|447:162,1,158.400004833984,2|2,1:2|1:2,0:2:0:0:
332,233,26157,1,10,0:2:0:0:
211,73,26325,2,0,L|261:89,1,39.6000012084961,2|0,0:2|0:2,0:2:0:0:
169,1,26494,2,0,P|118:22|75:28,1,79.2000024169922,0|2,1:2|1:2,0:2:0:0:
1,264,26831,1,10,0:2:0:0:
157,168,26999,1,2,1:2:0:0:
26,66,27168,6,0,P|45:122|52:163,1,79.2000024169922,2|0,0:2|1:2,0:2:0:0:
23,380,27505,2,0,P|56:326|165:321,1,158.400004833984,8|2,0:2|1:2,0:2:0:0:
68,226,28010,1,0,1:2:0:0:
222,383,28179,1,10,0:2:0:0:
303,318,28348,6,0,P|321:268|310:154,1,158.400004833984,2|0,1:2|1:2,0:2:0:0:
166,13,28853,1,10,0:2:0:0:
166,13,29190,2,0,P|217:44|249:50,1,79.2000024169922,2|0,1:2|1:2,0:2:0:0:
358,195,29527,2,0,P|392:162|477:147,1,118.800003625488,10|0,0:2|0:2,0:2:0:0:
492,136,29864,6,0,P|476:190|470:231,1,79.2000024169922,2|0,1:2|1:2,0:2:0:0:
359,20,30201,1,10,0:2:0:0:
319,106,30370,2,0,P|285:135|160:158,1,158.400004833984,2|0,0:2|1:2,0:2:0:0:
35,0,30876,1,8,0:2:0:0:
171,78,31044,1,0,0:2:0:0:
17,241,31213,6,0,P|-5:189|-9:138,1,79.2000024169922,0|0,1:2|1:2,0:2:0:0:
140,0,31550,2,0,P|120:60|118:105,1,79.2000024169922,10|0,0:2|0:2,0:2:0:0:
277,193,31887,1,2,1:2:0:0:
277,193,32055,1,0,1:2:0:0:
134,312,32224,1,14,0:2:0:0:
263,96,32393,1,2,1:2:0:0:
0,103,32561,6,0,P|47:139|153:175,1,158.400004833984,6|10,1:2|0:2,0:2:0:0:
139,173,33067,1,2,0:2:0:0:
0,312,33235,1,2,1:2:0:0:
94,384,33404,1,2,1:2:0:0:
181,249,33572,2,0,P|211:226|269:218,1,79.2000024169922,8|2,0:2|1:2,0:2:0:0:
451,384,33909,6,0,B|367:376|392:345|298:329,1,158.400004833984,2|10,0:2|0:2,0:2:0:0:
446,275,34415,2,0,P|467:231|474:196,1,79.2000024169922,2|0,0:2|1:2,0:2:0:0:
364,18,34752,1,0,1:2:0:0:
311,95,34921,2,0,P|272:114|215:120,1,79.2000024169922,8|2,0:2|1:2,0:2:0:0:
472,83,35258,5,2,0:2:0:0:
380,177,35426,1,2,1:2:0:0:
260,63,35595,1,10,0:2:0:0:
121,26,35763,1,2,1:2:0:0:
33,303,35932,5,2,1:2:0:0:
46,171,36100,1,2,1:2:0:0:
161,78,36269,1,10,0:2:0:0:
319,121,36437,1,2,1:2:0:0:
319,121,36775,5,2,1:2:0:0:
206,244,36943,1,10,0:2:0:0:
82,99,37112,2,0,P|70:53|68:14,1,79.2000024169922,2|0,0:2|1:2,0:2:0:0:
4,214,37449,5,2,1:2:0:0:
170,91,37617,1,10,0:2:0:0:
304,262,37786,1,2,1:2:0:0:
467,77,37954,6,0,P|425:94|386:105,1,79.2000024169922,6|0,0:2|1:2,0:2:0:0:
214,247,38291,2,0,P|250:185|353:184,1,158.400004833984,8|2,0:2|1:2,0:2:0:0:
184,0,38797,1,2,1:2:0:0:
297,82,38966,1,10,0:2:0:0:
139,168,39134,6,0,B|51:161|92:120|-27:112,1,158.400004833984,2|0,1:2|1:2,0:2:0:0:
70,380,39640,2,0,P|113:330|184:328,1,118.800003625488,10|0,0:2|0:2,0:2:0:0:
185,336,39977,1,2,1:2:0:0:
73,243,40145,1,0,1:2:0:0:
228,154,40314,2,0,P|241:110|245:70,1,79.2000024169922,10|0,0:2|0:2,0:2:0:0:
386,363,40651,6,0,P|348:305|251:301,1,158.400004833984,6|8,1:2|0:2,0:2:0:0:
483,135,41157,1,0,0:2:0:0:
416,204,41325,2,0,P|379:199|332:173,1,79.2000024169922,0|0,1:2|1:2,0:2:0:0:
207,23,41662,2,0,P|244:18|291:-8,1,79.2000024169922,10|2,0:2|1:2,0:2:0:0:
218,192,41999,5,2,1:2:0:0:
218,192,42168,1,0,1:2:0:0:
132,119,42336,2,0,P|112:75|108:45,1,79.2000024169922,10|0,0:2|0:2,0:2:0:0:
70,213,42673,2,0,P|15:193|-15:163,1,79.2000024169922,2|0,1:2|1:2,0:2:0:0:
80,362,43010,1,10,0:2:0:0:
100,327,43094,1,8,0:2:0:0:
134,309,43178,1,8,0:2:0:0:
174,309,43262,1,8,0:2:0:0:
205,334,43348,6,0,P|270:365|358:379,1,144,6|10,1:2|0:2,0:2:0:0:
512,200,43853,2,0,P|459:232|351:254,1,144,2|0,0:2|1:2,0:2:0:0:
242,86,44359,1,8,0:2:0:0:
320,37,44527,1,0,1:2:0:0:
320,37,44612,1,0,1:2:0:0:
320,37,44696,6,0,B|310:117|274:86|274:202,1,144,2|10,1:2|0:2,0:2:0:0:
225,286,45201,1,2,0:2:0:0:
378,168,45370,2,0,P|427:181|465:187,1,72,2|2,1:2|1:2,0:2:0:0:
242,86,45707,2,0,P|191:74|144:55,1,72,10|0,0:2|1:2,0:2:0:0:
157,40,45960,1,0,1:2:0:0:
157,40,46044,6,0,P|121:89|20:98,1,144,2|10,1:2|0:2,0:2:0:0:
0,311,46550,2,0,P|25:267|116:246,1,144,2|0,0:2|1:2,0:2:0:0:
286,384,47055,1,8,0:2:0:0:
341,313,47224,1,0,1:2:0:0:
341,313,47308,1,0,1:2:0:0:
341,313,47393,6,0,P|297:332|198:363,1,144,2|10,1:2|0:2,0:2:0:0:
284,230,47898,1,2,0:2:0:0:
454,379,48067,2,0,P|444:323|424:284,1,72,2|2,1:2|1:2,0:2:0:0:
366,118,48404,2,0,P|373:82|386:49,1,72,10|0,0:2|1:2,0:2:0:0:
400,26,48657,1,0,1:2:0:0:
400,26,48741,6,0,B|388:115|342:75|347:192,1,158.400004833984,4|10,1:2|0:2,0:2:0:0:
236,15,49246,1,2,0:2:0:0:
57,159,49415,1,0,1:2:0:0:
132,137,49583,1,0,1:2:0:0:
206,117,49752,1,8,0:2:0:0:
46,66,49921,1,0,1:2:0:0:
46,66,50005,1,0,1:2:0:0:
46,66,50089,6,0,P|79:106|96:222,1,158.400004833984,2|10,1:2|0:2,0:2:0:0:
259,384,50595,2,0,P|249:339|300:223,1,158.400004833984,2|2,0:2|1:2,0:2:0:0:
133,332,51100,2,0,P|81:351|38:356,1,79.2000024169922,8|0,0:2|1:2,0:2:0:0:
33,364,51353,1,0,1:2:0:0:
33,364,51437,5,6,1:2:0:0:
98,208,51606,1,0,1:2:0:0:
0,46,51775,1,10,0:2:0:0:
0,46,51943,1,0,1:2:0:0:
216,69,52112,5,2,1:2:0:0:
0,164,52280,1,0,1:2:0:0:
230,61,52449,1,10,0:2:0:0:
325,204,52617,6,0,P|364:229|408:236,1,79.2000024169922,2|0,1:2|1:2,0:2:0:0:
480,189,52954,1,2,1:2:0:0:
297,384,53123,2,0,P|271:351|237:232,1,158.400004833984,10|0,0:2|1:2,0:2:0:0:
269,137,53628,1,0,1:2:0:0:
148,321,53797,2,0,P|106:354|24:363,1,118.800003625488,8|0,0:2|0:2,0:2:0:0:
18,372,54134,6,0,B|22:283|66:315|69:188,1,170.999995433807,6|8,1:2|0:2,0:2:0:0:
0,22,54640,1,0,1:2:0:0:
164,109,54808,6,0,P|139:115|107:132,1,42.7499988584519,8|0,0:2|1:2,0:2:0:0:
53,189,54977,1,0,1:2:0:0:
236,0,55145,6,0,P|251:27|258:53,1,42.7499988584519,8|0,0:2|1:2,0:2:0:0:
268,149,55314,1,0,1:2:0:0:
498,206,55482,5,8,0:2:0:0:
204,297,55651,1,8,0:2:0:0:
433,361,55819,6,0,L|421:318,1,42.7499988584519,10|0,0:2|1:2,0:2:0:0:
305,254,55988,2,0,L|316:295,1,42.7499988584519,2|0,1:2|1:2,0:2:0:0:
335,380,56157,1,2,1:2:0:0:
401,233,56325,1,2,1:2:0:0:
112,344,56494,6,0,L|28:326,1,62.9999980773926,10|0,0:2|0:2,0:2:0:0:
50,330,56831,6,0,P|94:298|112:174,1,180,6|10,1:2|0:2,0:2:0:0:
317,0,57336,2,0,P|357:74|458:79,1,180,2|2,0:2|1:2,0:2:0:0:
269,193,57842,1,8,0:2:0:0:
132,18,58010,1,2,1:2:0:0:
36,68,58179,6,0,P|16:108|8:152,1,90,2|0,1:2|1:2,0:2:0:0:
136,377,58516,1,10,0:2:0:0:
90,269,58685,2,0,P|47:248|0:247,1,90,2|0,1:2|0:2,0:2:0:0:
238,384,59022,2,0,P|282:381|322:361,1,90,2|8,1:2|0:2,0:2:0:0:
191,166,59359,1,2,0:2:0:0:
379,302,59527,5,2,1:2:0:0:
268,245,59696,2,0,P|215:269|170:276,1,90,0|10,1:2|0:2,0:0:0:0:
331,114,60033,2,0,B|428:128|388:183|493:194,1,180,2|2,0:2|1:2,0:2:0:0:
315,10,60539,1,10,0:2:0:0:
469,87,60707,1,2,0:2:0:0:
160,198,60876,5,2,1:2:0:0:
331,114,61044,1,0,1:2:0:0:
462,263,61213,1,10,0:2:0:0:
292,384,61381,2,0,P|303:323|314:275,1,90,2|0,1:2|0:2,0:2:0:0:
173,69,61718,1,2,1:2:0:0:
364,220,61887,1,8,0:2:0:0:
364,220,62224,6,0,P|291:212|217:121,1,180,6|10,1:2|0:2,0:2:0:0:
101,339,62730,2,0,P|69:364|-3:370,1,90,2|0,0:2|1:2,0:2:0:0:
183,248,63067,1,0,1:2:0:0:
0,173,63235,1,8,0:2:0:0:
154,33,63404,6,0,B|136:137|97:98|92:207,1,180,0|0,1:2|1:2,0:2:0:0:
331,131,63909,1,10,0:2:0:0:
248,1,64078,1,2,1:2:0:0:
470,39,64246,1,2,0:2:0:0:
470,39,64415,1,0,1:2:0:0:
273,233,64584,2,0,P|311:183|388:173,1,135,10|0,0:2|0:2,0:2:0:0:
445,253,64921,6,0,P|409:214|428:73,1,180,6|10,1:2|0:2,0:2:0:0:
273,233,65426,1,2,0:2:0:0:
25,91,65595,1,2,1:2:0:0:
255,4,65763,1,2,1:2:0:0:
164,120,65932,1,8,0:2:0:0:
427,308,66100,6,0,B|402:292|360:286|360:286|335:249|335:249|305:246|261:228,1,180,6|2,0:2|0:2,0:2:0:0:
179,375,66606,1,0,1:2:0:0:
432,193,66775,1,4,1:2:0:0:
272,232,66943,1,10,0:2:0:0:
382,103,67112,1,10,0:2:0:0:
197,23,67280,1,6,1:3:0:0:
197,23,67364,1,4,1:3:0:0:
197,23,67449,1,4,1:3:0:0:
197,23,67533,1,4,1:3:0:0:
197,23,67617,6,0,P|173:62|34:74,1,180,6|10,1:2|0:2,0:2:0:0:
0,310,68123,2,0,P|28:253|142:234,1,180,2|2,0:2|1:2,0:2:0:0:
326,69,68628,1,10,0:2:0:0:
226,273,68797,1,2,0:2:0:0:
50,84,68966,5,2,1:2:0:0:
282,160,69134,1,0,1:2:0:0:
40,77,69303,1,10,0:2:0:0:
290,169,69471,2,0,P|345:156|391:132,1,90,2|0,1:2|0:2,0:2:0:0:
155,370,69808,2,8,P|100:357|54:333,1,90,2|8,1:2|0:2,0:2:0:0:
5,261,70145,1,2,0:2:0:0:
242,127,70314,5,2,1:2:0:0:
154,186,70482,2,0,P|129:260|132:289,1,90,0|10,1:2|0:2,0:2:0:0:
40,182,70819,2,0,P|23:140|10:2,1,180,2|2,0:2|1:2,0:2:0:0:
154,186,71325,1,10,0:2:0:0:
265,124,71494,1,2,0:2:0:0:
346,381,71662,5,2,1:2:0:0:
239,248,71831,1,0,1:2:0:0:
374,105,71999,1,10,0:2:0:0:
167,9,72168,2,0,P|186:76|191:114,1,90,2|0,1:2|0:2,0:2:0:0:
20,349,72505,1,2,1:2:0:0:
66,242,72673,2,0,P|115:212|157:207,1,90,8|2,0:2|0:2,0:2:0:0:
302,337,73010,6,0,P|346:363|481:384,2,180,4|10|2,1:2|0:2|1:2,0:2:0:0:
384,247,73853,1,0,1:2:0:0:
207,384,74022,1,10,0:2:0:0:
274,252,74190,1,2,1:2:0:0:
189,201,74359,6,0,P|173:156|170:113,1,90,2|0,0:2|1:2,0:2:0:0:
388,0,74696,1,8,0:2:0:0:
323,96,74864,2,0,B|230:82|264:31|155:19,1,180,0|0,1:2|1:2,0:2:0:0:
16,250,75370,1,10,0:2:0:0:
164,180,75539,1,2,0:2:0:0:
38,40,75707,6,0,P|62:116|67:145,1,90,6|0,1:2|0:2,0:2:0:0:
242,253,76044,2,0,P|231:209|216:167,1,90,10|0,0:2|0:2,0:2:0:0:
383,3,76381,1,2,1:2:0:0:
507,69,76550,2,0,P|456:76|390:185,1,180,2|4,1:2|1:2,0:2:0:0:
389,175,76971,1,0,1:2:0:0:
389,175,77055,5,2,1:2:0:0:
490,250,77224,1,0,1:2:0:0:
294,387,77393,2,0,P|316:348|376:338,1,90,10|0,0:2|1:2,0:2:0:0:
378,333,77645,1,0,1:2:0:0:
378,333,77730,6,0,L|362:278,1,45,6|2,1:3|1:2,0:2:0:0:
254,178,77898,2,0,L|266:221,1,45,6|2,1:3|1:2,0:2:0:0:
123,378,78067,1,10,0:2:0:0:
74,371,78151,1,10,0:2:0:0:
36,346,78235,1,10,0:2:0:0:
19,306,78319,1,10,0:2:0:0:
23,257,78404,5,6,1:2:0:0:
256,192,78488,12,6,81100,1:2:0:0:
80,263,87842,5,8,0:2:0:0:
348,190,88010,1,8,0:2:0:0:
431,90,88348,5,8,0:2:0:0:
365,366,88516,1,8,0:2:0:0:
189,112,88769,5,0,1:2:0:0:
188,122,88853,2,0,P|133:149|13:172,1,168.75,8|0,0:2|0:2,0:2:0:0:
79,118,89190,6,0,P|90:84|91:29,1,79.2000024169922,6|2,1:2|0:2,0:2:0:0:
210,187,89527,2,0,P|199:132|180:99,1,79.2000024169922,10|2,0:2|0:2,0:2:0:0:
302,8,89864,1,2,1:2:0:0:
335,91,90033,1,2,1:2:0:0:
417,117,90201,1,8,0:2:0:0:
497,90,90370,1,2,1:2:0:0:
418,234,90539,6,0,P|387:182|368:74,1,158.400004833984,2|10,0:2|0:2,0:2:0:0:
383,338,91044,2,0,P|425:272|510:259,1,158.400004833984,2|0,0:2|1:2,0:2:0:0:
340,154,91550,1,8,0:2:0:0:
340,154,91887,6,0,P|295:185|262:192,1,79.2000024169922,2|2,0:2|1:2,0:2:0:0:
89,268,92224,2,0,P|40:253|12:232,1,79.2000024169922,10|2,0:2|0:2,0:2:0:0:
198,373,92561,1,2,1:2:0:0:
113,284,92730,1,2,1:2:0:0:
264,195,92898,1,10,0:2:0:0:
107,122,93067,1,2,1:2:0:0:
215,311,93235,5,2,0:2:0:0:
326,363,93404,1,2,1:2:0:0:
447,303,93572,1,10,0:2:0:0:
474,151,93741,2,0,P|460:104|455:67,1,79.2000024169922,2|0,0:2|1:2,0:2:0:0:
341,224,94078,1,2,1:2:0:0:
238,75,94246,1,10,0:2:0:0:
141,175,94415,1,2,1:2:0:0:
372,111,94584,6,0,P|323:135|295:143,1,79.2000024169922,2|0,0:2|1:2,0:2:0:0:
164,365,94921,2,0,P|194:307|291:290,1,158.400004833984,8|2,0:2|1:2,0:2:0:0:
141,175,95426,1,2,1:2:0:0:
334,220,95595,1,10,0:2:0:0:
159,28,95763,6,0,B|58:40|108:75|4:90,1,158.400004833984,2|0,1:2|1:2,0:2:0:0:
168,276,96269,1,10,0:2:0:0:
168,276,96606,2,0,P|129:242|91:235,1,79.2000024169922,2|0,1:2|1:2,0:2:0:0:
244,376,96943,2,0,P|290:363|359:318,1,118.800003625488,10|0,0:2|0:2,0:2:0:0:
365,302,97280,6,0,P|409:323|451:330,1,79.2000024169922,6|0,1:2|1:2,0:2:0:0:
512,193,97617,2,0,P|480:139|469:20,1,158.400004833984,8|0,0:2|1:2,0:2:0:0:
332,208,98123,1,0,1:2:0:0:
279,119,98291,2,0,P|244:98|199:94,1,79.2000024169922,8|2,0:2|0:2,0:2:0:0:
51,244,98628,5,2,1:2:0:0:
51,244,98797,1,0,1:2:0:0:
103,116,98966,2,0,P|92:79|52:35,1,79.2000024169922,10|0,0:2|0:2,0:2:0:0:
210,186,99303,2,0,P|202:245|187:272,1,79.2000024169922,2|0,1:2|1:2,0:2:0:0:
291,78,99640,1,10,0:2:0:0:
291,78,99724,1,0,1:0:0:0:
291,78,99808,1,4,1:3:0:0:
432,16,99977,6,0,P|402:40|288:76,1,144,6|10,1:2|0:2,0:2:0:0:
424,143,100482,1,2,0:2:0:0:
310,286,100651,1,0,1:2:0:0:
310,286,100819,1,0,1:2:0:0:
490,203,100988,1,8,0:2:0:0:
443,384,101157,1,0,1:2:0:0:
443,384,101241,1,0,1:2:0:0:
443,384,101325,6,0,B|422:307|391:337|383:245,1,144,2|10,1:2|0:2,0:2:0:0:
384,255,101999,2,0,P|403:221|409:173,1,72,2|2,1:2|1:2,0:2:0:0:
302,341,102336,2,0,P|261:371|218:381,1,72,10|0,0:2|0:2,0:2:0:0:
222,379,102589,1,2,0:2:0:0:
222,379,102673,6,0,P|185:322|93:308,1,144,2|10,1:2|0:2,0:2:0:0:
217,210,103179,1,2,0:2:0:0:
33,139,103348,1,0,1:2:0:0:
112,106,103516,1,0,1:2:0:0:
192,72,103685,1,8,0:2:0:0:
51,41,103853,1,0,1:2:0:0:
51,41,103937,1,0,1:2:0:0:
51,41,104022,6,0,P|90:91|106:167,1,108,0|0,1:2|0:2,0:2:0:0:
90,208,104359,2,0,P|128:161|184:161,1,108,8|0,0:2|0:2,0:2:0:0:
223,212,104696,1,2,1:2:0:0:
360,98,104864,1,2,1:2:0:0:
173,8,105033,1,10,0:2:0:0:
239,82,105201,1,0,1:2:0:0:
239,82,105286,1,0,1:2:0:0:
239,82,105370,6,0,P|296:71|399:32,1,158.400004833984,6|10,1:2|0:2,0:2:0:0:
486,263,105876,2,0,P|441:197|343:188,1,158.400004833984,2|0,0:2|1:2,0:2:0:0:
512,84,106381,1,8,0:2:0:0:
335,15,106550,1,0,1:2:0:0:
335,15,106634,1,0,1:2:0:0:
335,15,106718,6,0,P|354:71|363:120,1,79.2000024169922,2|2,1:2|1:2,0:2:0:0:
262,261,107055,1,10,0:2:0:0:
147,187,107224,2,0,P|201:176|238:163,1,79.2000024169922,2|0,0:2|1:2,0:2:0:0:
426,327,107561,2,0,P|398:362|323:374,1,118.800003625488,2|0,1:2|0:2,0:2:0:0:
308,363,107898,1,2,1:2:0:0:
401,202,108067,5,6,1:2:0:0:
401,202,108235,1,0,1:2:0:0:
223,168,108404,2,0,P|172:147|137:59,1,118.800003625488,8|0,0:2|0:2,0:2:0:0:
138,72,108741,1,2,1:2:0:0:
276,32,108909,1,2,1:2:0:0:
106,221,109078,1,10,0:2:0:0:
0,167,109246,1,2,1:2:0:0:
52,286,109415,6,0,P|71:338|76:375,1,79.2000024169922,0|2,1:2|1:2,0:2:0:0:
303,168,109752,2,0,P|245:174|198:286,1,158.400004833984,10|0,0:2|1:2,0:2:0:0:
104,146,110258,1,0,1:2:0:0:
278,380,110426,1,8,0:2:0:0:
278,380,110763,6,0,B|365:369|333:333|428:318,1,158.400004833984,6|8,1:2|0:2,0:2:0:0:
512,213,111269,1,0,1:2:0:0:
383,8,111437,6,0,P|400:41|405:75,1,39.6000012084961,8|0,0:2|1:2,0:2:0:0:
423,131,111606,1,0,1:2:0:0:
268,288,111775,6,0,P|271:256|277:237,1,39.6000012084961,8|0,0:2|1:2,0:2:0:0:
296,161,111943,1,0,1:2:0:0:
3,196,112112,5,8,0:2:0:0:
297,76,112280,1,8,0:2:0:0:
75,56,112449,6,0,L|87:101,1,39.6000012084961,10|0,0:2|1:2,0:2:0:0:
197,149,112617,2,0,L|186:110,1,39.6000012084961,2|0,1:2|1:2,0:2:0:0:
166,29,112786,1,2,1:2:0:0:
106,174,112954,1,2,1:2:0:0:
393,32,113123,6,0,L|460:45,1,62.9999980773926,10|0,0:2|0:2,0:2:0:0:
454,44,113460,6,0,P|403:47|328:151,1,180,6|10,1:2|0:2,0:2:0:0:
253,384,113966,2,0,P|229:330|110:304,1,180,2|2,0:2|1:2,0:2:0:0:
219,209,114471,1,8,0:2:0:0:
21,107,114640,1,2,0:2:0:0:
132,4,114808,6,0,P|119:49|108:107,1,90,0|0,1:2|1:2,0:2:0:0:
305,260,115145,1,10,0:2:0:0:
279,151,115314,2,0,P|238:126|185:127,1,90,2|0,1:2|0:2,0:2:0:0:
407,280,115651,2,0,P|451:276|489:252,1,90,2|8,1:2|0:2,0:2:0:0:
342,383,115988,1,2,0:2:0:0:
488,161,116157,5,2,1:2:0:0:
353,71,116325,2,0,P|380:136|382:188,1,90,0|10,1:2|0:2,0:2:0:0:
230,368,116662,2,0,P|257:303|384:285,1,180,2|2,0:0|1:2,0:0:0:0:
58,192,117168,1,10,0:2:0:0:
225,267,117336,1,2,1:2:0:0:
20,378,117505,5,2,1:2:0:0:
139,225,117673,1,0,1:2:0:0:
11,38,117842,1,10,0:2:0:0:
158,146,118010,2,0,P|209:132|260:113,1,90,2|0,1:2|0:2,0:2:0:0:
396,0,118348,1,2,1:2:0:0:
308,232,118516,1,8,0:2:0:0:
308,232,118853,6,0,P|278:183|260:51,1,180,6|10,1:2|0:2,0:2:0:0:
407,211,119359,2,0,P|454:233|507:237,1,90,2|0,0:2|1:2,0:2:0:0:
344,317,119696,1,0,1:2:0:0:
479,146,119864,1,8,0:2:0:0:
269,34,120033,6,0,B|170:44|208:96|111:113,1,180,0|0,1:2|1:2,0:2:0:0:
24,329,120539,1,10,0:2:0:0:
197,236,120707,1,2,1:2:0:0:
33,172,120876,1,2,0:2:0:0:
33,172,121044,1,0,1:2:0:0:
175,384,121213,2,0,P|216:329|294:320,1,135,10|0,0:2|0:2,0:2:0:0:
283,245,121550,6,0,P|317:318|420:358,1,180,6|8,1:2|0:2,0:2:0:0:
512,270,122055,1,2,0:2:0:0:
297,146,122224,1,2,1:2:0:0:
509,46,122393,1,2,1:2:0:0:
375,218,122561,1,8,0:2:0:0:
279,46,122730,6,0,P|217:0|107:16,1,180,6|0,0:2|1:2,0:2:0:0:
2,224,123235,1,2,1:2:0:0:
229,107,123404,1,4,1:2:0:0:
94,275,123572,1,10,0:2:0:0:
130,384,123741,1,8,1:2:0:0:
375,218,123909,1,4,1:3:0:0:
375,218,123994,1,4,1:3:0:0:
375,218,124078,1,4,1:3:0:0:
375,218,124162,1,4,1:3:0:0:
375,218,124246,6,0,P|308:217|231:119,1,180,6|10,1:2|0:2,0:2:0:0:
449,12,124752,2,0,P|472:65|478:127,1,90,2|0,0:2|1:2,0:2:0:0:
370,313,125089,1,2,1:2:0:0:
512,217,125258,1,8,0:2:0:0:
305,69,125426,5,2,0:2:0:0:
234,138,125595,2,0,B|133:127|176:88|69:62,1,180,0|10,1:2|0:2,0:2:0:0:
0,302,126100,2,0,P|37:240|148:224,1,180,2|2,1:2|1:2,0:2:0:0:
218,381,126606,1,8,0:2:0:0:
396,305,126775,1,2,0:2:0:0:
234,138,126943,6,0,P|261:202|268:237,1,90,2|0,1:2|1:0,0:0:0:0:
73,384,127280,2,0,B|84:283|135:327|138:188,1,180,10|0,0:0|1:0,0:0:0:0:
56,48,127786,1,2,1:2:0:0:
207,137,127954,1,10,0:2:0:0:
334,16,128123,1,2,0:2:0:0:
512,245,128291,5,2,1:2:0:0:
344,159,128460,1,0,1:2:0:0:
463,381,128628,1,10,0:2:0:0:
317,278,128797,2,0,P|276:298|232:307,1,90,2|0,1:2|0:2,0:2:0:0:
140,222,129134,1,2,1:2:0:0:
337,64,129303,2,0,P|393:80|434:120,1,90,10|2,0:2|0:2,0:2:0:0:
249,0,129640,6,0,P|202:44|70:76,2,180,6|10|2,1:2|0:2|1:2,0:2:0:0:
353,91,130482,1,0,1:2:0:0:
140,222,130651,1,10,0:2:0:0:
217,105,130819,1,2,1:2:0:0:
352,298,130988,6,0,P|389:339|513:348,1,180,2|8,0:2|0:2,0:2:0:0:
328,173,131494,2,0,B|223:190|273:241|149:254,1,180,0|0,1:2|1:2,0:2:0:0:
0,78,131999,1,10,0:2:0:0:
176,160,132168,1,2,0:2:0:0:
12,288,132336,6,0,P|-3:346|-6:383,1,90,6|0,1:2|0:2,0:2:0:0:
176,160,132673,2,0,P|168:115|154:73,1,90,10|0,0:2|0:2,0:2:0:0:
73,199,133010,1,2,1:2:0:0:
73,199,133179,1,2,1:2:0:0:
236,14,133348,1,8,0:2:0:0:
353,107,133516,1,6,1:2:0:0:
353,107,133600,1,0,1:2:0:0:
353,107,133685,6,0,P|409:95|448:79,1,90,0|0,1:2|1:2,0:2:0:0:
260,314,134022,1,10,0:2:0:0:
185,226,134190,2,0,P|157:221|126:210,1,45,8|8,1:3|1:3,0:2:0:0:
61,321,134359,1,4,1:3:0:0:
209,147,134527,1,4,1:3:0:0:
366,370,134696,1,8,0:2:0:0:
410,378,134780,1,8,0:2:0:0:
456,362,134864,1,8,0:2:0:0:
484,324,134949,1,8,0:2:0:0:
491,279,135033,5,6,1:2:0:0:
256,192,135117,12,0,140089,0:2:0:0:
58,127,140426,5,0,1:2:0:0:
58,127,140595,1,0,1:2:0:0:
180,18,140763,2,0,P|168:67|158:114,1,76.5000014591217,8|0,0:2|1:2,0:2:0:0:
171,115,141016,1,0,1:2:0:0:
171,115,141100,2,0,L|220:102,1,38.2500007295609,0|0,1:2|1:2,0:2:0:0:
281,158,141269,2,0,L|333:147,1,38.2500007295609,0|0,1:2|1:2,0:2:0:0:
378,49,141437,1,8,0:2:0:0:
490,275,141775,5,0,1:2:0:0:
490,275,141943,1,0,1:2:0:0:
403,370,142112,2,0,P|373:338|324:333,1,76.5000014591217,8|0,0:2|1:2,0:2:0:0:
319,315,142364,1,0,1:2:0:0:
319,315,142449,2,0,L|323:277,1,38.2500007295609,0|0,1:2|1:2,0:2:0:0:
413,204,142617,2,0,L|408:241,1,38.2500007295609,0|0,1:2|1:2,0:2:0:0:
255,372,142786,1,8,0:2:0:0:
5,220,143123,5,0,1:2:0:0:
5,220,143291,1,0,1:2:0:0:
103,347,143460,2,0,L|117:269,1,76.5000014591217,8|0,0:2|1:2,0:2:0:0:
112,251,143713,1,0,1:2:0:0:
112,251,143797,2,0,L|50:266,1,38.2500007295609,0|0,1:2|1:2,0:2:0:0:
204,173,143966,2,0,L|142:188,1,38.2500007295609,0|0,1:2|1:2,0:2:0:0:
86,97,144134,2,0,P|68:135|82:179,1,76.5000014591217,8|0,0:2|1:2,0:2:0:0:
235,14,144471,5,8,0:2:0:0:
250,59,144555,1,0,1:2:0:0:
288,80,144640,1,0,1:2:0:0:
332,85,144724,1,0,1:2:0:0:
367,64,144808,2,0,L|357:18,1,38.2500007295609,0|0,1:2|1:2,0:2:0:0:
373,241,144977,5,8,0:2:0:0:
389,198,145061,1,0,1:2:0:0:
428,172,145145,1,0,1:2:0:0:
471,170,145230,1,0,1:2:0:0:
512,190,145314,2,0,L|500:235,1,38.2500007295609,0|0,1:2|1:2,0:2:0:0:
324,383,145482,5,8,0:2:0:0:
282,363,145567,1,0,1:2:0:0:
243,349,145651,1,0,1:2:0:0:
199,339,145735,1,0,1:2:0:0:
157,329,145819,6,0,P|218:326|302:235,1,183.600001120605,6|8,1:2|0:2,0:2:0:0:
300,242,146325,1,0,0:2:0:0:
143,151,146494,1,2,1:2:0:0:
222,80,146662,2,0,P|234:39|235:-6,1,82.7999972204591,2|8,1:2|0:2,0:2:0:0:
15,158,146999,6,0,P|24:236|62:327,1,165.599994440918,2|0,1:2|1:2,0:2:0:0:
261,159,147505,1,8,0:2:0:0:
191,230,147673,2,0,P|143:221|112:206,1,82.7999972204591,2|0,0:2|1:2,0:2:0:0:
324,81,148010,2,0,P|378:91|490:130,1,165.599994440918,2|2,1:2|0:2,0:2:0:0:
349,384,148516,6,0,B|358:316|390:348|412:268,1,124.199995830689,2|0,1:2|0:2,0:2:0:0:
392,247,148853,2,0,P|379:205|371:161,1,82.7999972204591,10|0,0:2|0:2,0:2:0:0:
501,255,149190,1,2,1:2:0:0:
315,323,149359,2,0,P|264:310|218:303,1,82.7999972204591,2|8,1:2|0:2,0:2:0:0:
9,112,149696,6,0,P|41:169|145:186,1,165.599994440918,2|2,1:2|1:2,0:2:0:0:
298,24,150201,1,8,0:2:0:0:
229,212,150370,2,0,P|217:153|196:83,1,124.199995830689,6|0,1:2|0:2,0:2:0:0:
191,73,150707,1,0,1:2:0:0:
361,157,150876,2,0,P|415:139|456:130,1,82.7999972204591,10|0,0:2|1:2,0:2:0:0:
463,130,151128,1,0,1:2:0:0:
463,130,151213,6,0,B|460:212|425:165|418:282,1,124.199995830689,6|0,1:2|0:2,0:2:0:0:
404,275,151550,2,0,P|414:318|427:360,1,82.7999972204591,10|0,0:2|0:2,0:2:0:0:
259,210,151887,1,2,1:2:0:0:
157,368,152055,1,2,1:2:0:0:
322,306,152224,1,10,0:2:0:0:
146,234,152393,6,0,P|118:170|103:57,1,165.599994440918,2|2,1:2|1:2,0:2:0:0:
35,235,152898,1,10,0:2:0:0:
35,235,152982,1,0,1:2:0:0:
35,235,153067,1,0,1:2:0:0:
233,125,153235,2,0,L|330:101,1,82.7999972204591,2|2,1:2|1:2,0:2:0:0:
174,25,153572,1,10,0:2:0:0:
285,203,153741,1,2,1:2:0:0:
460,37,153909,6,0,B|360:49|400:91|311:104,1,165.599994440918,6|8,1:2|0:2,0:2:0:0:
313,104,154415,1,0,0:2:0:0:
487,217,154584,2,0,P|477:170|460:135,1,82.7999972204591,2|2,1:2|1:2,0:2:0:0:
321,301,154921,2,0,P|306:339|300:380,1,82.7999972204591,10|2,0:2|1:2,0:2:0:0:
417,283,155258,5,2,1:2:0:0:
314,188,155426,2,0,P|274:199|233:208,1,82.7999972204591,0|10,1:2|0:2,0:2:0:0:
17,137,155763,1,6,1:2:0:0:
17,137,155848,1,0,1:2:0:0:
17,137,155932,1,0,1:2:0:0:
204,42,156100,1,0,1:2:0:0:
126,229,156269,2,0,L|111:173,1,41.3999986102295,10|4,0:2|1:3,0:2:0:0:
53,23,156437,1,2,1:2:0:0:
220,158,156606,6,0,P|272:155|302:130,1,82.7999972204591,4|2,1:2|0:2,0:2:0:0:
305,125,156859,1,2,0:2:0:0:
305,125,156943,1,10,0:2:0:0:
510,19,157112,2,0,P|459:47|448:166,1,165.599994440918,2|0,0:2|1:2,0:2:0:0:
290,6,157617,1,10,0:2:0:0:
393,79,157786,1,2,1:2:0:0:
260,273,157954,5,2,0:2:0:0:
327,172,158123,1,2,1:2:0:0:
449,185,158291,1,10,0:2:0:0:
512,368,158460,2,0,B|429:352|456:306|351:292,1,165.599994440918,2|0,0:2|1:2,0:2:0:0:
175,166,158966,2,0,P|235:148|270:129,1,82.7999972204591,10|0,0:2|0:2,0:2:0:0:
43,365,159303,5,6,1:2:0:0:
194,266,159471,1,2,0:2:0:0:
25,203,159640,1,10,0:2:0:0:
159,7,159808,2,0,L|138:104,1,82.7999972204591,2|0,0:2|1:2,0:2:0:0:
270,246,160145,2,0,P|314:198|383:190,1,124.199995830689,2|0,1:2|0:2,0:2:0:0:
395,165,160482,6,0,P|445:188|486:196,1,82.7999972204591,6|0,1:2|0:2,0:2:0:0:
491,194,160735,1,8,0:2:0:0:
491,194,160819,1,2,1:2:0:0:
337,0,160988,1,2,1:2:0:0:
282,90,161157,2,0,P|233:117|142:131,1,124.199995830689,6|0,1:2|0:2,0:2:0:0:
150,119,161494,1,0,1:2:0:0:
20,315,161662,1,8,0:2:0:0:
20,315,161746,1,8,0:2:0:0:
20,315,161831,1,0,1:2:0:0:
25,92,161999,6,0,B|38:188|80:143|99:268,1,165.599994440918,6|8,1:2|0:2,0:2:0:0:
93,239,162505,1,0,0:2:0:0:
221,377,162673,1,2,1:2:0:0:
246,245,162842,1,2,1:2:0:0:
378,194,163010,1,10,0:2:0:0:
494,365,163179,6,0,P|437:357|308:305,1,165.599994440918,2|0,1:2|1:2,0:2:0:0:
512,182,163685,1,8,0:2:0:0:
421,89,163853,2,0,P|426:39|451:2,1,82.7999972204591,2|0,0:2|1:2,0:2:0:0:
357,189,164190,2,0,P|331:155|318:116,1,82.7999972204591,2|8,1:2|0:2,0:2:0:0:
69,1,164527,1,2,0:2:0:0:
172,41,164696,6,0,P|206:93|205:145,1,82.7999972204591,2|8,1:2|0:2,0:2:0:0:
308,34,165033,1,0,1:2:0:0:
122,177,165201,1,0,1:2:0:0:
9,106,165370,2,0,L|18:156,1,41.3999986102295,6|4,1:3|1:3,0:2:0:0:
49,366,165539,1,8,0:2:0:0:
294,308,165707,1,10,0:2:0:0:
294,308,165791,1,10,0:2:0:0:
294,308,165876,1,10,0:2:0:0:
294,308,165960,1,10,0:2:0:0:
294,308,166044,5,8,0:2:0:0:
8,233,166213,1,8,0:2:0:0:
259,75,166550,5,8,0:2:0:0:
198,368,166718,1,8,0:2:0:0:
68,147,166971,5,0,1:2:0:0:
77,154,167055,2,0,B|98:150|116:141|116:141|148:149|148:149|170:138|196:135,1,124.199995830689,6|0,1:2|0:2,0:2:0:0:
259,75,167393,5,6,1:2:0:0:
204,376,175482,6,0,P|225:333|326:319,1,135.000005149842,2|2,0:0|0:0,0:0:0:0:
200,223,176157,2,0,P|186:179|182:141,1,67.5000025749208,2|2,0:0|0:0,0:0:0:0:
68,253,176662,1,2,0:0:0:0:
16,182,176831,5,0,1:2:0:0:
43,79,177168,1,0,1:2:0:0:
43,79,177336,1,4,1:2:0:0:
141,39,177505,1,10,0:2:0:0:
245,113,177842,1,4,2:3:0:0:
245,113,177926,1,4,1:3:0:0:
245,113,178010,1,4,1:3:0:0:
245,113,178095,1,4,1:3:0:0:
245,113,178179,6,0,B|326:94|300:55|400:40,1,158.400004833984,6|8,1:2|0:2,0:2:0:0:
512,221,178685,2,0,P|455:210|416:197,1,79.2000024169922,2|0,0:2|1:2,0:2:0:0:
325,375,179022,1,2,1:2:0:0:
236,316,179190,2,0,P|218:266|215:218,1,79.2000024169922,8|2,0:2|0:2,0:2:0:0:
367,124,179527,6,0,P|339:192|330:295,1,158.400004833984,2|10,1:2|0:2,0:2:0:0:
245,153,180033,2,0,P|196:132|146:121,1,79.2000024169922,2|0,1:2|0:2,0:2:0:0:
26,271,180370,2,0,P|63:259|99:243,1,79.2000024169922,2|8,1:2|0:2,0:2:0:0:
0,38,180707,1,2,0:2:0:0:
71,118,180876,6,0,P|123:113|211:50,1,158.400004833984,2|10,1:2|0:2,0:2:0:0:
475,2,181381,2,0,P|436:36|432:152,1,158.400004833984,2|0,0:2|1:2,0:2:0:0:
311,250,181887,2,0,P|282:225|230:216,1,79.2000024169922,10|2,0:2|0:2,0:2:0:0:
482,319,182224,5,2,1:2:0:0:
284,373,182393,1,0,1:2:0:0:
412,222,182561,1,10,0:2:0:0:
218,135,182730,2,0,L|123:161,1,79.2000024169922,2|0,1:2|0:2,0:2:0:0:
27,364,183067,1,2,1:2:0:0:
94,291,183235,2,0,P|89:253|54:200,1,79.2000024169922,8|2,0:2|0:2,0:2:0:0:
276,69,183572,6,0,B|261:154|219:122|214:230,2,158.400004833984,6|10|2,1:2|0:2|1:2,0:2:0:0:
186,2,184415,1,0,1:2:0:0:
82,137,184584,2,0,P|34:157|2:160,1,79.2000024169922,10|2,0:2|1:2,0:2:0:0:
274,150,184921,6,0,P|308:199|326:315,1,158.400004833984,2|8,0:2|0:2,0:2:0:0:
98,383,185426,2,0,P|109:303|147:235,1,158.400004833984,0|0,1:2|1:2,0:2:0:0:
272,365,185932,2,0,P|318:381|361:383,1,79.2000024169922,10|2,0:2|0:2,0:2:0:0:
512,179,186269,6,0,B|490:184|470:190|470:190|450:209|450:209|431:212|399:224,1,118.800003625488,6|0,1:2|0:2,0:2:0:0:
378,219,186606,2,0,P|359:176|366:136,1,79.2000024169922,10|0,0:2|0:2,0:2:0:0:
441,37,186943,1,2,1:2:0:0:
321,153,187112,2,0,P|280:147|234:136,1,79.2000024169922,2|8,1:2|0:2,0:2:0:0:
49,0,187449,6,0,P|99:23|129:131,1,158.400004833984,6|2,1:2|1:2,0:2:0:0:
0,263,187954,1,8,0:2:0:0:
21,245,188039,1,8,0:2:0:0:
53,236,188123,1,8,0:2:0:0:
80,238,188207,1,8,0:2:0:0:
108,249,188291,1,10,0:2:0:0:
133,277,188376,1,10,0:2:0:0:
159,310,188460,1,10,0:2:0:0:
181,342,188544,1,10,0:2:0:0:
216,373,188628,1,10,0:2:0:0:
263,384,188713,1,10,0:2:0:0:
318,378,188797,1,10,0:2:0:0:
367,350,188881,1,10,0:2:0:0:
401,314,188966,6,0,P|420:251|417:98,1,198.000006042481,6|10,1:2|0:2,0:2:0:0:
175,0,189471,2,0,P|212:87|227:204,1,188.999994232178,2|2,0:2|1:2,0:2:0:0:
422,15,189977,1,10,0:2:0:0:
301,118,190145,1,2,0:2:0:0:
31,3,190314,5,2,1:2:0:0:
157,125,190482,1,0,1:2:0:0:
31,326,190651,1,10,0:2:0:0:
206,227,190819,2,0,P|113:226|49:160,1,188.999994232178,2|2,1:2|1:2,0:2:0:0:
172,281,191325,2,0,P|196:350|201:393,1,94.499997116089,8|2,0:2|0:2,0:2:0:0:
402,142,191662,5,2,1:2:0:0:
326,46,191831,2,0,P|271:73|226:83,1,94.499997116089,0|10,1:2|0:0,0:0:0:0:
471,273,192168,2,0,P|432:203|295:201,1,188.999994232178,2|2,0:2|1:2,0:0:0:0:
496,78,192673,1,10,0:2:0:0:
496,78,192758,1,0,1:2:0:0:
496,78,192842,1,2,1:2:0:0:
214,3,193010,5,2,1:2:0:0:
336,145,193179,1,0,1:2:0:0:
226,318,193348,1,10,0:2:0:0:
25,240,193516,2,0,P|88:227|206:187,1,188.999994232178,2|2,1:2|1:2,0:2:0:0:
60,114,194022,2,0,P|39:63|33:13,1,94.499997116089,8|2,0:2|0:2,0:2:0:0:
297,98,194359,6,0,B|284:204|228:162|230:283,1,188.999994232178,6|10,1:2|0:2,0:2:0:0:
231,270,194864,1,2,0:2:0:0:
55,194,195033,1,0,1:2:0:0:
55,194,195201,1,0,1:2:0:0:
207,384,195370,1,8,0:2:0:0:
387,211,195539,6,0,P|341:266|224:266,1,188.999994232178,0|0,1:2|1:2,0:2:0:0:
2,114,196044,2,0,P|56:102|101:81,1,94.499997116089,10|2,0:2|1:2,0:2:0:0:
14,270,196381,1,2,0:2:0:0:
193,165,196550,1,0,1:2:0:0:
24,16,196718,2,0,P|56:91|75:184,1,141.749995674133,10|0,0:2|0:2,0:2:0:0:
77,187,197055,6,0,P|100:142|235:127,1,188.999994232178,6|8,1:2|0:2,0:2:0:0:
340,0,197561,1,2,0:2:0:0:
512,195,197730,1,2,1:2:0:0:
381,163,197898,1,2,1:2:0:0:
341,379,198067,1,8,0:2:0:0:
121,348,198235,1,6,0:2:0:0:
203,129,198404,6,0,P|238:190|244:253,1,94.499997116089,0|8,1:2|0:2,0:2:0:0:
245,233,198657,1,2,0:2:0:0:
245,233,198741,1,2,1:2:0:0:
284,19,198909,2,0,P|248:61|94:108,1,188.999994232178,6|10,1:2|1:3,0:2:0:0:
108,101,199331,1,4,1:3:0:0:
108,101,199415,2,0,L|119:35,1,47.2499985580445,10|4,1:3|1:3,0:2:0:0:
41,192,199584,2,0,L|3:158,1,47.2499985580445,6|4,1:3|1:3,0:2:0:0:
162,384,199752,6,0,P|196:322|309:306,1,188.999994232178,6|10,1:2|0:2,0:2:0:0:
508,127,200258,2,0,P|451:153|412:162,1,94.499997116089,2|0,0:2|1:2,0:2:0:0:
316,81,200595,1,2,1:2:0:0:
470,278,200763,1,10,0:2:0:0:
264,211,200932,1,2,0:2:0:0:
454,23,201100,5,2,1:2:0:0:
338,162,201269,1,0,1:2:0:0:
95,3,201437,1,10,0:2:0:0:
189,54,201606,2,0,P|219:118|220:160,1,94.499997116089,2|0,1:2|0:2,0:2:0:0:
34,358,201943,1,2,1:2:0:0:
101,286,202112,2,0,P|105:230|76:141,1,141.749995674133,8|0,0:2|0:2,0:2:0:0:
68,139,202449,5,2,1:2:0:0:
189,54,202617,2,0,P|243:79|281:88,1,94.499997116089,0|10,1:2|0:2,0:0:0:0:
512,244,202954,2,0,B|405:255|454:309|344:337,1,188.999994232178,2|2,0:0|1:2,0:0:0:0:
221,140,203460,1,10,0:2:0:0:
347,241,203628,1,2,0:2:0:0:
452,0,203797,5,2,1:2:0:0:
357,127,203966,1,0,1:2:0:0:
189,52,204134,1,10,0:2:0:0:
2,195,204303,2,0,B|80:211|48:244|145:262,1,141.749995674133,2|0,1:2|0:2,0:2:0:0:
148,256,204640,1,2,1:2:0:0:
274,92,204808,2,0,P|271:22|251:-19,1,94.499997116089,8|2,0:2|0:2,0:2:0:0:
508,312,205145,6,0,P|453:239|362:236,2,188.999994232178,6|10|2,1:2|0:2|1:2,0:2:0:0:
415,384,205988,1,0,1:2:0:0:
261,270,206157,2,0,P|262:212|284:163,1,94.499997116089,10|2,0:2|1:2,0:2:0:0:
10,15,206494,6,0,P|70:65|58:178,1,188.999994232178,2|8,0:2|0:2,0:2:0:0:
264,57,206999,2,0,P|190:85|167:197,1,188.999994232178,0|0,1:2|1:2,0:2:0:0:
0,384,207505,2,0,B|72:366|50:325|141:319,1,141.749995674133,10|0,0:2|0:2,0:2:0:0:
142,301,207842,6,0,P|205:327|263:344,1,94.499997116089,6|0,1:2|0:2,0:2:0:0:
163,185,208179,2,0,P|118:169|74:150,1,94.499997116089,10|0,0:2|0:2,0:2:0:0:
0,254,208516,1,2,1:2:0:0:
264,157,208685,2,0,P|325:137|367:119,1,94.499997116089,2|8,1:2|0:2,0:2:0:0:
168,15,209022,1,6,0:2:0:0:
298,246,209190,5,0,1:2:0:0:
298,246,209359,1,0,1:2:0:0:
491,71,209527,2,0,P|433:81|410:137,1,94.499997116089,10|0,0:2|1:2,0:2:0:0:
402,135,209780,1,0,1:2:0:0:
402,135,209864,6,0,L|333:123,1,47.2499985580445,2|2,1:2|1:2,0:2:0:0:
251,235,210033,2,0,L|299:245,1,47.2499985580445,2|2,1:2|1:2,0:2:0:0:
66,104,210201,2,0,L|75:150,1,47.2499985580445,10|10,0:2|0:2,0:2:0:0:
155,378,210370,2,0,L|165:314,1,47.2499985580445,10|10,0:2|0:2,0:2:0:0:
384,176,210539,6,0,P|288:193|252:275,1,180,6|8,1:2|0:2,0:2:0:0:
253,261,211044,1,0,0:2:0:0:
136,91,211213,1,0,1:2:0:0:
71,177,211381,2,0,P|22:201|-27:205,1,90,0|8,1:2|0:2,0:2:0:0:
204,8,211718,6,0,P|278:16|410:69,1,180,2|0,1:2|1:2,0:2:0:0:
253,261,212224,2,0,P|236:208|232:168,1,90,8|0,0:2|0:2,0:2:0:0:
354,376,212561,1,2,1:2:0:0:
158,335,212730,1,0,1:2:0:0:
331,204,212898,2,0,P|382:195|425:186,1,90,8|0,0:2|0:2,0:2:0:0:
205,46,213235,6,0,B|110:57|140:111|43:128,2,180,6|8|0,1:2|0:2|1:2,0:2:0:0:
315,125,214078,1,0,1:0:0:0:
492,25,214246,1,10,0:0:0:0:
419,187,214415,6,0,P|398:255|385:372,1,180,2|0,1:2|1:2,0:0:0:0:
224,155,214921,1,8,0:2:0:0:
324,250,215089,2,0,B|417:236|382:179|494:169,1,180,6|0,1:2|1:0,0:0:0:0:
385,362,215595,2,0,P|340:370|297:383,1,90,10|0,0:0|1:0,0:0:0:0:
2,154,215932,6,0,P|67:157|127:278,1,180,6|8,1:2|0:0,0:0:0:0:
131,245,216437,1,0,0:0:0:0:
78,382,216606,1,0,1:2:0:0:
253,300,216775,2,0,P|296:287|340:279,1,90,0|8,1:0|0:0,0:0:0:0:
497,34,217112,6,0,B|396:49|439:100|333:117,1,180,2|0,1:2|1:0,0:0:0:0:
507,225,217617,1,8,0:0:0:0:
507,225,217701,1,0,1:2:0:0:
507,225,217786,2,0,P|500:168|482:122,1,90,0|2,1:2|1:2,0:0:0:0:
402,291,218123,1,0,1:0:0:0:
211,178,218291,2,0,P|269:167|340:136,1,135,8|0,0:0|0:0,0:0:0:0:
341,115,218628,6,0,P|324:62|319:17,1,90,6|0,1:2|0:0,0:0:0:0:
128,101,218966,2,0,P|96:161|142:268,1,180,8|0,0:0|1:0,0:0:0:0:
61,384,219471,1,0,1:0:0:0:
210,320,219640,1,10,0:0:0:0:
480,157,219808,6,0,B|386:185|422:228|339:264,1,180,2|0,1:2|1:0,0:0:0:0:
129,99,220314,2,0,P|78:89|14:71,1,90,10|4,0:0|1:2,0:0:0:0:
194,28,220651,1,2,0:0:0:0:
135,186,220819,1,2,1:2:0:0:
358,24,220988,1,10,0:0:0:0:
236,159,221157,1,2,0:0:0:0:
512,95,221325,5,6,1:2:0:0:
319,210,221494,1,2,0:0:0:0:
135,18,221662,1,10,0:0:0:0:
236,159,221831,1,2,0:0:0:0:
425,84,221999,1,0,1:2:0:0:
338,297,222168,2,0,P|331:256|318:208,1,90,0|8,1:2|0:0,0:0:0:0:
151,372,222505,6,0,P|87:383|-7:293,1,180,2|0,1:2|1:2,0:0:0:0:
179,206,223010,2,0,P|197:147|209:4,1,180,8|2,0:0|1:2,0:0:0:0:
309,138,223516,1,0,1:2:0:0:
99,285,223685,2,0,P|83:239|75:196,1,90,8|0,0:0|0:0,0:0:0:0:
288,384,224022,6,0,P|310:332|445:315,1,180,6|8,1:2|0:0,0:0:0:0:
422,303,224527,1,0,0:0:0:0:
511,193,224696,1,0,1:2:0:0:
405,224,224864,1,0,1:2:0:0:
309,138,225033,1,8,0:0:0:0:
404,0,225201,6,0,P|457:74|466:171,1,180,2|0,1:2|1:2,0:0:0:0:
275,273,225707,1,8,0:0:0:0:
405,79,225876,1,4,1:2:0:0:
309,138,226044,2,0,P|251:128|208:112,1,90,2|0,0:0|1:2,0:0:0:0:
29,340,226381,2,0,P|59:290|143:278,1,135,8|0,0:0|0:0,0:0:0:0:
143,286,226718,6,0,B|136:198|83:221|74:118,1,180,6|8,1:2|0:0,0:0:0:0:
75,124,227224,1,2,0:0:0:0:
314,31,227393,1,0,1:0:0:0:
198,180,227561,1,0,1:0:0:0:
75,124,227730,1,8,0:0:0:0:
284,220,227898,6,0,P|222:210|139:304,1,180,0|0,1:2|1:2,0:0:0:0:
28,18,228404,2,0,P|59:74|189:77,1,180,8|0,0:0|1:0,0:0:0:0:
15,199,228909,1,0,1:0:0:0:
159,373,229078,2,0,P|150:318|139:275,1,90,8|0,0:0|0:0,0:0:0:0:
348,150,229415,6,0,B|422:161|389:205|487:213,1,135,6|0,1:2|0:0,0:0:0:0:
491,190,229752,2,0,P|500:135|511:92,1,90,10|0,0:0|0:0,0:0:0:0:
375,0,230089,1,0,1:2:0:0:
375,0,230258,1,0,1:2:0:0:
198,203,230426,1,8,0:0:0:0:
364,144,230595,1,0,1:2:0:0:
87,26,230763,5,8,0:0:0:0:
170,300,230932,1,8,0:0:0:0:
82,382,231269,5,8,0:0:0:0:
399,262,231438,1,8,0:0:0:0:
244,119,231690,5,0,1:0:0:0:
255,125,231775,2,0,P|284:175|299:290,1,135,8|0,0:2|0:0,0:0:0:0:
284,339,232112,5,4,1:2:0:0:
256,192,232196,12,0,234808,0:0:0:0:
