osu file format v14

[General]
AudioFilename: audio.mp3
AudioLeadIn: 0
PreviewTime: 112449
Countdown: 0
SampleSet: Soft
StackLeniency: 0.7
Mode: 0
LetterboxInBreaks: 0
WidescreenStoryboard: 1

[Editor]
DistanceSpacing: 1
BeatDivisor: 4
GridSize: 32
TimelineZoom: 1.8

[Metadata]
Title:Oboetete Ii yo
TitleUnicode:覚えてていいよ
Artist:KOTOKO
ArtistUnicode:KOTOKO
Creator:ckharv
Version:Kowari's Insane
Source:
Tags:japanese pop j-pop jpop ayesha altugle kazato asa shizuku- shikibe mayu kowari silky fuyuyu- kanau mamayu zekk twintail loli
BeatmapID:3790631
BeatmapSetID:1838384

[Difficulty]
HPDrainRate:6
CircleSize:4
OverallDifficulty:7
ApproachRate:8
SliderMultiplier:1.6
SliderTickRate:1

[Events]
//Background and Video events
0,0,"512222.jpg",0,0
//Break Periods
2,78604,88440
2,135233,139676
2,167592,174732
//Storyboard Layer 0 (Background)
//Storyboard Layer 1 (Fail)
//Storyboard Layer 2 (Pass)
//Storyboard Layer 3 (Foreground)
//Storyboard Layer 4 (Overlay)
//Storyboard Sound Samples

[TimingPoints]
202,337.078651685393,4,2,6,70,1,0

[Colours]
Combo1 : 253,217,164
Combo2 : 228,180,254
Combo3 : 152,188,254
Combo4 : 249,166,209

[HitObjects]
266,251,5595,6,0,P|218:244|166:228,1,80,0|0,1:2|1:2,0:0:0:0:
97,297,5932,2,0,P|89:236|67:174,1,120,8|0,0:2|0:2,0:2:0:0:
70,180,6269,2,0,L|16:166,2,40,2|0|0,1:2|1:2|1:2,0:2:0:0:
141,116,6606,1,10,0:2:0:0:
141,116,6943,5,2,1:2:0:0:
69,66,7112,1,0,1:2:0:0:
236,68,7280,2,0,P|298:54|357:28,1,120,8|0,0:2|1:2,0:0:0:0:
349,31,7617,2,0,P|339:68|335:89,2,40,0|0|2,1:2|1:2|1:2,0:2:0:0:
445,25,7954,6,0,P|432:76|420:187,1,160,10|0,0:2|1:2,0:0:0:0:
490,236,8460,1,0,1:2:0:0:
356,344,8628,2,0,P|396:331|449:327,1,80,10|0,0:2|1:2,0:0:0:0:
433,326,8881,1,0,1:2:0:0:
433,326,8966,1,2,1:2:0:0:
433,326,9050,1,0,1:2:0:0:
433,326,9134,1,2,1:2:0:0:
322,269,9303,2,0,P|269:290|176:296,1,120,10|0,0:2|0:0,0:0:0:0:
206,298,9640,6,0,P|191:349|183:384,1,80,10|0,0:2|1:2,0:0:0:0:
101,217,9977,1,0,1:2:0:0:
101,217,10145,2,0,P|89:268|70:316,1,80,10|0,0:2|1:2,0:0:0:0:
11,327,10482,1,0,1:2:0:0:
230,179,10651,5,10,0:2:0:0:
230,179,10735,1,8,0:2:0:0:
230,179,10819,1,8,0:2:0:0:
230,179,10904,1,8,0:2:0:0:
230,179,10988,2,0,P|238:124|246:83,1,80,6|0,1:2|0:0,0:2:0:0:
310,51,11325,1,8,0:2:0:0:
158,115,11494,2,0,P|98:126|-14:128,1,160,2|0,0:2|1:2,0:0:0:0:
0,53,11999,1,8,0:2:0:0:
105,217,12168,1,2,1:2:0:0:
105,217,12505,5,0,1:2:0:0:
158,135,12673,2,0,P|173:87|179:42,1,80,8|0,0:2|0:2,0:2:0:0:
353,157,13010,2,0,P|291:180|240:186,1,80,2|0,1:2|1:2,0:0:0:0:
277,182,13348,2,0,P|278:101|341:36,1,160,8|2,0:2|1:2,0:2:0:0:
428,28,13853,5,0,0:0:0:0:
495,72,14022,1,8,0:2:0:0:
448,151,14190,2,0,P|404:128|363:113,1,80,2|0,0:0|1:2,0:0:0:0:
277,182,14527,2,0,P|232:192|170:217,1,80,0|10,1:2|0:2,0:0:0:0:
338,380,14864,6,0,P|349:322|382:227,1,160,2|0,1:2|1:2,0:2:0:0:
454,273,15370,1,8,0:2:0:0:
430,355,15539,1,4,1:2:0:0:
430,355,15623,1,0,0:0:0:0:
430,355,15707,1,2,1:2:0:0:
278,290,15876,1,0,1:2:0:0:
278,290,16044,2,0,P|219:276|154:268,1,120,8|0,0:2|0:2,0:2:0:0:
160,268,16381,6,0,P|143:322|133:374,1,80,6|0,1:2|0:0,0:2:0:0:
95,128,16718,2,0,P|78:193|41:302,1,160,8|0,0:2|1:2,0:0:0:0:
182,188,17224,2,0,P|231:172|272:164,1,80,0|8,1:2|0:2,0:0:0:0:
37,33,17561,6,0,P|78:90|174:80,1,160,2|0,1:2|1:2,0:2:0:0:
328,28,18067,1,8,0:2:0:0:
328,28,18404,1,2,1:2:0:0:
248,10,18573,1,0,1:2:0:0:
245,93,18741,1,8,0:2:0:0:
324,109,18909,1,0,0:2:0:0:
414,0,19078,6,0,P|425:45|449:105,1,80,6|0,1:2|0:0,0:2:0:0:
505,137,19415,1,10,0:2:0:0:
360,265,19584,2,0,P|403:238|528:222,1,160,2|2,0:2|1:2,0:0:0:0:
461,309,20089,1,10,0:2:0:0:
410,378,20258,1,0,1:2:0:0:
312,180,20426,5,8,0:2:0:0:
312,180,20595,1,8,0:2:0:0:
30,290,20932,1,8,0:2:0:0:
30,290,21101,1,8,0:2:0:0:
102,228,21353,5,0,1:2:0:0:
102,228,21437,2,0,P|110:164|120:106,1,120,8|0,0:2|0:2,0:2:0:0:
119,109,21775,6,0,P|164:103|210:89,1,80,6|2,1:2|0:2,0:2:0:0:
256,32,22112,1,10,0:2:0:0:
337,22,22280,1,2,0:2:0:0:
378,95,22449,1,2,1:2:0:0:
341,175,22617,2,0,P|334:230|321:280,1,80,2|8,1:2|0:2,0:2:0:0:
447,330,22954,5,0,1:2:0:0:
382,379,23123,2,0,P|401:310|456:232,1,160,2|10,0:2|0:2,0:2:0:0:
512,181,23628,1,2,0:2:0:0:
411,120,23797,2,0,P|354:112|306:97,1,80,0|0,1:0|1:2,0:0:0:0:
402,33,24134,2,0,P|456:41|504:55,1,80,8|0,0:2|1:0,0:0:0:0:
293,173,24471,6,0,P|225:182|123:218,1,160,2|10,0:2|0:2,0:2:0:0:
93,279,24977,1,0,0:2:0:0:
0,138,25145,1,2,1:2:0:0:
0,138,25314,2,0,P|56:154|106:161,1,80,2|10,1:2|0:2,0:0:0:0:
228,4,25651,6,0,P|200:54|190:131,1,120,2|0,1:2|0:0,0:2:0:0:
189,115,25988,2,0,P|196:162|199:210,1,80,2|10,1:2|0:2,0:0:0:0:
138,261,26325,1,2,0:2:0:0:
138,261,26409,1,0,0:2:0:0:
138,261,26494,1,0,1:2:0:0:
112,173,26662,1,2,1:2:0:0:
233,279,26831,2,0,P|283:291|330:293,1,80,10|2,0:2|1:2,0:0:0:0:
12,367,27168,6,0,P|65:347|181:370,2,160,2|8|2,0:2|0:2|1:2,0:2:0:0:
91,299,28010,2,0,P|106:243|120:210,1,80,0|10,1:2|0:2,0:0:0:0:
90,73,28348,1,2,1:2:0:0:
90,73,28684,5,0,1:2:0:0:
53,145,28853,2,0,P|38:187|19:230,1,80,10|0,0:2|0:0,0:0:0:0:
157,137,29190,2,0,P|212:122|281:117,1,120,2|0,1:2|0:0,0:2:0:0:
274,116,29527,2,0,P|316:130|387:144,1,80,10|0,0:2|0:0,0:2:0:0:
506,36,29864,5,2,1:2:0:0:
430,0,30033,1,0,1:2:0:0:
374,56,30201,1,10,0:2:0:0:
455,112,30370,2,0,P|467:178|470:217,1,80,2|0,0:2|1:0,0:2:0:0:
356,263,30707,1,0,1:2:0:0:
428,313,30876,2,0,P|494:299|532:283,1,80,8|0,0:2|0:2,0:0:0:0:
336,187,31213,6,0,P|330:246|313:323,1,120,0|0,1:2|0:0,0:2:0:0:
317,305,31550,1,10,0:2:0:0:
163,367,31718,2,0,P|123:347|64:332,1,80,0|2,0:2|1:2,0:0:0:0:
15,284,32055,1,0,1:2:0:0:
205,237,32224,1,14,0:2:0:0:
74,89,32393,1,2,1:2:0:0:
74,89,32477,1,0,0:0:0:0:
74,89,32561,5,6,1:2:0:0:
50,164,32730,1,0,0:0:0:0:
126,178,32898,1,10,0:2:0:0:
157,106,33067,1,2,0:2:0:0:
79,12,33235,1,2,1:2:0:0:
79,12,33404,2,0,P|25:26|-3:29,1,80,2|8,1:2|0:2,0:0:0:0:
165,156,33741,5,2,1:2:0:0:
194,47,33910,2,0,P|262:32|361:24,1,160,2|10,0:2|0:2,0:2:0:0:
320,136,34415,1,2,0:2:0:0:
320,136,34499,1,0,0:0:0:0:
320,136,34584,1,0,1:2:0:0:
444,105,34752,1,0,1:2:0:0:
508,216,34921,1,8,0:2:0:0:
383,265,35089,5,2,1:2:0:0:
383,265,35258,2,0,P|382:314|378:360,1,80,2|2,0:2|1:2,0:0:0:0:
466,380,35595,2,0,P|470:318|474:275,1,80,10|2,0:2|1:2,0:0:0:0:
471,300,35848,1,0,0:0:0:0:
471,300,35932,1,2,1:2:0:0:
408,198,36100,1,2,1:2:0:0:
298,244,36269,1,10,0:2:0:0:
216,194,36437,6,0,P|156:184|63:145,1,160,2|2,1:2|1:2,0:0:0:0:
95,252,36943,1,10,0:2:0:0:
215,106,37112,2,0,P|285:89|321:75,1,80,2|0,0:2|1:2,0:2:0:0:
168,32,37449,1,2,1:2:0:0:
216,194,37617,1,10,0:2:0:0:
168,32,37786,1,2,1:2:0:0:
85,68,37954,6,0,P|71:114|63:157,1,80,6|0,0:2|1:2,0:2:0:0:
8,280,38291,2,0,P|61:264|127:251,1,120,8|0,0:2|0:0,0:2:0:0:
124,251,38628,1,2,1:2:0:0:
201,293,38797,2,0,P|209:343|219:384,1,80,2|10,1:2|0:2,0:0:0:0:
374,236,39134,1,2,1:2:0:0:
374,236,39471,5,0,1:2:0:0:
273,202,39639,2,0,P|224:191|173:170,1,80,10|0,0:2|0:0,0:2:0:0:
333,106,39977,2,0,P|321:54|317:15,1,80,2|0,1:2|1:2,0:0:0:0:
216,0,40314,2,0,P|228:52|232:91,1,80,10|0,0:2|0:2,0:2:0:0:
382,207,40651,5,6,1:2:0:0:
382,207,40819,1,0,1:0:0:0:
382,207,40988,2,0,P|390:135|418:38,1,160,8|0,0:2|1:2,0:0:0:0:
491,27,41494,1,0,1:2:0:0:
512,163,41662,2,0,P|468:149|417:137,1,80,10|2,0:2|1:2,0:2:0:0:
291,229,41999,5,2,1:2:0:0:
312,304,42168,1,0,1:2:0:0:
389,291,42336,1,10,0:2:0:0:
367,218,42505,1,0,0:2:0:0:
432,382,42673,5,2,1:2:0:0:
470,259,42842,1,0,1:2:0:0:
511,336,43010,1,10,0:2:0:0:
511,336,43095,1,8,0:2:0:0:
511,336,43179,1,8,0:2:0:0:
313,301,43348,1,6,1:2:0:0:
256,192,43432,12,2,44696,1:2:0:0:
16,337,45033,5,10,0:2:0:0:
95,354,45201,1,2,0:2:0:0:
138,285,45370,1,2,1:2:0:0:
51,259,45539,1,2,1:2:0:0:
84,163,45707,2,0,P|69:116|66:71,1,80,10|0,0:2|1:2,0:2:0:0:
65,85,45960,1,0,1:2:0:0:
65,85,46044,6,0,P|135:78|238:47,1,160,2|10,1:2|0:2,0:2:0:0:
214,169,46550,2,0,P|251:156|290:146,1,80,2|0,0:2|1:0,0:2:0:0:
421,101,46887,1,0,1:2:0:0:
337,39,47055,1,8,0:2:0:0:
438,14,47224,1,0,1:2:0:0:
438,14,47308,1,0,1:2:0:0:
438,14,47393,1,2,1:2:0:0:
438,14,47730,5,10,0:2:0:0:
337,39,47898,1,2,0:2:0:0:
330,136,48067,1,2,1:2:0:0:
429,175,48235,1,2,1:2:0:0:
490,100,48404,1,10,0:2:0:0:
405,90,48572,5,0,1:2:0:0:
405,90,48657,1,0,1:2:0:0:
405,90,48741,2,0,P|389:164|353:255,1,160,4|10,1:2|0:2,0:2:0:0:
300,324,49246,2,0,P|358:298|466:284,1,160,2|0,0:2|1:2,0:0:0:0:
508,196,49752,2,0,P|450:197|410:190,1,80,8|0,0:2|1:2,0:0:0:0:
264,133,50089,5,2,1:2:0:0:
356,96,50258,1,0,0:0:0:0:
264,133,50426,1,10,0:2:0:0:
274,248,50595,2,0,P|293:298|303:340,1,80,2|0,0:2|1:0,0:2:0:0:
110,278,50932,1,2,1:2:0:0:
166,205,51100,2,0,P|176:155|183:109,1,80,8|0,0:2|1:2,0:2:0:0:
180,126,51353,1,0,1:2:0:0:
180,126,51437,5,6,1:2:0:0:
136,50,51606,1,0,1:2:0:0:
52,76,51775,1,10,0:2:0:0:
86,151,51943,1,0,1:2:0:0:
241,47,52112,5,2,1:2:0:0:
150,20,52280,1,0,1:2:0:0:
322,126,52449,2,0,P|282:143|235:157,1,80,10|2,0:2|1:2,0:0:0:0:
470,14,52786,5,0,1:2:0:0:
470,14,52954,1,2,1:2:0:0:
470,14,53123,2,0,P|452:98|438:193,1,160,10|0,0:2|1:2,0:2:0:0:
373,218,53628,1,0,1:2:0:0:
441,352,53797,2,0,P|488:341|533:339,1,80,8|0,0:2|0:0,0:2:0:0:
318,315,54134,5,6,1:2:0:0:
318,315,54471,2,0,P|257:328|222:339,1,80,8|0,0:2|1:2,0:0:0:0:
207,184,54808,2,0,P|149:196|19:199,1,160,8|8,0:2|0:2,0:2:0:0:
256,36,55314,1,0,1:2:0:0:
256,36,55398,1,0,1:0:0:0:
256,36,55482,2,0,P|202:46|171:48,1,80,8|8,0:2|0:2,0:0:0:0:
98,24,55819,5,10,0:2:0:0:
23,39,55988,1,2,1:2:0:0:
23,39,56072,1,0,1:2:0:0:
23,39,56157,1,2,1:2:0:0:
1,112,56325,1,2,1:2:0:0:
82,284,56494,1,10,0:2:0:0:
82,284,56578,2,0,P|70:331|54:374,1,80,0|0,0:2|0:0,0:0:0:0:
59,360,56831,6,0,P|129:344|225:337,1,160,6|10,1:2|0:2,0:2:0:0:
177,174,57336,2,0,P|266:182|365:199,1,160,2|2,0:2|1:2,0:2:0:0:
428,180,57842,1,8,0:2:0:0:
451,268,58010,1,2,1:2:0:0:
512,52,58179,5,2,1:2:0:0:
445,85,58348,1,0,1:2:0:0:
407,15,58516,1,10,0:2:0:0:
299,91,58685,2,0,P|274:153|298:260,1,160,2|2,1:2|1:2,0:2:0:0:
371,170,59190,2,0,P|414:155|460:144,1,80,8|2,0:2|0:2,0:0:0:0:
201,56,59527,6,0,P|124:72|44:107,1,160,2|10,1:2|0:2,0:0:0:0:
97,201,60033,2,0,P|46:193|-4:191,1,80,2|0,0:2|1:0,0:2:0:0:
2,273,60370,1,2,1:2:0:0:
116,319,60539,1,10,0:2:0:0:
2,273,60707,1,2,0:2:0:0:
97,201,60876,6,0,P|108:145|112:108,1,80,2|0,1:2|1:2,0:0:0:0:
63,52,61213,1,10,0:2:0:0:
204,162,61381,2,0,P|197:103|193:0,1,160,2|2,1:2|1:2,0:2:0:0:
300,92,61887,2,0,P|357:78|399:70,1,80,8|0,0:2|0:0,0:0:0:0:
493,15,62224,1,6,1:2:0:0:
493,15,62561,5,10,0:2:0:0:
512,90,62730,1,2,0:2:0:0:
458,139,62898,1,0,1:2:0:0:
386,132,63067,1,0,1:2:0:0:
507,266,63235,1,8,0:2:0:0:
507,266,63404,2,0,P|464:240|356:217,1,160,0|0,1:2|1:2,0:2:0:0:
422,341,63909,2,0,P|475:365|520:373,1,80,10|2,0:2|1:2,0:0:0:0:
319,158,64246,6,0,P|313:222|292:287,1,120,2|0,0:2|0:0,0:0:0:0:
297,275,64584,2,0,P|283:321|264:359,1,80,10|0,0:2|0:0,0:2:0:0:
14,375,64921,1,6,1:2:0:0:
14,375,65258,5,10,0:2:0:0:
55,310,65426,1,2,0:2:0:0:
127,330,65595,1,2,1:2:0:0:
27,228,65763,1,2,1:2:0:0:
153,215,65932,1,8,0:2:0:0:
208,342,66100,1,6,0:2:0:0:
272,283,66269,6,0,P|282:242|305:196,1,80,0|2,1:0|0:2,0:0:0:0:
92,113,66606,2,0,P|112:64|119:17,1,80,0|4,1:2|1:2,0:0:0:0:
254,12,66943,1,10,0:2:0:0:
221,87,67112,1,10,0:2:0:0:
206,171,67280,1,6,1:3:0:0:
206,171,67364,1,4,1:3:0:0:
206,171,67449,1,4,1:3:0:0:
206,171,67533,1,4,1:3:0:0:
206,171,67617,5,6,1:2:0:0:
148,226,67786,2,0,P|100:211|46:199,1,80,2|10,0:0|0:2,0:0:0:0:
315,84,68123,2,0,P|259:112|159:78,1,160,2|2,0:2|1:2,0:2:0:0:
78,22,68628,1,10,0:2:0:0:
15,61,68797,1,2,0:2:0:0:
193,53,68966,6,0,P|243:38|277:23,1,80,2|0,1:2|1:2,0:0:0:0:
349,55,69303,1,10,0:2:0:0:
218,181,69471,2,0,P|209:243|184:346,1,160,2|2,1:2|1:2,0:2:0:0:
78,229,69977,1,8,0:2:0:0:
0,272,70145,1,2,0:2:0:0:
78,229,70314,5,2,1:2:0:0:
243,288,70482,2,0,P|286:304|329:324,1,80,0|10,1:2|0:2,0:2:0:0:
103,357,70819,2,0,P|92:298|159:225,1,160,2|2,0:2|1:2,0:2:0:0:
281,158,71325,2,0,P|296:115|307:75,1,80,10|2,0:2|0:2,0:0:0:0:
370,12,71662,5,2,1:2:0:0:
413,103,71831,1,0,1:2:0:0:
512,90,71999,1,10,0:2:0:0:
460,3,72168,2,0,P|435:63|410:160,1,160,2|2,1:2|1:2,0:2:0:0:
498,357,72673,1,8,0:2:0:0:
381,298,72842,1,2,0:2:0:0:
512,234,73010,1,4,1:2:0:0:
511,238,73348,6,0,P|451:220|411:212,1,80,10|0,0:2|0:0,0:0:0:0:
276,329,73685,2,0,P|216:311|185:306,1,80,2|0,1:2|1:2,0:0:0:0:
132,255,74022,1,10,0:2:0:0:
211,215,74190,1,2,1:2:0:0:
342,384,74359,6,0,P|353:329|406:233,2,160,2|8|2,0:2|0:2|0:0,0:2:0:0:
424,354,75201,1,0,1:2:0:0:
497,334,75370,1,10,0:2:0:0:
318,272,75539,1,2,0:2:0:0:
241,238,75707,6,0,P|228:192|210:150,1,80,6|0,1:2|0:2,0:2:0:0:
343,83,76044,2,0,P|352:42|375:-5,1,80,10|0,0:2|0:2,0:2:0:0:
158,81,76381,1,2,1:2:0:0:
91,142,76550,2,0,P|45:161|8:167,1,80,2|0,1:2|1:0,0:2:0:0:
205,253,76887,5,4,1:2:0:0:
205,253,76971,1,0,1:2:0:0:
205,253,77055,1,2,1:2:0:0:
124,225,77224,1,0,1:2:0:0:
79,289,77393,1,10,0:2:0:0:
159,330,77561,1,0,1:2:0:0:
288,250,77730,2,0,L|281:196,3,40,6|2|6|2,1:3|1:2|1:3|1:2,0:2:0:0:
332,289,78067,5,10,0:2:0:0:
332,289,78151,1,10,0:2:0:0:
332,289,78235,1,10,0:2:0:0:
332,289,78319,1,10,0:2:0:0:
332,289,78404,1,6,1:2:0:0:
406,361,89190,5,6,1:2:0:0:
477,325,89359,1,2,0:2:0:0:
463,252,89527,1,10,0:2:0:0:
390,241,89696,1,2,0:2:0:0:
346,307,89864,1,2,1:2:0:0:
346,307,90033,2,0,P|302:301|261:288,1,80,2|8,1:2|0:2,0:0:0:0:
92,223,90370,5,2,1:2:0:0:
26,284,90539,2,0,P|78:268|190:261,1,160,2|10,0:2|0:2,0:2:0:0:
101,370,91044,2,0,P|161:354|278:354,1,160,2|0,0:2|1:2,0:2:0:0:
122,253,91550,2,0,P|109:205|105:163,1,80,8|0,0:2|1:0,0:0:0:0:
181,109,91887,6,0,P|220:117|263:130,1,80,2|2,0:2|1:2,0:2:0:0:
137,4,92224,2,0,P|190:19|239:26,1,80,10|2,0:2|0:2,0:2:0:0:
307,10,92561,1,2,1:2:0:0:
388,0,92730,1,2,1:2:0:0:
442,71,92898,1,10,0:2:0:0:
363,87,93066,1,2,1:2:0:0:
455,188,93235,6,0,P|467:137|478:103,1,80,2|2,0:2|1:2,0:0:0:0:
512,43,93572,1,10,0:2:0:0:
384,239,93741,2,0,P|363:197|387:75,1,160,2|2,0:2|1:2,0:2:0:0:
455,188,94246,1,10,0:2:0:0:
455,188,94415,1,2,1:2:0:0:
296,241,94584,6,0,P|243:258|202:263,1,80,2|0,0:2|1:2,0:2:0:0:
463,323,94920,1,8,0:2:0:0:
463,323,95258,1,2,1:2:0:0:
381,306,95426,1,2,1:2:0:0:
320,354,95595,1,10,0:2:0:0:
188,335,95763,2,0,P|139:329|13:328,1,160,2|0,1:2|1:2,0:2:0:0:
151,227,96269,6,0,P|160:161|189:58,1,160,10|2,0:2|1:2,0:0:0:0:
257,49,96775,1,0,1:2:0:0:
253,164,96943,1,10,0:2:0:0:
128,134,97112,1,0,0:0:0:0:
55,183,97280,6,0,P|47:229|37:273,1,80,6|0,1:2|1:2,0:2:0:0:
13,36,97617,2,0,P|56:72|130:81,1,120,8|0,0:2|0:0,0:2:0:0:
117,82,97954,2,0,P|174:71|212:65,1,80,0|0,1:2|1:2,0:0:0:0:
279,29,98291,1,8,0:2:0:0:
391,105,98460,1,2,0:2:0:0:
479,79,98628,6,0,P|485:33|494:-14,1,80,2|0,1:2|1:2,0:0:0:0:
307,104,98966,2,0,P|261:122|217:135,1,80,10|0,0:2|0:2,0:2:0:0:
431,229,99303,2,0,P|474:263|503:298,1,80,2|0,1:2|1:2,0:2:0:0:
476,365,99640,1,10,0:2:0:0:
476,365,99724,1,0,1:0:0:0:
476,365,99808,1,4,1:3:0:0:
276,365,99977,6,0,P|290:292|345:212,1,160,6|10,1:2|0:2,0:2:0:0:
406,158,100482,1,2,0:2:0:0:
250,260,100651,2,0,P|188:279|144:285,1,80,0|0,1:2|1:2,0:0:0:0:
132,179,100988,2,0,P|76:191|41:195,1,80,8|0,0:2|1:2,0:0:0:0:
53,193,101241,6,0,P|69:248|81:329,1,120,0|0,1:2|1:0,0:0:0:0:
305,311,101662,2,0,P|236:290|160:239,1,160,10|2,0:2|1:2,0:0:0:0:
138,160,102168,1,2,1:2:0:0:
211,63,102336,2,0,P|227:113|238:162,1,80,10|0,0:2|0:2,0:2:0:0:
38,143,102673,6,0,P|24:85|92:-1,1,160,2|10,1:2|0:2,0:2:0:0:
171,40,103179,1,2,0:2:0:0:
268,17,103348,1,0,1:2:0:0:
268,17,103516,2,0,P|313:10|353:3,1,80,0|8,1:2|0:2,0:0:0:0:
498,78,103853,5,0,1:2:0:0:
498,78,103937,1,0,1:2:0:0:
498,78,104022,2,0,P|433:80|339:109,1,160,0|8,1:2|0:2,0:2:0:0:
332,193,104527,1,0,0:0:0:0:
412,246,104696,2,0,P|426:187|438:143,1,80,2|2,1:2|1:2,0:0:0:0:
488,342,105033,5,10,0:2:0:0:
488,342,105201,1,0,1:2:0:0:
488,342,105286,1,0,1:2:0:0:
488,342,105370,2,0,P|498:256|517:167,1,160,6|10,1:2|0:2,0:2:0:0:
390,309,105876,2,0,P|336:332|223:327,1,160,2|0,0:2|1:2,0:2:0:0:
172,285,106381,1,8,0:2:0:0:
291,158,106550,5,0,1:2:0:0:
291,158,106634,1,0,1:2:0:0:
291,158,106718,1,2,1:2:0:0:
333,222,106887,1,2,1:2:0:0:
258,244,107055,1,10,0:2:0:0:
205,171,107224,2,0,P|208:117|223:60,1,80,2|0,0:2|1:2,0:2:0:0:
126,232,107561,2,0,P|115:290|101:338,1,80,2|0,1:2|0:0,0:2:0:0:
13,163,107898,5,2,1:2:0:0:
13,163,107982,1,0,0:0:0:0:
13,163,108067,2,0,P|58:155|106:143,1,80,6|0,1:2|1:2,0:0:0:0:
266,41,108404,2,0,P|182:52|97:41,1,160,8|2,0:2|1:2,0:2:0:0:
221,139,108909,1,2,1:2:0:0:
139,250,109078,1,10,0:2:0:0:
216,294,109246,2,0,P|267:312|300:330,1,80,2|0,1:2|1:2,0:0:0:0:
431,188,109584,5,2,1:2:0:0:
403,330,109752,2,0,P|359:247|350:180,1,160,10|0,0:2|1:2,0:2:0:0:
330,66,110258,1,0,1:2:0:0:
488,17,110426,1,8,0:2:0:0:
488,17,110763,6,0,P|475:72|476:109,1,80,6|0,1:2|0:0,0:2:0:0:
290,25,111100,2,0,P|344:51|385:60,1,80,8|0,0:2|1:2,0:0:0:0:
142,108,111437,2,0,P|217:125|309:163,1,160,8|8,0:2|0:2,0:2:0:0:
262,265,111943,1,0,1:2:0:0:
100,199,112112,2,0,P|116:245|128:292,1,80,8|8,0:2|0:2,0:0:0:0:
88,364,112449,5,10,0:2:0:0:
11,348,112617,1,2,1:2:0:0:
11,348,112701,1,0,1:2:0:0:
11,348,112786,1,2,1:2:0:0:
13,265,112954,1,2,1:2:0:0:
223,312,113123,2,0,P|300:323|356:333,1,120,10|0,0:2|0:0,0:2:0:0:
341,330,113460,6,0,P|328:264|314:159,1,160,6|10,1:2|0:2,0:2:0:0:
472,250,113966,2,0,P|479:165|492:84,1,160,2|2,0:2|1:2,0:2:0:0:
400,0,114471,2,0,P|388:53|382:101,1,80,8|2,0:2|0:2,0:0:0:0:
314,129,114808,5,0,1:2:0:0:
233,120,114977,1,0,1:2:0:0:
205,43,115145,1,10,0:2:0:0:
190,197,115314,2,0,P|146:196|24:244,1,160,2|2,1:2|1:2,0:2:0:0:
44,122,115819,2,0,P|100:115|134:102,1,80,8|2,0:2|0:2,0:0:0:0:
120,290,116157,6,0,P|105:335|98:371,1,80,2|0,1:2|1:2,0:0:0:0:
32,325,116494,1,10,0:2:0:0:
204,349,116662,2,0,P|210:301|270:205,1,160,2|2,0:0|1:2,0:0:0:0:
339,254,117168,1,10,0:2:0:0:
420,233,117336,1,2,1:2:0:0:
281,148,117505,5,2,1:2:0:0:
204,136,117673,2,0,P|195:90|183:49,1,80,0|10,1:2|0:2,0:0:0:0:
358,0,118010,2,0,P|349:69|366:169,1,160,2|2,1:2|1:2,0:2:0:0:
456,178,118516,1,8,0:2:0:0:
488,47,118685,1,2,0:0:0:0:
488,47,118769,1,0,0:0:0:0:
488,47,118853,1,6,1:2:0:0:
488,47,119190,6,0,P|442:56|406:58,1,80,10|2,0:2|0:2,0:0:0:0:
268,33,119527,1,0,1:2:0:0:
235,152,119696,1,0,1:2:0:0:
268,33,119864,1,8,0:2:0:0:
315,214,120033,6,0,P|325:301|347:381,1,160,0|0,1:2|1:2,0:2:0:0:
411,293,120539,1,10,0:2:0:0:
471,251,120707,1,2,1:2:0:0:
290,309,120876,2,0,P|234:323|175:350,1,120,2|0,0:2|0:0,0:0:0:0:
177,348,121213,2,0,P|120:346|85:333,1,80,10|0,0:2|0:0,0:2:0:0:
6,271,121550,5,6,1:2:0:0:
6,271,121887,1,8,0:2:0:0:
149,229,122055,1,2,0:2:0:0:
186,89,122224,1,2,1:2:0:0:
50,173,122393,1,2,1:2:0:0:
77,99,122561,1,8,0:2:0:0:
15,40,122730,1,6,0:2:0:0:
98,16,122898,6,0,P|147:6|198:2,1,80,0|0,1:0|1:2,0:0:0:0:
328,133,123235,2,0,P|378:122|426:117,1,80,2|4,1:2|1:2,0:0:0:0:
491,73,123572,1,10,0:2:0:0:
491,73,123741,1,8,1:2:0:0:
451,248,123909,1,4,1:3:0:0:
451,248,123994,1,4,1:3:0:0:
451,248,124078,1,4,1:3:0:0:
451,248,124162,1,4,1:3:0:0:
451,248,124246,1,6,1:2:0:0:
451,248,124584,5,10,0:2:0:0:
354,366,124752,2,0,P|420:346|521:332,1,160,2|2,0:2|1:2,0:2:0:0:
346,261,125258,2,0,P|356:217|361:168,1,80,8|2,0:2|0:2,0:0:0:0:
213,370,125595,5,0,1:2:0:0:
178,283,125763,2,0,P|158:238|131:202,1,80,0|10,1:0|0:2,0:0:0:0:
9,322,126100,2,0,P|73:331|163:371,1,160,2|2,1:2|1:2,0:2:0:0:
287,319,126606,1,8,0:2:0:0:
358,277,126775,1,2,0:2:0:0:
212,235,126943,6,0,P|169:222|119:198,1,80,2|0,1:2|1:0,0:0:0:0:
87,135,127280,1,10,0:0:0:0:
262,48,127449,2,0,P|286:129|301:217,1,160,2|2,0:0|1:2,0:0:0:0:
378,95,127954,2,0,P|431:71|489:64,1,80,10|2,0:2|0:2,0:0:0:0:
512,214,128291,5,2,1:2:0:0:
436,249,128460,1,0,1:2:0:0:
371,201,128628,1,10,0:2:0:0:
373,323,128797,2,0,P|426:331|499:348,1,120,2|0,1:2|0:0,0:2:0:0:
490,345,129134,1,2,1:2:0:0:
318,221,129303,2,0,P|375:228|413:231,1,80,10|2,0:2|0:2,0:2:0:0:
196,156,129640,6,0,P|220:225|218:326,2,160,6|10|2,1:2|0:2|1:2,0:2:0:0:
118,124,130482,1,0,1:2:0:0:
73,219,130651,2,0,P|28:235|-5:254,1,80,10|2,0:2|1:2,0:0:0:0:
178,362,130988,5,2,0:2:0:0:
116,307,131157,1,0,1:0:0:0:
51,356,131325,1,8,0:2:0:0:
51,356,131494,2,0,P|141:331|211:335,1,160,0|0,1:2|1:2,0:2:0:0:
304,209,131999,2,0,P|289:252|271:298,1,80,10|2,0:2|0:2,0:0:0:0:
236,150,132336,5,6,1:2:0:0:
179,101,132505,1,0,0:2:0:0:
371,90,132673,2,0,P|427:78|465:66,1,80,10|0,0:2|0:2,0:2:0:0:
512,13,133010,1,2,1:2:0:0:
300,0,133179,2,0,P|286:49|283:88,1,80,2|8,1:2|0:2,0:0:0:0:
399,198,133516,5,6,1:2:0:0:
399,198,133600,1,0,1:2:0:0:
399,198,133685,1,0,1:2:0:0:
431,77,133853,1,0,1:2:0:0:
302,115,134022,1,10,0:2:0:0:
501,256,134190,5,8,1:3:0:0:
501,256,134275,1,8,1:3:0:0:
501,256,134359,2,0,L|492:309,3,40,4|0|4|0,1:3|1:0|1:3|1:0,0:0:0:0:
511,338,134696,2,0,P|444:338|339:362,1,160,8|6,0:2|1:2,0:0:0:0:
256,192,140426,12,8,145482,0:2:0:0:
284,34,145819,6,0,P|272:117|251:208,2,160,6|8|2,1:2|0:2|1:2,0:2:0:0:
170,117,146662,2,0,P|126:130|76:138,1,80,2|8,1:2|0:2,0:2:0:0:
361,142,146999,6,0,P|410:125|527:114,1,160,2|0,1:2|1:2,0:2:0:0:
506,199,147505,1,8,0:2:0:0:
389,230,147673,1,2,0:2:0:0:
389,230,147758,1,0,0:0:0:0:
389,230,147842,2,0,P|403:278|410:320,1,80,0|2,1:2|1:2,0:0:0:0:
511,364,148179,2,0,P|501:309|498:264,1,80,8|2,0:0|0:2,0:0:0:0:
322,156,148516,6,0,P|338:220|261:308,1,160,2|10,1:2|0:2,0:2:0:0:
190,353,149022,2,0,P|140:344|92:339,1,80,0|2,0:2|1:2,0:0:0:0:
249,214,149359,2,0,P|198:207|154:198,1,80,2|8,1:2|0:2,0:2:0:0:
32,267,149696,6,0,P|33:194|4:104,1,160,2|2,1:2|1:2,0:2:0:0:
7,111,150201,1,8,0:2:0:0:
297,121,150370,2,0,P|227:157|140:178,1,160,6|0,1:2|1:2,0:2:0:0:
70,175,150876,1,10,0:2:0:0:
70,175,151044,1,0,1:2:0:0:
153,6,151213,1,6,1:2:0:0:
153,6,151550,6,0,P|173:51|182:90,1,80,10|0,0:2|0:2,0:2:0:0:
351,174,151887,1,2,1:2:0:0:
297,116,152055,2,0,P|274:58|269:25,1,80,2|10,1:2|0:2,0:0:0:0:
512,8,152393,6,0,P|450:32|351:58,1,160,2|2,1:2|1:2,0:2:0:0:
500,184,152898,2,0,P|478:143|462:99,1,80,10|0,0:2|1:2,0:0:0:0:
430,228,153235,1,2,1:2:0:0:
408,314,153404,1,2,1:2:0:0:
503,288,153572,1,10,0:2:0:0:
502,383,153741,1,2,1:2:0:0:
321,286,153909,6,0,P|276:302|144:311,2,160,6|8|2,1:2|0:2|1:2,0:2:0:0:
182,216,154752,2,0,P|138:206|76:187,1,80,2|10,1:2|0:2,0:0:0:0:
0,370,155089,5,2,1:2:0:0:
35,297,155258,1,2,1:2:0:0:
115,312,155426,1,0,1:2:0:0:
84,384,155595,5,10,0:2:0:0:
54,214,155763,1,6,1:2:0:0:
54,214,155848,1,0,1:2:0:0:
54,214,155932,1,0,1:2:0:0:
54,214,156100,1,0,1:2:0:0:
38,50,156269,1,10,0:2:0:0:
38,50,156353,1,4,1:3:0:0:
38,50,156437,1,2,1:2:0:0:
38,50,156522,1,0,1:0:0:0:
38,50,156606,6,0,P|31:27|17:-9,2,53.3333333333333,4|0|2,1:2|0:0|0:0,0:2:0:0:
32,95,156943,2,0,P|80:80|120:73,1,80,10|2,0:2|0:2,0:0:0:0:
242,0,157280,1,0,1:0:0:0:
237,105,157449,2,0,P|285:92|322:89,1,80,0|10,1:2|0:2,0:0:0:0:
392,56,157786,5,2,1:2:0:0:
392,56,157870,1,0,0:0:0:0:
392,56,157954,1,2,0:2:0:0:
423,131,158123,1,2,1:2:0:0:
479,73,158291,1,10,0:2:0:0:
346,171,158460,5,2,0:2:0:0:
346,171,158544,1,0,0:0:0:0:
346,171,158628,1,0,1:0:0:0:
441,207,158797,1,0,1:2:0:0:
353,324,158966,1,10,0:2:0:0:
459,289,159134,1,0,0:2:0:0:
415,377,159303,5,6,1:2:0:0:
415,377,159471,2,0,P|364:368|314:366,1,80,2|10,0:2|0:2,0:0:0:0:
159,275,159808,1,2,0:2:0:0:
113,346,159977,1,0,1:2:0:0:
159,275,160145,2,0,P|203:286|249:291,1,80,2|0,1:2|0:0,0:2:0:0:
373,117,160482,6,0,P|347:200|337:267,1,120,6|8,1:2|0:2,0:2:0:0:
341,232,160819,1,2,1:2:0:0:
434,212,160988,1,2,0:2:0:0:
254,159,161157,2,0,P|268:97|265:-1,1,160,6|0,1:2|1:2,0:2:0:0:
78,94,161662,1,8,0:2:0:0:
78,94,161746,1,8,0:2:0:0:
78,94,161831,1,0,1:2:0:0:
78,94,161915,1,0,1:0:0:0:
78,94,161999,1,6,1:2:0:0:
78,94,162336,6,0,P|132:109|168:111,1,80,8|0,0:2|0:2,0:0:0:0:
142,212,162673,1,2,1:2:0:0:
142,212,162842,1,2,1:2:0:0:
231,246,163010,1,10,0:2:0:0:
97,363,163179,6,0,P|125:305|142:203,1,160,2|0,1:2|1:2,0:2:0:0:
42,277,163685,1,8,0:2:0:0:
218,332,163853,2,0,P|269:319|354:310,1,120,2|0,0:2|0:0,0:2:0:0:
336,311,164190,1,2,1:2:0:0:
454,283,164359,2,0,P|442:331|439:378,1,80,8|2,0:2|0:2,0:0:0:0:
388,143,164696,5,2,1:2:0:0:
464,125,164864,1,8,0:2:0:0:
478,201,165033,1,0,1:2:0:0:
398,221,165201,1,0,1:2:0:0:
315,88,165370,1,6,1:3:0:0:
315,88,165454,1,4,1:3:0:0:
315,88,165539,1,8,0:2:0:0:
315,88,165623,1,8,0:0:0:0:
315,88,165707,1,10,0:2:0:0:
505,12,165876,5,10,0:2:0:0:
505,12,165960,1,10,0:2:0:0:
505,12,166044,1,8,0:2:0:0:
505,12,166213,1,8,0:2:0:0:
259,192,166550,1,8,0:2:0:0:
259,192,166718,1,8,0:2:0:0:
156,137,166971,5,0,1:2:0:0:
156,137,167055,2,0,P|97:131|-1:104,1,160,6|6,1:2|1:2,0:2:0:0:
194,276,175482,5,2,0:0:0:0:
125,241,175819,1,2,0:0:0:0:
125,241,175988,1,0,0:0:0:0:
125,241,176156,1,2,0:0:0:0:
41,280,176325,2,0,P|35:227|17:100,1,160,2|2,0:0|0:0,0:0:0:0:
1,42,176831,5,0,1:2:0:0:
125,79,176999,1,8,0:0:0:0:
214,21,177168,1,0,1:2:0:0:
279,129,177336,1,4,1:2:0:0:
510,9,177505,5,8,0:2:0:0:
422,65,177673,1,10,0:0:0:0:
422,65,177758,1,8,0:0:0:0:
422,65,177842,1,4,1:3:0:0:
422,65,177926,1,4,1:3:0:0:
422,65,178010,1,4,1:3:0:0:
422,65,178095,1,4,1:3:0:0:
422,65,178179,6,0,P|414:120|403:169,1,80,6|0,1:2|0:0,0:2:0:0:
309,150,178516,1,8,0:2:0:0:
491,166,178685,2,0,P|485:231|502:347,1,160,2|2,0:2|1:2,0:2:0:0:
396,278,179190,1,8,0:2:0:0:
318,251,179359,1,2,0:2:0:0:
217,342,179527,6,0,P|269:328|305:323,2,80,2|0|10,1:2|1:0|0:2,0:2:0:0:
69,292,180033,1,2,1:2:0:0:
69,292,180370,1,2,1:2:0:0:
163,182,180539,2,0,P|156:249|139:361,1,160,8|2,0:2|1:2,0:0:0:0:
59,153,181044,2,0,P|53:216|47:256,1,80,0|10,1:0|0:2,0:0:0:0:
0,34,181381,6,0,P|70:68|172:50,1,160,2|0,0:2|1:2,0:2:0:0:
291,3,181887,1,10,0:2:0:0:
254,102,182055,1,2,0:2:0:0:
376,43,182224,5,2,1:2:0:0:
385,120,182393,1,0,1:2:0:0:
394,193,182561,1,10,0:2:0:0:
456,330,182730,2,0,P|395:316|277:302,1,160,2|2,1:2|1:2,0:2:0:0:
431,226,183235,2,0,P|376:216|325:205,1,80,8|2,0:2|0:2,0:2:0:0:
157,351,183572,6,0,P|192:297|197:228,1,120,6|0,1:2|0:0,0:2:0:0:
198,242,183909,2,0,P|214:180|226:149,1,80,10|0,0:2|0:0,0:0:0:0:
341,58,184246,1,2,1:2:0:0:
397,130,184415,1,0,1:2:0:0:
308,139,184584,1,10,0:2:0:0:
308,139,184752,1,2,1:2:0:0:
411,12,184921,6,0,P|461:6|494:-1,1,80,2|0,0:2|1:0,0:2:0:0:
449,249,185258,1,8,0:2:0:0:
449,249,185426,2,0,P|452:169|474:76,1,160,0|0,1:2|1:2,0:2:0:0:
342,175,185932,1,10,0:2:0:0:
256,211,186100,1,2,0:2:0:0:
105,122,186269,6,0,P|56:116|20:107,1,80,6|0,1:2|0:0,0:2:0:0:
190,2,186606,2,0,P|192:64|199:130,1,120,10|0,0:2|0:0,0:2:0:0:
197,121,186943,1,2,1:2:0:0:
291,233,187112,1,2,1:2:0:0:
143,306,187280,1,8,0:2:0:0:
232,364,187449,1,6,1:2:0:0:
213,242,187617,6,0,L|210:185,2,40,0|0|2,1:0|1:0|0:2,0:0:0:0:
351,312,187954,1,10,0:2:0:0:
351,312,188039,1,8,0:2:0:0:
351,312,188123,2,0,L|397:315,2,40,8|8|8,0:2|0:2|0:2,0:0:0:0:
101,305,188460,1,10,0:2:0:0:
101,305,188544,1,10,0:2:0:0:
101,305,188628,1,10,0:2:0:0:
101,305,188713,1,10,0:2:0:0:
101,305,188797,2,0,L|35:293,1,40,10|10,0:2|0:2,0:0:0:0:
63,55,188966,6,0,P|81:156|91:234,1,160,6|10,1:2|0:2,0:2:0:0:
249,110,189471,2,0,P|193:130|152:137,1,80,2|0,0:2|0:0,0:2:0:0:
92,130,189808,1,2,1:2:0:0:
261,21,189977,1,10,0:2:0:0:
336,50,190145,1,2,0:2:0:0:
420,83,190314,6,0,P|431:36|442:2,1,80,2|0,1:2|1:2,0:0:0:0:
321,146,190651,1,10,0:2:0:0:
501,188,190819,2,0,P|413:211|359:270,1,160,2|2,1:2|1:2,0:2:0:0:
492,291,191325,2,0,P|472:336|463:376,1,80,8|2,0:2|0:2,0:2:0:0:
257,250,191662,5,2,1:2:0:0:
284,333,191831,1,0,1:2:0:0:
370,317,191999,1,10,0:0:0:0:
341,237,192168,2,0,P|276:234|187:200,1,160,2|2,0:2|1:2,0:0:0:0:
25,323,192673,1,10,0:2:0:0:
98,312,192842,1,2,1:2:0:0:
178,294,193010,6,0,P|183:355|196:388,1,80,2|0,1:2|1:2,0:0:0:0:
46,218,193348,1,10,0:2:0:0:
94,157,193516,2,0,P|97:98|70:-5,1,160,2|2,1:2|1:2,0:2:0:0:
230,90,194022,1,8,0:2:0:0:
152,228,194190,5,2,0:2:0:0:
152,228,194275,1,0,0:0:0:0:
152,228,194359,2,0,P|205:219|250:213,1,80,6|0,1:2|0:0,0:2:0:0:
230,90,194696,2,0,P|326:101|414:86,1,160,10|0,0:2|1:2,0:0:0:0:
457,40,195201,1,0,1:2:0:0:
297,1,195370,1,8,0:2:0:0:
310,184,195539,6,0,P|328:266|333:372,1,160,0|0,1:2|1:2,0:2:0:0:
416,256,196044,2,0,P|425:206|435:159,1,80,10|2,0:2|1:2,0:2:0:0:
226,251,196381,2,0,P|206:315|186:376,1,120,2|0,0:2|0:0,0:0:0:0:
189,365,196718,2,0,P|136:349|85:343,1,80,10|0,0:2|0:0,0:2:0:0:
9,278,197055,5,6,1:2:0:0:
9,278,197393,1,8,0:2:0:0:
144,240,197561,1,2,0:2:0:0:
144,240,197730,1,2,1:2:0:0:
25,145,197898,5,2,1:2:0:0:
156,130,198067,1,8,0:2:0:0:
260,216,198235,1,6,0:2:0:0:
346,158,198404,6,0,P|411:150|448:141,1,80,0|8,1:2|0:2,0:2:0:0:
368,367,198741,2,0,P|384:293|418:229,1,120,2|0,1:2|0:0,0:0:0:0:
402,253,199078,1,2,0:0:0:0:
499,45,199246,1,10,1:3:0:0:
499,45,199331,1,4,1:3:0:0:
499,45,199415,1,10,1:3:0:0:
499,45,199499,1,4,1:3:0:0:
499,45,199584,1,6,1:3:0:0:
499,45,199668,1,4,1:3:0:0:
499,45,199752,1,6,1:2:0:0:
352,81,200089,5,10,0:2:0:0:
499,45,200258,2,0,P|427:36|395:28,1,80,2|0,0:2|1:2,0:2:0:0:
251,127,200595,1,2,1:2:0:0:
338,120,200763,1,10,0:2:0:0:
388,195,200932,1,2,0:2:0:0:
294,225,201100,6,0,P|279:273|261:305,1,80,2|0,1:2|1:2,0:0:0:0:
429,269,201437,1,10,0:2:0:0:
476,360,201606,2,0,P|430:380|323:344,1,160,2|2,1:2|1:2,0:2:0:0:
180,293,202112,2,0,P|235:282|271:275,1,80,8|0,0:2|0:0,0:2:0:0:
331,182,202449,5,2,1:2:0:0:
262,130,202617,1,0,1:2:0:0:
181,151,202786,1,10,0:2:0:0:
79,208,202954,2,0,P|69:156|48:110,1,80,2|0,0:0|1:0,0:0:0:0:
21,54,203291,1,2,1:2:0:0:
169,212,203460,2,0,P|182:281|200:345,1,120,10|0,0:2|0:0,0:0:0:0:
194,329,203797,5,2,1:2:0:0:
92,315,203966,2,0,P|75:358|50:393,1,80,0|10,1:2|0:2,0:0:0:0:
280,255,204303,2,0,P|331:244|442:279,1,160,2|2,1:2|1:2,0:2:0:0:
231,156,204808,2,0,P|182:143|141:127,1,80,8|2,0:2|0:2,0:2:0:0:
390,0,205145,6,0,P|377:61|333:166,2,160,6|10|2,1:2|0:2|1:2,0:2:0:0:
289,50,205988,1,0,1:2:0:0:
453,128,206157,2,0,P|433:173|421:214,1,80,10|2,0:2|1:2,0:2:0:0:
465,294,206494,5,2,0:2:0:0:
465,294,206662,1,0,0:0:0:0:
364,267,206831,1,8,0:2:0:0:
281,344,206999,2,0,P|362:360|440:387,1,160,0|0,1:2|1:2,0:2:0:0:
339,262,207505,2,0,P|325:197|322:165,1,80,10|0,0:2|0:0,0:2:0:0:
170,383,207842,6,0,P|159:308|208:221,1,160,6|10,1:2|0:2,0:2:0:0:
277,183,208348,1,2,0:2:0:0:
277,183,208432,1,0,0:0:0:0:
277,183,208516,1,2,1:2:0:0:
82,147,208685,2,0,P|101:201|108:253,1,80,2|8,1:2|0:2,0:2:0:0:
240,51,209022,5,6,0:2:0:0:
140,20,209190,1,0,1:2:0:0:
164,111,209359,1,0,1:2:0:0:
306,0,209527,2,0,P|288:42|282:99,1,80,10|0,0:2|1:2,0:2:0:0:
66,23,209864,1,2,1:2:0:0:
66,23,210033,1,2,1:2:0:0:
136,195,210201,1,10,0:2:0:0:
130,234,210285,1,10,0:2:0:0:
123,273,210369,1,10,0:2:0:0:
112,312,210453,1,10,0:2:0:0:
99,350,210538,1,6,1:2:0:0:
256,192,210623,12,2,214415,1:2:0:0:
131,301,214752,5,0,1:2:0:0:
205,266,214921,2,0,P|214:319|218:357,1,80,8|6,0:2|1:2,0:0:0:0:
340,209,215258,2,0,P|401:180|460:165,1,120,2|0,0:0|0:0,0:0:0:0:
451,166,215595,2,0,P|410:154|368:136,1,80,10|0,0:0|1:0,0:0:0:0:
209,19,215932,6,0,P|217:86|238:197,1,160,6|8,1:2|0:0,0:0:0:0:
130,89,216437,2,0,P|77:67|28:58,1,80,2|0,0:0|1:2,0:0:0:0:
12,139,216775,1,0,1:0:0:0:
98,179,216943,1,8,0:0:0:0:
290,83,217112,6,0,P|347:49|458:64,1,160,2|0,1:2|1:0,0:0:0:0:
382,148,217617,2,0,P|363:204|356:250,1,80,8|0,0:0|1:2,0:0:0:0:
446,380,217954,1,2,1:2:0:0:
486,305,218123,1,0,1:0:0:0:
414,280,218291,1,8,0:0:0:0:
363,356,218460,1,0,0:0:0:0:
216,293,218628,6,0,P|138:310|49:317,2,160,6|8|0,1:2|0:0|1:0,0:0:0:0:
107,213,219471,1,0,1:0:0:0:
251,370,219640,5,10,0:0:0:0:
251,370,219808,2,0,P|266:289|218:202,1,160,2|0,1:2|1:0,0:0:0:0:
144,139,220314,2,0,P|95:154|64:159,1,80,10|4,0:0|1:2,0:0:0:0:
289,74,220651,2,0,P|245:59|208:41,1,80,2|2,0:0|1:2,0:0:0:0:
475,11,220988,1,10,0:0:0:0:
396,57,221157,1,2,0:0:0:0:
482,104,221325,1,6,1:2:0:0:
482,104,221662,5,10,0:0:0:0:
339,223,221831,2,0,P|360:121|393:44,1,160,2|0,0:0|1:2,0:0:0:0:
432,189,222336,1,8,0:0:0:0:
242,179,222505,6,0,P|188:198|143:204,1,80,2|0,1:2|0:0,0:0:0:0:
78,181,222842,1,0,1:2:0:0:
226,321,223010,2,0,P|158:302|61:310,1,160,8|2,0:0|1:2,0:0:0:0:
127,376,223516,1,0,1:2:0:0:
256,237,223685,1,8,0:0:0:0:
281,332,223853,1,0,0:0:0:0:
162,269,224022,6,0,P|146:201|123:163,1,80,6|0,1:2|0:0,0:0:0:0:
304,49,224359,2,0,P|307:127|340:213,1,160,8|0,0:0|1:2,0:0:0:0:
396,134,224864,1,0,1:2:0:0:
461,91,225033,1,8,0:0:0:0:
252,118,225201,6,0,P|205:111|164:99,1,80,2|0,1:2|0:0,0:0:0:0:
81,29,225539,1,0,1:2:0:0:
18,88,225707,1,8,0:0:0:0:
0,9,225876,1,4,1:2:0:0:
173,102,226044,5,2,0:0:0:0:
84,154,226213,1,0,1:2:0:0:
168,196,226381,1,8,0:0:0:0:
168,196,226466,1,0,0:0:0:0:
44,303,226634,5,0,0:0:0:0:
44,303,226718,2,0,P|97:303|224:329,1,160,6|8,1:2|0:0,0:0:0:0:
341,264,227224,1,2,0:0:0:0:
280,192,227393,2,0,P|227:172|195:152,1,80,0|0,1:0|1:0,0:0:0:0:
201,82,227730,1,8,0:0:0:0:
380,87,227898,6,0,P|406:173|408:254,1,160,0|0,1:2|1:2,0:0:0:0:
283,352,228404,2,0,P|286:301|297:262,1,80,8|0,0:0|0:0,0:0:0:0:
489,271,228741,2,0,P|449:277|352:297,1,120,0|0,1:0|0:0,0:0:0:0:
370,292,229078,2,0,P|324:284|277:265,1,80,8|0,0:0|0:0,0:0:0:0:
239,124,229415,5,6,1:2:0:0:
239,124,229752,1,10,0:0:0:0:
310,92,229921,1,0,0:0:0:0:
252,27,230089,1,0,1:2:0:0:
175,60,230258,1,0,1:2:0:0:
325,168,230426,1,8,0:0:0:0:
354,82,230595,1,0,1:2:0:0:
136,169,230763,5,8,0:0:0:0:
136,169,230932,1,8,0:0:0:0:
409,208,231269,1,8,0:0:0:0:
409,208,231438,1,8,0:0:0:0:
274,344,231690,1,0,1:0:0:0:
274,344,231775,2,0,P|273:266|248:159,1,160,8|4,0:2|1:2,0:0:0:0:
256,192,232196,12,0,240201,0:0:0:0:
