osu file format v14

[General]
AudioFilename: audio.mp3
AudioLeadIn: 0
PreviewTime: 112449
Countdown: 0
SampleSet: Soft
StackLeniency: 0.7
Mode: 0
LetterboxInBreaks: 0
WidescreenStoryboard: 1

[Editor]
Bookmarks: 145819,167393,175482,232112
DistanceSpacing: 1
BeatDivisor: 4
GridSize: 32
TimelineZoom: 1.8

[Metadata]
Title:Oboetete Ii yo
TitleUnicode:覚えてていいよ
Artist:KOTOKO
ArtistUnicode:KOTOKO
Creator:ckharv
Version:Ayesha's Expert
Source:
Tags:japanese pop j-pop jpop ayesha altugle kazato asa shizuku- shikibe mayu kowari silky fuyuyu- kanau mamayu zekk twintail loli
BeatmapID:3788131
BeatmapSetID:1838384

[Difficulty]
HPDrainRate:6
CircleSize:4
OverallDifficulty:8
ApproachRate:9
SliderMultiplier:1.7
SliderTickRate:1

[Events]
//Background and Video events
0,0,"512222.jpg",0,0
//Break Periods
2,170289,174882
//Storyboard Layer 0 (Background)
//Storyboard Layer 1 (Fail)
//Storyboard Layer 2 (Pass)
//Storyboard Layer 3 (Foreground)
//Storyboard Layer 4 (Overlay)
//Storyboard Sound Samples

[TimingPoints]
202,337.078651685393,4,2,1,55,1,0
202,-133.333333333333,4,2,1,55,0,0
5595,-133.333333333333,4,2,1,65,0,0
10145,-100,4,2,1,65,0,0
10988,-100,4,2,1,80,0,0
21775,-100,4,2,1,65,0,0
48741,-100,4,2,1,70,0,0
54134,-100,4,2,1,75,0,0
56157,-66.6666666666667,4,2,1,75,0,0
56494,-66.6666666666667,4,2,1,80,0,0
56578,-66.6666666666667,4,2,1,5,0,0
56831,-86.9565217391304,4,2,1,85,0,1
67575,-86.9565217391304,4,2,1,85,0,0
67617,-86.9565217391304,4,2,1,85,0,1
78404,-100,4,2,1,85,0,0
87842,-100,4,2,1,80,0,0
89190,-100,4,2,1,65,0,0
105370,-100,4,2,1,70,0,0
112112,-66.6666666666667,4,2,1,70,0,0
113123,-66.6666666666667,4,2,1,80,0,0
113207,-66.6666666666667,4,2,1,5,0,0
113460,-86.9565217391304,4,2,1,85,0,1
124204,-86.9565217391304,4,2,1,85,0,0
124246,-86.9565217391304,4,2,1,85,0,1
135033,-100,4,2,3,70,0,0
135117,-100,4,2,1,55,0,0
140426,-100,4,2,1,65,0,0
144471,-100,4,2,1,70,0,0
145819,-90.9090909090909,4,2,1,80,0,0
175482,-90.9090909090909,4,2,1,65,0,0
175819,-111.111111111111,4,2,1,65,0,0
178179,-86.9565217391304,4,2,1,75,0,1
187954,-86.9565217391304,4,2,1,60,0,1
188123,-86.9565217391304,4,2,1,65,0,1
188291,-86.9565217391304,4,2,1,70,0,1
188460,-86.9565217391304,4,2,1,75,0,1
188628,-86.9565217391304,4,2,1,80,0,1
188881,-86.9565217391304,4,2,1,80,0,0
188966,-86.9565217391304,4,2,1,85,0,1
199710,-86.9565217391304,4,2,1,85,0,0
199752,-86.9565217391304,4,2,1,85,0,1
210539,-100,4,2,1,80,0,0
231775,-66.6666666666667,4,2,1,80,0,0
232196,-66.6666666666667,4,2,1,55,0,0

[Colours]
Combo1 : 253,217,164
Combo2 : 228,180,254
Combo3 : 152,188,254
Combo4 : 249,166,209

[HitObjects]
392,179,202,6,0,B|411:154|404:118,1,63.749998100102,0|0,1:2|1:2,0:0:0:0:
450,33,539,2,0,B|325:53,1,127.499996200204,2|2,0:2|0:2,0:2:0:0:
256,110,1044,1,0,0:2:0:0:
256,110,1213,2,0,B|225:103|203:79,1,63.749998100102,2|0,0:2|0:2,0:2:0:0:
104,10,1550,2,0,B|138:73|108:132,1,127.499996200204,2|0,0:2|0:2,0:2:0:0:
13,229,2055,2,0,B|138:212,1,127.499996200204,2|0,0:2|0:2,0:2:0:0:
211,250,2561,2,0,B|223:189,1,63.749998100102,2|2,0:2|0:2,0:2:0:0:
348,74,2898,1,0,0:2:0:0:
348,74,3235,6,0,B|403:115|471:100,1,127.499996200204,2|2,0:2|0:2,0:2:0:0:
332,223,3741,2,0,B|277:264|209:249,1,127.499996200204,2|0,0:2|0:2,0:2:0:0:
132,286,4246,6,0,B|111:160,1,127.499996200204,2|0,0:2|0:2,0:2:0:0:
216,43,4752,2,0,B|240:104|198:163,1,127.499996200204,2|2,0:2|0:2,0:2:0:0:
72,265,5258,2,0,B|106:268|132:286,1,63.749998100102,2|2,0:2|0:2,0:2:0:0:
203,354,5595,5,0,1:2:0:0:
264,265,5763,1,0,1:2:0:0:
355,317,5932,1,8,0:2:0:0:
415,227,6100,1,0,1:0:0:0:
427,208,6185,1,0,1:2:0:0:
431,186,6269,1,2,1:2:0:0:
428,163,6353,1,0,1:2:0:0:
417,143,6437,1,0,1:2:0:0:
399,128,6522,1,0,1:2:0:0:
377,121,6606,1,10,0:2:0:0:
377,121,6943,5,2,1:2:0:0:
272,91,7112,1,0,1:2:0:0:
215,5,7280,1,8,0:2:0:0:
58,110,7449,5,2,1:2:0:0:
62,131,7533,1,0,1:2:0:0:
66,152,7617,1,0,1:2:0:0:
69,174,7701,1,0,1:2:0:0:
70,196,7786,1,2,1:2:0:0:
74,217,7870,1,0,1:2:0:0:
75,240,7954,1,10,0:2:0:0:
75,240,8291,5,0,1:2:0:0:
203,218,8460,1,0,1:2:0:0:
279,318,8628,1,10,0:2:0:0:
159,382,8797,5,0,1:2:0:0:
148,362,8881,1,0,1:2:0:0:
129,348,8966,1,2,1:2:0:0:
109,338,9050,1,0,1:2:0:0:
86,334,9134,1,2,1:2:0:0:
63,337,9218,1,0,1:2:0:0:
42,346,9303,1,10,0:2:0:0:
60,198,9471,5,0,1:2:0:0:
71,218,9555,1,0,1:0:0:0:
75,239,9640,1,10,0:2:0:0:
203,218,9808,5,0,1:2:0:0:
216,192,9893,1,0,1:2:0:0:
218,163,9977,1,0,1:2:0:0:
213,134,10061,1,0,1:2:0:0:
193,110,10145,2,0,B|140:119,1,42.5,10|0,0:2|1:2,0:0:0:0:
264,2,10314,5,0,1:2:0:0:
280,6,10398,1,0,1:2:0:0:
270,9,10482,2,0,B|258:67,1,42.5,0|0,1:2|1:2,0:2:0:0:
327,151,10651,5,10,0:2:0:0:
327,151,10735,1,8,0:2:0:0:
327,151,10819,1,8,0:2:0:0:
327,151,10904,1,8,0:2:0:0:
327,151,10988,2,0,B|376:118|449:140|459:205,2,170,6|8|2,1:2|0:2|1:2,0:2:0:0:
183,63,11831,1,0,1:2:0:0:
183,63,11915,1,0,1:0:0:0:
183,63,11999,1,8,0:2:0:0:
294,230,12168,6,0,B|235:208|218:124|281:83,1,170,2|0,1:2|1:2,0:2:0:0:
419,13,12673,2,0,B|435:57|407:97,1,85,8|0,0:2|0:2,0:2:0:0:
445,260,13010,5,2,1:2:0:0:
328,152,13179,1,0,1:2:0:0:
263,311,13348,1,8,0:2:0:0:
185,273,13516,5,2,0:2:0:0:
185,273,13600,1,0,0:0:0:0:
185,273,13685,2,0,B|142:268|104:291,1,85,2|0,1:2|0:0,0:2:0:0:
192,95,14022,2,0,B|118:151|28:125,1,170,8|0,0:2|1:2,0:0:0:0:
196,192,14527,1,0,1:2:0:0:
246,35,14696,5,10,0:2:0:0:
283,192,14864,2,0,B|258:152|272:106,1,85,2|0,1:2|0:0,0:2:0:0:
342,16,15201,1,0,1:2:0:0:
435,118,15370,2,0,B|403:144|352:134,1,85,8|0,0:2|1:2,0:0:0:0:
238,271,15707,5,2,1:2:0:0:
161,62,15876,1,0,1:2:0:0:
16,199,16044,1,10,0:2:0:0:
17,208,16128,1,0,0:0:0:0:
18,219,16212,1,2,0:0:0:0:
21,229,16296,1,0,0:0:0:0:
22,240,16381,6,0,B|68:204|143:227|151:301,2,170,6|8|0,1:2|0:2|1:2,0:2:0:0:
148,162,17224,2,0,B|160:120|144:75,1,85,0|8,1:2|0:2,0:0:0:0:
75,365,17561,6,0,B|157:326|243:348,1,170,2|0,1:2|1:2,0:2:0:0:
399,236,18067,2,0,B|366:262|316:268,1,85,8|0,0:2|0:2,0:2:0:0:
350,357,18404,5,2,1:2:0:0:
232,260,18572,1,0,1:2:0:0:
313,165,18741,2,0,B|348:99|333:31,1,127.5,8|0,0:2|0:0,0:2:0:0:
332,35,19078,6,0,B|370:21|416:21,1,85,6|0,1:2|0:0,0:2:0:0:
241,101,19415,2,0,B|148:119|86:50,1,170,10|2,0:2|1:2,0:0:0:0:
121,179,19921,1,2,1:2:0:0:
22,241,20089,2,0,B|24:200|42:157,1,85,10|0,0:2|1:2,0:0:0:0:
175,17,20426,5,8,0:2:0:0:
222,193,20595,1,8,0:2:0:0:
222,193,20932,5,8,0:2:0:0:
389,48,21100,2,0,B|347:57,1,42.5,8|0,0:2|0:0,0:0:0:0:
297,142,21353,5,0,1:2:0:0:
297,142,21437,2,0,B|386:128|357:185|466:171,1,170,8|6,0:2|1:2,0:2:0:0:
392,260,21943,1,2,0:2:0:0:
457,352,22112,1,10,0:2:0:0:
392,260,22280,1,2,0:2:0:0:
280,310,22449,1,2,1:2:0:0:
170,360,22617,2,0,B|150:320|160:270,1,85,2|8,1:2|0:2,0:2:0:0:
17,193,22954,6,0,B|42:285|-13:383,1,170,0|0,1:2|1:0,0:0:0:0:
0,359,23460,2,0,B|86:344,1,85,10|2,0:2|0:2,0:0:0:0:
230,137,23797,5,0,1:0:0:0:
144,109,23966,1,0,1:2:0:0:
125,200,24134,1,8,0:2:0:0:
225,300,24303,6,0,B|230:257|211:217,1,85,2|2,1:2|0:2,0:0:0:0:
299,75,24640,1,0,1:0:0:0:
376,114,24808,2,0,B|422:118|466:89,1,85,10|0,0:2|0:2,0:0:0:0:
372,32,25145,5,2,1:2:0:0:
304,161,25314,1,2,1:2:0:0:
398,256,25482,1,10,0:2:0:0:
280,384,25651,6,0,B|268:324|188:304|139:342,1,170,2|2,1:2|1:2,0:2:0:0:
13,244,26157,2,0,B|57:252|96:228,1,85,10|2,0:2|0:2,0:0:0:0:
94,228,26409,1,0,0:2:0:0:
94,228,26494,1,0,1:2:0:0:
172,157,26662,1,2,1:2:0:0:
237,228,26831,2,0,B|221:320,2,85,10|2|2,0:2|1:2|0:2,0:0:0:0:
172,157,27336,1,0,1:2:0:0:
285,151,27505,6,0,B|370:86|303:-9,1,170,8|2,0:2|1:2,0:2:0:0:
401,127,28010,2,0,B|495:114,1,85,0|10,1:2|0:2,0:0:0:0:
227,58,28348,6,0,B|140:72|46:82,1,170,2|0,1:2|1:2,0:2:0:0:
162,240,28853,2,0,B|186:202|171:155,1,85,10|0,0:2|0:0,0:0:0:0:
316,25,29190,5,2,1:2:0:0:
287,127,29359,1,0,1:2:0:0:
346,242,29527,2,0,B|389:244|434:265,1,85,10|0,0:2|0:0,0:2:0:0:
428,262,29780,1,0,0:2:0:0:
428,262,29864,1,2,1:2:0:0:
372,156,30033,1,0,1:2:0:0:
262,299,30201,6,0,B|193:361|92:330,1,170,10|0,0:2|1:0,0:0:0:0:
32,366,30707,1,0,1:2:0:0:
32,366,30876,2,0,B|17:280,1,85,8|0,0:2|0:2,0:0:0:0:
102,94,31213,1,0,1:2:0:0:
102,94,31550,6,0,B|111:142|84:193,1,85,10|0,0:2|0:2,0:2:0:0:
91,177,31803,1,0,1:0:0:0:
91,177,31887,1,2,1:2:0:0:
147,270,32055,1,0,1:2:0:0:
310,221,32224,1,12,0:2:0:0:
285,200,32308,1,0,0:0:0:0:
256,188,32393,1,2,1:2:0:0:
224,186,32476,1,0,0:0:0:0:
193,192,32561,5,6,1:2:0:0:
309,101,32730,1,2,0:0:0:0:
183,19,32898,1,10,0:2:0:0:
216,102,33067,5,2,0:2:0:0:
216,102,33151,1,0,0:0:0:0:
216,102,33235,1,2,1:2:0:0:
114,277,33404,2,0,B|69:288|17:290,1,85,2|8,1:2|0:2,0:0:0:0:
259,366,33741,6,0,B|345:339|431:327,1,170,2|0,1:2|1:0,0:0:0:0:
312,260,34246,1,10,0:2:0:0:
416,171,34415,2,0,B|404:210|395:258,1,85,2|0,0:2|1:2,0:2:0:0:
359,89,34752,1,0,1:2:0:0:
243,202,34921,2,0,B|255:163|264:115,1,85,8|2,0:2|1:2,0:2:0:0:
136,8,35258,5,2,0:2:0:0:
97,87,35426,1,2,1:2:0:0:
19,44,35595,1,10,0:2:0:0:
181,115,35763,5,2,1:2:0:0:
181,115,35848,1,0,0:0:0:0:
181,115,35932,1,2,1:2:0:0:
114,174,36100,1,2,1:2:0:0:
33,150,36268,1,10,0:2:0:0:
104,266,36437,6,0,B|144:269|203:290,1,85,2|0,1:2|0:0,0:0:0:0:
334,210,36775,2,0,B|294:207|235:186,1,85,2|10,1:2|0:2,0:0:0:0:
139,368,37112,6,0,B|161:312|233:289|287:341,1,170,2|2,0:2|1:2,0:2:0:0:
279,334,37533,1,0,0:0:0:0:
279,334,37617,1,10,0:2:0:0:
420,225,37786,1,2,1:2:0:0:
370,384,37954,6,0,B|365:339|370:290,1,85,6|0,0:2|1:2,0:2:0:0:
293,51,38291,1,8,0:2:0:0:
293,51,38628,6,0,B|298:96|293:145,1,85,2|2,1:2|1:2,0:0:0:0:
260,219,38966,1,10,0:2:0:0:
184,172,39134,2,0,B|96:147|11:178,1,170,2|0,1:2|1:2,0:2:0:0:
178,83,39640,6,0,B|190:43|191:-12,1,85,10|0,0:2|0:0,0:2:0:0:
396,90,39977,2,0,B|384:130|383:185,1,85,2|0,1:2|1:2,0:0:0:0:
261,219,40314,1,10,0:2:0:0:
411,302,40482,5,2,0:2:0:0:
411,302,40567,1,0,0:0:0:0:
411,302,40651,2,0,B|374:288|322:295,1,85,6|0,1:2|0:0,0:2:0:0:
77,362,40988,2,0,B|138:353|204:312,1,127.5,8|0,0:2|0:0,0:0:0:0:
195,317,41325,1,0,1:2:0:0:
261,219,41494,1,0,1:2:0:0:
296,383,41662,1,10,0:2:0:0:
160,230,41831,5,2,1:2:0:0:
160,230,41915,1,0,0:0:0:0:
160,230,41999,2,0,B|169:191|174:140,1,85,2|0,1:2|1:2,0:0:0:0:
336,23,42336,2,0,B|327:62|322:113,1,85,10|0,0:2|0:2,0:2:0:0:
427,246,42673,5,2,1:2:0:0:
427,246,42758,1,0,1:0:0:0:
427,246,42842,2,0,B|475:235,1,42.5,0|0,1:2|0:0,0:0:0:0:
381,324,43010,5,10,0:2:0:0:
347,296,43095,1,8,0:2:0:0:
334,255,43179,1,8,0:2:0:0:
334,212,43263,1,8,0:2:0:0:
352,173,43348,6,0,B|421:155|443:86|400:29,1,170,6|10,1:2|0:2,0:2:0:0:
313,12,43853,2,0,B|274:20|227:21,1,85,2|0,0:2|1:0,0:2:0:0:
131,174,44190,1,0,1:2:0:0:
34,94,44359,2,0,B|73:86|120:85,1,85,8|0,0:2|1:2,0:0:0:0:
118,85,44612,1,0,1:2:0:0:
118,85,44696,1,2,1:2:0:0:
336,218,45033,5,10,0:2:0:0:
257,360,45201,1,2,0:2:0:0:
247,200,45370,1,2,1:2:0:0:
346,319,45539,1,2,1:2:0:0:
188,292,45707,1,10,0:2:0:0:
108,334,45876,5,0,1:2:0:0:
108,334,45960,1,0,1:2:0:0:
108,334,46044,2,0,B|51:345|4:269|56:215,2,170,2|10|0,1:2|0:2|1:0,0:2:0:0:
159,209,46887,1,0,1:2:0:0:
272,280,47055,1,8,0:2:0:0:
392,201,47224,5,0,1:2:0:0:
394,192,47308,1,0,1:2:0:0:
396,183,47393,2,0,B|385:140|397:92,1,85,2|0,1:2|0:0,0:2:0:0:
272,0,47730,2,0,B|282:41|271:84,1,85,10|2,0:2|0:2,0:0:0:0:
159,209,48067,5,2,1:2:0:0:
72,138,48235,1,2,1:2:0:0:
0,284,48404,2,0,B|39:271|101:257,1,85,10|0,0:2|1:2,0:2:0:0:
249,363,48741,6,0,B|283:283|265:186,1,170,4|10,1:2|0:2,0:2:0:0:
361,50,49246,1,2,0:2:0:0:
361,50,49331,1,2,0:0:0:0:
361,50,49415,2,0,B|347:95|343:143,1,85,0|0,1:2|1:2,0:0:0:0:
407,287,49752,1,8,0:2:0:0:
480,177,49921,5,0,1:2:0:0:
480,177,50005,1,0,1:2:0:0:
480,177,50089,2,0,B|442:188|396:194,1,85,2|0,1:2|1:0,0:2:0:0:
291,129,50426,1,10,0:2:0:0:
297,299,50595,5,2,0:2:0:0:
297,299,50679,1,2,0:0:0:0:
297,299,50763,2,0,B|309:258|314:215,1,85,0|2,1:0|1:2,0:0:0:0:
209,63,51100,2,0,B|197:104|192:147,1,85,8|0,0:2|1:2,0:2:0:0:
99,227,51437,5,6,1:2:0:0:
84,133,51606,1,0,1:2:0:0:
66,42,51775,1,10,0:2:0:0:
66,42,52112,5,2,1:2:0:0:
84,133,52281,1,0,1:2:0:0:
99,227,52450,1,10,0:2:0:0:
24,306,52617,6,0,B|68:315|116:327,1,85,2|0,1:2|1:2,0:2:0:0:
250,118,52954,1,2,1:2:0:0:
353,175,53123,2,0,B|280:207|183:215,1,170,10|0,0:2|1:2,0:2:0:0:
283,291,53628,1,0,1:2:0:0:
211,384,53797,2,0,B|202:345|196:300,1,85,8|0,0:2|0:0,0:2:0:0:
111,132,54134,5,6,1:2:0:0:
66,274,54303,1,0,1:0:0:0:
111,132,54471,5,8,0:2:0:0:
10,22,54640,1,0,1:2:0:0:
155,220,54808,5,8,0:2:0:0:
175,214,54893,1,0,1:2:0:0:
195,208,54977,1,0,1:2:0:0:
326,140,55145,1,8,0:2:0:0:
377,289,55314,1,0,1:2:0:0:
371,309,55398,1,0,1:0:0:0:
364,329,55482,5,8,0:2:0:0:
327,339,55567,1,0,1:0:0:0:
289,331,55651,1,8,0:2:0:0:
266,300,55735,1,0,1:0:0:0:
261,262,55819,5,10,0:2:0:0:
266,245,55904,1,0,1:2:0:0:
271,228,55988,1,2,1:2:0:0:
276,211,56072,1,0,1:2:0:0:
280,194,56157,6,0,B|268:120,1,63.7500024318696,2|0,1:2|0:0,0:0:0:0:
370,4,56325,2,0,B|380:66,1,63.7500024318696,2|0,1:2|0:0,0:0:0:0:
473,162,56494,6,0,B|406:136|358:208,1,127.500004863739,10|0,0:2|0:0,0:2:0:0:
97,20,56831,6,0,B|183:-2|234:94|178:160,1,195.500003728867,6|10,1:2|0:2,0:2:0:0:
47,224,57336,2,0,B|90:212|148:208,1,97.7500018644333,2|0,0:2|1:0,0:2:0:0:
398,150,57673,2,0,B|352:145|299:122,1,97.7500018644333,2|8,1:2|0:2,0:0:0:0:
215,45,58010,5,2,1:2:0:0:
215,45,58095,1,0,0:0:0:0:
215,45,58179,1,2,1:2:0:0:
115,133,58348,2,0,B|112:82|96:30,1,97.7500018644333,0|10,1:2|0:2,0:0:0:0:
267,201,58685,6,0,B|244:275|229:356,1,146.62500279665,2|0,1:2|0:0,0:2:0:0:
238,352,59022,2,0,B|192:369|143:372,1,97.7500018644333,2|8,1:2|0:2,0:2:0:0:
332,297,59359,1,2,0:2:0:0:
157,259,59527,6,0,B|124:198|152:104,1,146.62500279665,2|0,1:2|0:0,0:0:0:0:
148,116,59864,1,10,0:2:0:0:
236,12,60033,2,0,B|189:26|117:38,1,97.7500018644333,2|0,0:2|1:0,0:2:0:0:
362,150,60370,2,0,B|412:165|467:188,1,97.7500018644333,2|10,1:2|0:2,0:0:0:0:
339,60,60707,1,2,0:2:0:0:
259,185,60876,5,2,1:2:0:0:
352,301,61044,1,2,1:2:0:0:
352,301,61128,1,0,0:0:0:0:
352,301,61213,1,10,0:2:0:0:
134,373,61381,2,0,B|114:304|220:237|272:316,1,195.500003728867,2|2,1:2|1:2,0:2:0:0:
494,202,61887,2,0,B|449:237|396:221,1,97.7500018644333,8|0,0:2|0:0,0:0:0:0:
230,97,62224,6,0,B|239:32|330:-3|389:62,2,195.500003728867,6|10|0,1:2|0:2|1:2,0:2:0:0:
70,126,63067,1,2,1:2:0:0:
64,97,63151,1,0,0:0:0:0:
57,68,63235,1,10,0:2:0:0:
6,263,63404,6,0,B|102:242|209:236,1,195.500003728867,0|0,1:2|1:2,0:2:0:0:
338,108,63909,1,10,0:2:0:0:
478,209,64078,2,0,B|431:203|371:186,1,97.7500018644333,2|2,1:2|0:2,0:0:0:0:
177,74,64415,5,0,1:2:0:0:
275,7,64584,2,0,B|270:61|250:115,1,97.7500018644333,10|0,0:2|0:0,0:2:0:0:
307,283,64921,6,0,B|298:224|277:176,1,97.7500018644333,6|0,1:2|0:0,0:2:0:0:
338,108,65258,1,10,0:2:0:0:
431,128,65426,1,2,0:2:0:0:
492,58,65595,1,2,1:2:0:0:
365,194,65763,5,2,1:2:0:0:
254,102,65932,1,8,0:2:0:0:
121,154,66100,1,6,0:2:0:0:
37,69,66269,5,0,1:0:0:0:
161,247,66437,1,2,0:2:0:0:
26,351,66606,5,0,1:2:0:0:
121,154,66775,1,4,1:2:0:0:
304,292,66943,5,10,0:2:0:0:
304,292,67027,1,10,0:0:0:0:
304,292,67112,2,0,B|254:304,1,48.8750009322167,10|0,0:2|0:0,0:0:0:0:
196,348,67280,5,6,1:3:0:0:
238,339,67364,1,4,1:3:0:0:
281,346,67449,1,4,1:3:0:0:
324,359,67533,1,4,1:3:0:0:
357,384,67617,6,0,B|424:303|383:175,1,195.500003728867,6|10,1:2|0:2,0:2:0:0:
370,41,68123,2,0,B|420:57|482:64,1,97.7500018644333,2|0,0:2|1:0,0:2:0:0:
391,199,68460,1,2,1:2:0:0:
292,151,68628,1,10,0:2:0:0:
189,112,68797,5,2,0:2:0:0:
181,90,68882,1,0,0:0:0:0:
179,66,68966,1,2,1:2:0:0:
210,239,69134,2,0,B|196:288|188:338,1,97.7500018644333,0|10,1:2|0:2,0:0:0:0:
51,378,69471,6,0,B|44:300|22:228,1,146.62500279665,2|0,1:2|0:0,0:2:0:0:
23,234,69808,1,2,1:2:0:0:
59,148,69977,2,0,B|74:104|83:50,1,97.7500018644333,8|2,0:2|0:2,0:0:0:0:
162,277,70314,5,2,1:2:0:0:
304,250,70482,1,0,1:2:0:0:
435,226,70651,2,0,B|483:160|446:78,1,146.62500279665,10|0,0:2|0:0,0:0:0:0:
449,86,70988,1,0,1:0:0:0:
372,152,71157,1,2,1:2:0:0:
466,334,71325,2,0,B|426:304|370:312,1,97.7500018644333,10|2,0:2|0:2,0:0:0:0:
373,311,71578,1,0,0:0:0:0:
373,311,71662,5,2,1:2:0:0:
215,209,71831,2,0,B|198:159|200:107,1,97.7500018644333,0|10,1:2|0:2,0:0:0:0:
316,4,72168,2,0,B|286:147,1,146.62500279665,2|0,1:2|0:0,0:2:0:0:
285,147,72505,1,2,1:2:0:0:
177,63,72673,1,8,0:2:0:0:
371,153,72842,5,2,0:2:0:0:
371,153,72926,1,0,0:0:0:0:
372,153,73010,2,0,B|429:145|473:129,1,97.7500018644333,4|0,1:2|0:0,0:2:0:0:
219,351,73348,2,0,B|276:359|320:375,1,97.7500018644333,10|0,0:2|0:0,0:0:0:0:
408,244,73685,1,2,1:2:0:0:
331,275,73853,2,0,B|285:261|237:252,1,97.7500018644333,0|10,1:2|0:2,0:0:0:0:
38,107,74190,6,0,B|115:91|184:60,1,146.62500279665,2|0,1:2|0:0,0:0:0:0:
177,62,74527,1,0,1:2:0:0:
286,3,74696,2,0,B|274:49|264:100,1,97.7500018644333,8|0,0:2|1:2,0:0:0:0:
422,189,75033,5,0,0:0:0:0:
383,73,75202,1,0,1:2:0:0:
264,98,75370,1,10,0:2:0:0:
301,245,75539,5,2,0:2:0:0:
301,245,75623,1,0,0:0:0:0:
301,245,75707,2,0,B|254:224|197:230,1,97.7500018644333,2|0,1:2|0:2,0:2:0:0:
21,98,76044,2,0,B|106:102|167:60,1,146.62500279665,10|0,0:2|0:0,0:2:0:0:
161,63,76381,1,2,1:2:0:0:
216,137,76550,1,2,1:2:0:0:
139,287,76718,2,0,B|117:240|133:191,1,97.7500018644333,8|0,0:0|1:2,0:0:0:0:
132,191,76971,1,0,1:2:0:0:
132,191,77055,6,0,B|84:198|35:205,1,97.7500018644333,2|0,1:2|1:2,0:0:0:0:
194,368,77393,2,0,B|265:350|339:340,1,146.62500279665,10|0,0:2|1:2,0:2:0:0:
408,371,77730,5,6,1:3:0:0:
443,346,77814,1,2,1:2:0:0:
446,305,77898,1,6,1:3:0:0:
421,276,77982,1,2,1:2:0:0:
387,268,78067,1,10,0:2:0:0:
357,243,78151,1,10,0:2:0:0:
347,206,78235,1,10,0:2:0:0:
366,165,78319,1,10,0:2:0:0:
411,155,78404,6,0,B|431:110|419:55,1,85,6|0,1:2|0:0,0:0:0:0:
317,7,78741,2,0,B|244:67|133:47,1,170,10|2,0:2|1:2,0:0:0:0:
16,147,79246,2,0,B|63:159|110:175,1,85,0|8,1:0|0:0,0:0:0:0:
80,82,79584,6,0,B|71:35|55:-11,1,85,2|0,1:2|0:0,0:0:0:0:
189,140,79921,1,0,1:0:0:0:
166,238,80089,2,0,B|151:308|176:381,1,127.5,8|0,0:0|0:0,0:0:0:0:
170,364,80426,1,2,1:2:0:0:
301,337,80595,1,0,1:0:0:0:
423,299,80763,2,0,B|435:341|424:392,1,85,8|0,0:0|0:0,0:0:0:0:
340,223,81100,6,0,B|312:143|332:56,2,170,2|8|0,1:2|0:0|1:0,0:0:0:0:
408,153,81943,1,0,1:0:0:0:
249,188,82112,1,8,0:0:0:0:
182,78,82280,6,0,B|89:100|3:114,1,170,2|0,1:2|1:0,0:0:0:0:
147,260,82786,1,8,0:0:0:0:
65,236,82954,1,0,1:0:0:0:
126,181,83123,5,2,0:0:0:0:
89,319,83291,1,0,1:0:0:0:
225,298,83460,1,8,0:0:0:0:
262,160,83628,1,2,0:0:0:0:
330,215,83797,6,0,B|373:221|423:213,1,85,6|0,1:2|0:0,0:0:0:0:
282,379,84134,2,0,B|351:338|458:351,1,170,8|2,0:0|1:2,0:0:0:0:
293,293,84640,1,0,1:0:0:0:
330,215,84808,1,8,0:0:0:0:
207,93,84977,6,0,B|147:140|176:231|246:241,1,170,2|0,1:2|1:0,0:0:0:0:
156,309,85482,2,0,B|111:313|71:334,1,85,8|0,0:0|0:0,0:0:0:0:
330,215,85819,5,2,1:2:0:0:
413,255,85988,1,0,1:0:0:0:
467,187,86157,2,0,B|478:142|478:49,1,127.5,8|0,0:0|0:0,0:0:0:0:
492,49,86494,6,0,B|433:43|388:31,1,85,2|0,1:2|0:0,0:0:0:0:
134,102,86831,2,0,B|193:108|238:120,1,85,8|0,0:0|0:0,0:0:0:0:
296,23,87168,5,0,1:0:0:0:
323,129,87336,1,0,1:0:0:0:
348,235,87505,2,0,B|331:307|324:371,1,127.5,8|0,0:0|0:0,0:0:0:0:
325,360,87842,5,8,0:2:0:0:
214,258,88010,1,8,0:2:0:0:
214,258,88348,5,8,0:2:0:0:
81,366,88516,1,8,0:2:0:0:
81,366,88600,1,0,0:0:0:0:
0,229,88769,1,0,1:2:0:0:
0,229,88853,2,0,B|91:240|157:178,1,170,8|6,0:2|1:2,0:2:0:0:
190,105,89359,5,2,0:2:0:0:
167,22,89527,1,10,0:2:0:0:
109,84,89696,1,2,0:2:0:0:
246,44,89864,1,2,1:2:0:0:
321,155,90033,2,0,B|364:171|403:178,1,85,2|8,1:2|0:2,0:0:0:0:
498,56,90370,6,0,B|420:42|334:10,1,170,2|0,1:2|1:0,0:0:0:0:
235,188,90876,2,0,B|220:230|208:288,1,85,10|2,0:2|0:2,0:0:0:0:
253,344,91213,1,0,1:0:0:0:
135,232,91381,1,0,1:2:0:0:
303,266,91550,2,0,B|344:258|384:241,1,85,8|0,0:2|1:0,0:0:0:0:
144,324,91887,6,0,B|104:307|63:299,1,85,2|2,0:2|1:2,0:2:0:0:
122,133,92224,2,0,B|130:181|138:220,1,85,10|2,0:2|0:2,0:2:0:0:
137,216,92477,1,0,0:0:0:0:
137,216,92561,1,2,1:2:0:0:
253,373,92730,2,0,B|245:337|237:289,1,85,2|10,1:2|0:2,0:0:0:0:
297,144,93067,5,2,1:2:0:0:
433,101,93235,1,2,0:2:0:0:
351,215,93404,1,2,1:2:0:0:
351,75,93572,1,10,0:2:0:0:
437,183,93741,6,0,B|485:258|447:351,1,170,2|2,0:2|1:2,0:2:0:0:
250,384,94246,2,0,B|270:298,1,85,10|2,0:2|1:2,0:0:0:0:
131,162,94584,6,0,B|91:188|21:195,1,85,2|0,0:2|1:2,0:2:0:0:
19,342,94921,2,0,B|81:314|155:307,1,127.5,8|0,0:2|0:0,0:2:0:0:
141,308,95258,1,2,1:2:0:0:
206,238,95426,2,0,B|219:199|225:145,1,85,2|10,1:2|0:2,0:0:0:0:
409,21,95763,6,0,B|399:81|328:107|270:61,1,170,2|0,1:2|1:2,0:2:0:0:
101,121,96269,2,0,B|117:81|123:40,1,85,10|2,0:2|0:0,0:0:0:0:
123,39,96522,1,0,0:0:0:0:
123,39,96606,1,2,1:2:0:0:
178,161,96775,1,0,1:2:0:0:
26,231,96943,2,0,B|64:211|116:200,1,85,10|0,0:2|0:0,0:2:0:0:
240,99,97280,6,0,B|254:56|263:1,1,85,6|0,1:2|1:2,0:2:0:0:
266,241,97617,2,0,B|255:311|287:372,1,127.5,8|0,0:2|0:0,0:2:0:0:
293,372,97954,2,0,B|336:357|381:353,1,85,0|0,1:2|1:2,0:0:0:0:
384,190,98291,1,8,0:2:0:0:
455,258,98460,5,2,0:2:0:0:
455,258,98544,1,0,0:0:0:0:
455,258,98628,2,0,B|416:269|362:278,1,85,2|0,1:2|1:2,0:0:0:0:
151,96,98966,2,0,B|220:110|277:63,1,127.5,10|0,0:2|0:0,0:2:0:0:
271,67,99303,1,2,1:2:0:0:
443,135,99471,1,0,1:2:0:0:
377,22,99640,5,10,0:2:0:0:
369,55,99724,1,0,1:0:0:0:
362,88,99809,1,4,1:3:0:0:
355,121,99893,1,0,1:0:0:0:
348,154,99977,2,0,B|412:164|441:232|398:293,1,170,6|10,1:2|0:2,0:2:0:0:
436,369,100482,1,2,0:2:0:0:
436,369,100567,1,0,0:0:0:0:
436,369,100651,2,0,B|397:363|346:370,1,85,2|0,1:2|1:2,0:0:0:0:
245,290,100988,1,8,0:2:0:0:
97,360,101157,5,0,1:2:0:0:
97,360,101241,1,0,1:2:0:0:
97,360,101325,2,0,B|73:294|87:234,1,127.5,2|0,1:2|0:0,0:2:0:0:
97,208,101662,2,0,B|-3:227,1,85,10|0,0:2|0:0,0:0:0:0:
179,144,101999,1,2,1:2:0:0:
245,290,102168,1,2,1:2:0:0:
346,198,102336,2,0,B|307:187|250:201,1,85,10|0,0:2|0:2,0:2:0:0:
41,58,102673,6,0,B|135:73|203:15,1,170,2|10,1:2|0:2,0:2:0:0:
300,12,103179,1,2,0:2:0:0:
300,12,103263,1,0,0:0:0:0:
300,12,103348,2,0,B|295:56|279:100,1,85,0|0,1:2|1:2,0:0:0:0:
400,233,103685,1,8,0:2:0:0:
455,154,103853,1,0,1:2:0:0:
451,141,103937,1,0,1:2:0:0:
447,128,104022,1,0,1:2:0:0:
447,128,104359,6,0,B|406:145|351:148,1,85,8|0,0:2|0:0,0:2:0:0:
271,111,104696,1,2,1:2:0:0:
212,196,104864,1,2,1:2:0:0:
244,307,105033,2,0,B|180:365|91:341,1,127.5,10|0,0:2|1:2,0:0:0:0:
112,355,105370,6,0,B|97:269,1,85,6|0,1:2|0:0,0:2:0:0:
21,206,105707,1,10,0:2:0:0:
39,114,105876,2,0,B|130:131|198:67,1,170,2|0,0:2|1:2,0:2:0:0:
310,37,106381,1,8,0:2:0:0:
381,152,106550,5,0,1:2:0:0:
381,152,106634,1,0,1:2:0:0:
381,152,106718,1,2,1:2:0:0:
483,105,106887,2,0,B|500:67|504:6,1,85,2|10,1:2|0:2,0:0:0:0:
311,209,107224,6,0,B|297:282|318:352,1,127.5,2|0,0:2|0:0,0:2:0:0:
307,345,107561,2,0,B|400:355,1,85,2|8,1:2|0:0,0:2:0:0:
210,264,107898,1,2,1:2:0:0:
132,309,108067,2,0,B|88:328|41:330,1,85,6|0,1:2|1:2,0:0:0:0:
204,180,108404,6,0,B|115:184|45:130,1,170,8|2,0:2|1:2,0:2:0:0:
45,130,108909,2,0,B|35:44,1,85,2|10,1:2|0:2,0:0:0:0:
262,17,109246,6,0,B|250:78|182:104|124:61,1,170,2|2,1:2|1:2,0:0:0:0:
318,201,109752,2,0,B|365:210|406:229,1,85,10|0,0:2|0:0,0:2:0:0:
473,146,110089,1,0,1:2:0:0:
434,33,110258,1,0,1:2:0:0:
327,91,110426,2,0,B|285:111|214:117,1,85,8|0,0:2|0:0,0:0:0:0:
101,240,110763,5,6,1:2:0:0:
37,69,110932,1,0,1:0:0:0:
101,240,111100,5,8,0:2:0:0:
245,114,111269,1,0,1:2:0:0:
129,0,111437,6,0,B|138:47|145:91,1,85,8|0,0:2|1:2,0:2:0:0:
226,308,111775,2,0,B|220:271|211:224,1,85,8|0,0:2|1:2,0:2:0:0:
337,18,112112,6,0,B|335:50|322:83,1,63.7500024318696,8|0,0:2|0:0,0:0:0:0:
474,226,112280,2,0,B|476:194|489:161,1,63.7500024318696,8|0,0:2|0:0,0:0:0:0:
343,164,112449,5,10,0:2:0:0:
343,164,112533,1,0,1:2:0:0:
343,164,112617,1,2,1:2:0:0:
343,164,112701,1,0,1:2:0:0:
343,164,112786,2,0,B|378:153|409:149,1,63.7500024318696,2|0,1:2|0:0,0:0:0:0:
478,54,112954,2,0,B|443:65|412:69,1,63.7500024318696,2|0,1:2|0:0,0:0:0:0:
266,116,113123,6,0,B|231:183|286:232,1,127.500004863739,10|0,0:2|0:0,0:2:0:0:
500,384,113460,6,0,B|476:320|397:297|322:356,1,195.500003728867,6|10,1:2|0:2,0:2:0:0:
135,384,113966,2,0,B|120:337|118:287,1,97.7500018644333,2|0,0:2|1:0,0:2:0:0:
207,47,114303,5,2,1:2:0:0:
268,116,114471,2,0,B|263:169|244:210,1,97.7500018644333,8|2,0:2|0:2,0:0:0:0:
263,314,114808,5,0,1:2:0:0:
116,198,114977,1,2,1:2:0:0:
97,204,115061,1,0,0:0:0:0:
78,209,115145,1,10,0:2:0:0:
325,250,115314,6,0,B|394:273|472:275,1,146.62500279665,2|0,1:2|0:0,0:2:0:0:
482,269,115651,2,0,B|460:368,1,97.7500018644333,2|8,1:2|0:2,0:2:0:0:
384,160,115988,1,2,0:2:0:0:
453,108,116157,6,0,B|468:65|472:7,1,97.7500018644333,2|0,1:2|1:2,0:0:0:0:
467,190,116494,1,10,0:2:0:0:
369,75,116662,2,0,B|305:92|262:96,1,97.7500018644333,2|0,0:0|1:0,0:0:0:0:
142,309,116999,2,0,B|206:292|249:288,1,97.7500018644333,2|10,1:2|0:2,0:0:0:0:
288,189,117336,1,2,1:2:0:0:
322,353,117505,6,0,B|333:303|352:257,1,97.7500018644333,2|0,1:2|1:2,0:0:0:0:
193,170,117842,1,10,0:2:0:0:
83,232,118010,2,0,B|30:175|59:89,1,146.62500279665,2|0,1:2|0:0,0:2:0:0:
57,95,118348,1,2,1:2:0:0:
40,0,118516,2,0,B|83:16|138:20,1,97.7500018644333,8|0,0:2|0:0,0:0:0:0:
431,158,118853,6,0,B|416:234|333:267|270:208,2,195.500003728867,6|10|0,1:2|0:2|1:2,0:2:0:0:
352,56,119696,2,0,B|342:104|341:158,1,97.7500018644333,0|8,1:2|0:2,0:0:0:0:
170,356,120033,6,0,B|186:259|143:160,1,195.500003728867,0|0,1:2|1:2,0:2:0:0:
239,12,120539,2,0,B|237:60|217:108,1,97.7500018644333,10|2,0:2|1:2,0:0:0:0:
289,275,120876,2,0,B|291:227|311:179,1,97.7500018644333,2|0,0:2|1:2,0:0:0:0:
352,56,121213,2,0,B|405:51|449:27,1,97.7500018644333,10|0,0:2|0:0,0:2:0:0:
196,236,121550,6,0,B|139:138|26:196,1,195.500003728867,6|8,1:2|0:2,0:2:0:0:
28,194,122055,1,2,0:2:0:0:
149,95,122224,5,2,1:2:0:0:
100,268,122393,1,2,1:2:0:0:
149,95,122561,1,8,0:2:0:0:
354,257,122730,5,6,0:2:0:0:
354,257,122814,1,0,0:0:0:0:
354,257,122898,1,0,1:2:0:0:
235,85,123067,1,0,1:2:0:0:
343,0,123235,5,2,1:2:0:0:
245,200,123404,1,4,1:2:0:0:
505,104,123572,5,10,0:2:0:0:
505,104,123657,1,0,1:0:0:0:
505,104,123741,2,0,B|457:113,1,48.8750009322167,8|0,0:2|0:0,0:0:0:0:
354,257,123909,5,4,1:3:0:0:
370,292,123994,1,4,1:3:0:0:
370,330,124078,1,4,1:3:0:0:
347,361,124162,1,4,1:3:0:0:
310,375,124246,6,0,B|237:300|115:327,1,195.500003728867,6|10,1:2|0:2,0:2:0:0:
38,254,124752,1,2,0:2:0:0:
38,254,124836,1,2,0:0:0:0:
38,254,124921,2,0,B|25:201|21:154,1,97.7500018644333,0|2,1:2|1:2,0:0:0:0:
147,20,125258,1,8,0:2:0:0:
106,164,125426,1,2,0:2:0:0:
28,63,125595,5,0,1:2:0:0:
219,121,125763,1,0,1:0:0:0:
28,63,125932,1,10,0:2:0:0:
219,121,126100,6,0,B|269:108|321:80,1,97.7500018644333,2|0,1:2|0:0,0:2:0:0:
487,256,126437,1,2,1:2:0:0:
376,292,126606,2,0,B|365:242|365:196,1,97.7500018644333,8|2,0:2|0:2,0:0:0:0:
496,46,126943,5,2,1:2:0:0:
446,168,127112,1,0,1:0:0:0:
455,339,127280,2,0,B|385:325|306:369,1,146.62500279665,10|0,0:0|0:0,0:0:0:0:
313,364,127617,5,0,1:0:0:0:
200,316,127786,2,0,B|180:273|177:221,1,97.7500018644333,2|10,1:2|0:2,0:0:0:0:
278,242,128123,1,2,0:2:0:0:
73,243,128291,6,0,B|76:195|104:147,1,97.7500018644333,2|0,1:2|1:2,0:0:0:0:
237,66,128628,1,10,0:2:0:0:
372,176,128797,6,0,B|454:194|531:138,1,146.62500279665,2|0,1:2|0:0,0:2:0:0:
512,150,129134,1,2,1:2:0:0:
278,242,129303,2,0,B|230:244|178:258,1,97.7500018644333,10|2,0:2|0:2,0:2:0:0:
18,112,129640,6,0,B|66:110|118:96,1,97.7500018644333,6|0,1:2|0:0,0:2:0:0:
220,22,129977,1,10,0:2:0:0:
285,144,130145,5,2,0:0:0:0:
285,144,130230,1,0,0:0:0:0:
285,144,130314,1,2,1:2:0:0:
391,97,130482,2,0,B|404:49|405:1,1,97.7500018644333,0|10,1:2|0:2,0:0:0:0:
172,181,130819,6,0,B|120:273|153:385,1,195.500003728867,2|0,1:2|0:0,0:0:0:0:
263,265,131325,1,8,0:2:0:0:
74,134,131494,6,0,B|179:160|267:81,1,195.500003728867,0|0,1:2|1:2,0:2:0:0:
364,241,131999,1,10,0:2:0:0:
440,201,132168,5,2,0:2:0:0:
440,201,132252,1,0,0:0:0:0:
440,201,132336,2,0,B|457:162|461:103,1,97.7500018644333,6|0,1:2|0:2,0:2:0:0:
321,5,132673,2,0,B|304:44|300:103,1,97.7500018644333,10|0,0:2|0:2,0:2:0:0:
347,358,133010,5,2,1:2:0:0:
287,189,133179,1,2,1:2:0:0:
173,329,133348,1,8,0:2:0:0:
97,293,133516,5,2,1:2:0:0:
97,293,133600,1,0,1:2:0:0:
97,293,133685,2,0,B|26:271|12:182|65:137,1,195.500003728867,0|10,1:2|0:2,0:2:0:0:
205,9,134190,1,8,1:3:0:0:
205,9,134275,1,8,1:3:0:0:
205,9,134359,2,0,B|178:116,1,97.7500018644333,4|4,1:3|1:3,0:0:0:0:
309,220,134696,5,8,0:2:0:0:
347,207,134780,1,8,0:2:0:0:
347,168,134865,1,8,0:2:0:0:
309,156,134949,1,8,0:2:0:0:
287,188,135033,1,6,1:2:0:0:
256,192,135117,12,0,140089,0:2:0:0:
410,33,140426,5,0,1:2:0:0:
326,48,140595,1,0,1:2:0:0:
242,62,140763,1,8,0:2:0:0:
166,22,140932,1,0,1:2:0:0:
158,32,141016,1,0,1:2:0:0:
152,43,141100,1,0,1:2:0:0:
147,55,141185,1,0,1:2:0:0:
143,67,141269,1,0,1:2:0:0:
141,79,141353,1,0,1:2:0:0:
141,91,141437,1,8,0:2:0:0:
45,249,141775,5,0,1:2:0:0:
129,264,141944,1,0,1:2:0:0:
213,278,142112,1,8,0:2:0:0:
289,238,142281,1,0,1:2:0:0:
297,248,142365,1,0,1:2:0:0:
303,259,142449,1,0,1:2:0:0:
308,271,142534,1,0,1:2:0:0:
312,283,142617,2,0,B|303:304|304:329,2,42.5,0|0|8,1:2|1:2|0:2,0:2:0:0:
467,116,143123,5,0,1:2:0:0:
378,85,143291,1,0,1:2:0:0:
310,149,143460,1,8,0:2:0:0:
228,127,143628,5,0,1:2:0:0:
217,112,143713,1,0,1:2:0:0:
209,97,143797,1,0,1:2:0:0:
204,80,143881,1,0,1:2:0:0:
202,62,143966,1,0,1:2:0:0:
206,45,144050,1,0,1:2:0:0:
212,29,144134,1,8,0:2:0:0:
328,53,144303,2,0,B|275:65,2,42.5,0|0|8,1:2|1:0|0:2,0:0:0:0:
148,192,144640,5,0,1:2:0:0:
125,172,144724,1,0,1:2:0:0:
97,160,144808,1,0,1:2:0:0:
66,160,144893,1,0,1:2:0:0:
38,170,144977,1,8,0:2:0:0:
221,336,145145,5,0,1:2:0:0:
241,314,145230,1,0,1:2:0:0:
253,287,145314,1,0,1:2:0:0:
253,257,145398,1,0,1:2:0:0:
247,227,145482,5,8,0:2:0:0:
236,234,145567,1,0,1:2:0:0:
228,244,145651,1,0,1:2:0:0:
222,255,145735,1,0,1:2:0:0:
219,267,145819,6,0,B|315:250|405:241,2,187.000005706787,6|8|2,1:2|0:2|1:2,0:2:0:0:
54,138,146662,2,0,B|92:156|151:168,1,93.5000028533936,2|8,1:2|0:2,0:2:0:0:
276,108,146999,6,0,B|289:48|314:-7,1,93.5000028533936,2|0,1:2|0:0,0:2:0:0:
368,83,147336,1,0,1:2:0:0:
216,188,147505,1,8,0:2:0:0:
329,319,147673,6,0,B|377:253|346:177,1,140.25000428009,2|0,0:2|0:0,0:2:0:0:
349,186,148010,1,2,1:2:0:0:
471,63,148179,2,0,B|445:156,1,93.5000028533936,8|2,0:0|0:2,0:0:0:0:
426,341,148516,6,0,B|328:335|228:389,1,187.000005706787,2|10,1:2|0:2,0:2:0:0:
76,274,149022,1,2,0:2:0:0:
76,274,149106,1,0,0:0:0:0:
76,274,149190,1,2,1:2:0:0:
161,168,149359,2,0,B|168:217|164:265,1,93.5000028533936,2|8,1:2|0:2,0:2:0:0:
302,384,149696,6,0,B|284:319|298:214,1,140.25000428009,2|0,1:2|0:0,0:2:0:0:
306,233,150033,2,0,B|351:253|396:258,1,93.5000028533936,2|8,1:2|0:2,0:0:0:0:
187,56,150370,2,0,B|125:85|52:91,1,140.25000428009,6|0,1:2|0:2,0:2:0:0:
51,91,150707,1,0,1:2:0:0:
148,164,150876,1,10,0:2:0:0:
298,21,151044,5,0,1:2:0:0:
298,21,151128,1,0,1:2:0:0:
298,21,151213,2,0,B|280:66|272:112,1,93.5000028533936,6|0,1:2|0:0,0:2:0:0:
398,316,151550,2,0,B|416:271|424:225,1,93.5000028533936,10|0,0:2|0:2,0:2:0:0:
379,70,151887,5,2,1:2:0:0:
441,138,152055,1,2,1:2:0:0:
469,52,152224,1,10,0:2:0:0:
314,223,152393,6,0,B|247:200|174:195,1,140.25000428009,2|0,1:2|0:0,0:2:0:0:
176,195,152730,1,2,1:2:0:0:
14,79,152898,2,0,B|62:78|105:61,1,93.5000028533936,10|0,0:2|1:2,0:0:0:0:
229,13,153235,5,2,1:2:0:0:
205,102,153404,1,2,1:2:0:0:
177,195,153572,1,10,0:2:0:0:
365,87,153741,5,2,1:2:0:0:
365,87,153825,1,0,0:0:0:0:
365,87,153909,2,0,B|414:85|460:71,1,93.5000028533936,6|0,1:2|0:0,0:2:0:0:
319,289,154246,2,0,B|243:240|135:255,1,187.000005706787,8|2,0:2|1:2,0:0:0:0:
12,151,154752,2,0,B|58:155|107:134,1,93.5000028533936,2|10,1:2|0:2,0:0:0:0:
242,11,155089,6,0,B|208:159,1,140.25000428009,2|0,1:2|0:0,0:0:0:0:
210,147,155426,1,0,1:2:0:0:
265,224,155595,1,10,0:2:0:0:
215,384,155763,2,0,B|202:335|200:291,1,93.5000028533936,6|0,1:2|1:2,0:0:0:0:
200,291,156016,1,2,0:0:0:0:
200,291,156100,1,2,1:2:0:0:
314,139,156269,1,10,0:2:0:0:
314,139,156353,1,4,1:3:0:0:
314,139,156437,2,0,B|341:146|370:150,1,46.7500014266968,2|0,1:2|1:0,0:0:0:0:
140,195,156606,6,0,B|95:211|37:219,1,93.5000028533936,4|2,1:2|0:2,0:2:0:0:
49,217,156859,1,2,0:2:0:0:
49,217,156943,1,10,0:2:0:0:
288,225,157112,2,0,B|331:238|380:265,1,93.5000028533936,2|0,0:2|1:0,0:2:0:0:
222,146,157449,5,0,1:2:0:0:
196,52,157617,1,10,0:2:0:0:
205,238,157786,6,0,B|179:298|161:413,1,140.25000428009,2|0,1:2|0:0,0:0:0:0:
167,372,158123,1,2,1:2:0:0:
104,261,158291,5,10,0:2:0:0:
40,214,158460,2,0,B|20:160|13:113,1,93.5000028533936,2|0,0:2|1:0,0:2:0:0:
232,0,158797,1,0,1:2:0:0:
288,61,158966,2,0,B|271:106|265:156,1,93.5000028533936,10|0,0:2|0:2,0:2:0:0:
390,254,159303,5,6,1:2:0:0:
453,189,159471,1,2,0:2:0:0:
409,344,159640,1,10,0:2:0:0:
293,250,159808,2,0,B|251:228|204:219,1,93.5000028533936,2|0,0:2|1:2,0:2:0:0:
280,153,160145,5,2,1:2:0:0:
215,323,160314,1,8,0:0:0:0:
70,276,160482,2,0,B|20:221|44:133,1,140.25000428009,6|8,1:2|0:2,0:2:0:0:
41,144,160819,1,2,1:2:0:0:
245,68,160988,1,2,1:2:0:0:
167,7,161157,6,0,B|129:192,1,187.000005706787,6|0,1:2|1:2,0:2:0:0:
290,376,161662,1,8,0:2:0:0:
265,336,161746,1,8,0:2:0:0:
223,313,161831,1,0,1:2:0:0:
176,308,161915,1,0,1:0:0:0:
134,328,161999,6,0,B|90:339|35:345,1,93.5000028533936,6|0,1:2|0:0,0:2:0:0:
272,204,162336,2,0,B|360:226|470:238,1,187.000005706787,8|2,0:2|1:2,0:0:0:0:
346,306,162842,1,2,1:2:0:0:
384,146,163010,1,10,0:2:0:0:
182,225,163179,6,0,B|136:240|85:246,1,93.5000028533936,2|0,1:2|0:0,0:2:0:0:
255,289,163516,1,0,1:2:0:0:
211,147,163685,1,8,0:2:0:0:
330,9,163853,6,0,B|322:84|298:151,1,140.25000428009,2|0,0:2|0:0,0:2:0:0:
299,145,164190,1,2,1:2:0:0:
400,239,164359,2,0,B|444:218|491:209,1,93.5000028533936,8|2,0:2|0:2,0:0:0:0:
397,129,164696,5,2,1:2:0:0:
344,318,164864,1,8,0:2:0:0:
199,211,165033,2,0,B|148:220|104:232,1,93.5000028533936,0|0,1:2|1:2,0:0:0:0:
38,29,165370,5,6,1:3:0:0:
38,29,165454,1,4,1:3:0:0:
38,29,165539,2,0,B|59:32|83:46,1,46.7500014266968,8|8,0:2|0:0,0:0:0:0:
175,6,165707,1,10,0:2:0:0:
190,45,165791,1,10,0:2:0:0:
189,87,165876,1,10,0:2:0:0:
172,125,165960,1,10,0:2:0:0:
138,150,166044,5,8,0:2:0:0:
317,229,166213,6,0,B|380:211|455:199,1,140.25000428009,8|0,0:2|0:0,0:0:0:0:
453,199,166550,1,8,0:2:0:0:
368,83,166718,6,0,B|358:135,1,46.7500014266968,8|0,0:2|0:0,0:0:0:0:
277,330,166971,5,0,1:2:0:0:
277,330,167055,2,0,B|223:338|184:300|184:300|136:290|94:324,1,187.000005706787,6|6,1:2|1:2,0:2:0:0:
256,192,167477,12,0,170089,0:0:0:0:
372,132,175482,5,2,0:0:0:0:
372,132,175819,6,0,B|334:127|297:112,1,76.4999976654053,2|0,0:0|0:0,0:0:0:0:
222,73,176157,2,0,B|219:34|206:-2,2,76.4999976654053,2|2|0,0:0|0:0|0:0,0:0:0:0:
161,131,176662,6,0,B|121:136|81:148,1,76.4999976654053,2|0,0:0|1:2,0:0:0:0:
308,34,176999,1,8,0:0:0:0:
264,206,177168,2,0,B|224:211|184:223,1,76.4999976654053,0|4,1:2|1:2,0:0:0:0:
112,313,177505,5,10,0:2:0:0:
112,313,177589,1,8,0:0:0:0:
112,313,177673,1,10,0:0:0:0:
112,313,177758,1,8,0:0:0:0:
112,313,177842,2,0,B|123:264,1,38.2499988327027,4|4,1:3|1:3,0:0:0:0:
82,168,178010,2,0,B|73:205,1,38.2499988327027,4|4,1:3|1:3,0:0:0:0:
27,374,178179,6,0,B|115:354|224:342,1,195.500003728867,6|8,1:2|0:2,0:2:0:0:
355,291,178685,1,2,0:2:0:0:
355,291,178769,1,0,0:0:0:0:
355,291,178853,1,0,1:2:0:0:
435,330,179022,2,0,B|452:284|460:236,1,97.7500018644333,2|8,1:2|0:2,0:0:0:0:
336,53,179359,1,2,0:2:0:0:
294,132,179527,6,0,B|349:145|389:163,1,97.7500018644333,2|0,1:2|1:2,0:2:0:0:
386,162,179780,1,0,0:0:0:0:
386,162,179864,1,10,0:2:0:0:
225,36,180033,2,0,B|162:60|77:70,1,146.62500279665,2|0,1:2|0:0,0:2:0:0:
75,60,180370,2,0,B|56:105|46:156,1,97.7500018644333,2|8,1:2|0:2,0:2:0:0:
169,296,180707,1,2,0:2:0:0:
8,262,180876,6,0,B|43:252|107:240,1,97.7500018644333,2|0,1:2|1:0,0:2:0:0:
180,181,181213,1,10,0:2:0:0:
275,352,181381,5,2,0:2:0:0:
275,352,181466,1,0,0:0:0:0:
275,352,181550,2,0,B|324:370|379:376,1,97.7500018644333,0|0,1:0|1:2,0:0:0:0:
486,257,181887,2,0,B|416:264|325:284,1,146.62500279665,10|0,0:2|0:0,0:2:0:0:
341,280,182224,5,2,1:2:0:0:
274,220,182393,2,0,B|264:172|268:122,1,97.7500018644333,0|10,1:2|0:2,0:0:0:0:
408,13,182730,2,0,B|372:160,1,146.62500279665,2|0,1:2|0:0,0:2:0:0:
378,163,183067,2,0,B|428:150|475:143,1,97.7500018644333,2|8,1:2|0:2,0:0:0:0:
289,6,183404,1,2,0:2:0:0:
208,55,183572,6,0,B|127:117|18:86,2,195.500003728867,6|10|2,1:2|0:2|1:2,0:2:0:0:
301,206,184415,2,0,B|255:193|201:176,1,97.7500018644333,0|10,1:2|0:2,0:0:0:0:
282,108,184752,1,2,1:2:0:0:
144,282,184921,6,0,B|93:291|42:305,1,97.7500018644333,2|0,0:2|0:0,0:2:0:0:
253,260,185258,1,8,0:2:0:0:
321,349,185426,2,0,B|419:355|514:385,1,195.500003728867,0|0,1:2|1:2,0:2:0:0:
368,269,185932,1,10,0:2:0:0:
474,190,186100,5,2,0:2:0:0:
474,190,186185,1,0,0:0:0:0:
474,190,186269,2,0,B|457:248|451:293,1,97.7500018644333,6|0,1:2|0:0,0:2:0:0:
225,371,186606,2,0,B|242:313|248:268,1,97.7500018644333,10|0,0:2|0:2,0:2:0:0:
154,48,186943,5,2,1:2:0:0:
249,151,187112,1,2,1:2:0:0:
293,14,187280,1,8,0:2:0:0:
136,161,187449,5,6,1:2:0:0:
136,161,187533,1,0,1:0:0:0:
136,161,187617,1,0,1:0:0:0:
327,224,187786,1,2,1:2:0:0:
287,25,187954,1,2,1:2:0:0:
208,286,188123,1,10,0:2:0:0:
208,300,188207,1,10,0:2:0:0:
214,314,188291,5,10,0:2:0:0:
254,307,188376,1,10,0:2:0:0:
301,315,188460,1,10,0:2:0:0:
328,339,188544,1,10,0:2:0:0:
347,373,188629,5,10,0:2:0:0:
410,374,188713,1,10,0:2:0:0:
462,338,188797,1,10,0:2:0:0:
474,277,188881,1,10,0:2:0:0:
447,221,188966,6,0,B|457:176|479:125,1,97.7500018644333,6|0,1:2|0:0,0:2:0:0:
320,17,189303,1,10,0:2:0:0:
252,123,189471,6,0,B|324:93|399:105,1,146.62500279665,2|0,0:2|0:0,0:2:0:0:
395,104,189808,1,2,1:2:0:0:
271,213,189977,2,0,B|223:213|177:185,1,97.7500018644333,10|2,0:2|0:2,0:0:0:0:
97,31,190314,6,0,B|91:80|75:130,1,97.7500018644333,2|0,1:2|1:2,0:0:0:0:
76,126,190567,1,0,0:0:0:0:
76,126,190651,1,10,0:2:0:0:
39,384,190819,6,0,B|8:317|32:238,1,146.62500279665,2|0,1:2|0:0,0:2:0:0:
23,234,191157,2,0,B|75:225|121:213,1,97.7500018644333,2|8,1:2|0:2,0:0:0:0:
275,64,191494,1,2,0:2:0:0:
191,22,191662,6,0,B|193:73|207:128,1,97.7500018644333,2|0,1:2|1:2,0:0:0:0:
337,3,191999,1,10,0:0:0:0:
434,74,192168,1,2,0:2:0:0:
434,74,192252,1,0,0:0:0:0:
434,74,192336,2,0,B|420:119|409:170,1,97.7500018644333,0|2,1:0|1:2,0:0:0:0:
331,223,192673,1,10,0:2:0:0:
467,301,192842,1,2,1:2:0:0:
280,338,193010,6,0,B|322:316|376:310,1,97.7500018644333,2|0,1:2|1:2,0:0:0:0:
373,310,193263,1,0,0:0:0:0:
373,310,193348,1,10,0:2:0:0:
165,277,193516,2,0,B|120:217|118:137,1,146.62500279665,2|0,1:2|0:0,0:2:0:0:
118,140,193853,1,2,1:2:0:0:
225,0,194022,2,0,B|217:48|202:96,1,97.7500018644333,8|2,0:2|0:2,0:2:0:0:
348,226,194359,6,0,B|402:211|457:203,1,97.7500018644333,6|0,1:2|0:0,0:2:0:0:
293,112,194696,1,10,0:2:0:0:
399,29,194864,2,0,B|393:85|378:131,1,97.7500018644333,2|0,0:2|1:2,0:0:0:0:
236,298,195201,2,0,B|242:242|257:196,1,97.7500018644333,0|8,1:2|0:2,0:0:0:0:
229,26,195539,6,0,B|142:68|37:49,1,195.500003728867,0|0,1:2|1:2,0:2:0:0:
154,147,196044,1,10,0:2:0:0:
83,244,196213,1,2,1:2:0:0:
83,244,196297,1,0,0:0:0:0:
83,244,196381,2,0,B|63:187|62:139,1,97.7500018644333,2|0,0:2|1:2,0:0:0:0:
229,25,196718,2,0,B|249:82|250:130,1,97.7500018644333,10|0,0:2|0:0,0:2:0:0:
413,252,197055,6,0,B|459:276|510:282,1,97.7500018644333,6|0,1:2|0:0,0:2:0:0:
414,145,197393,1,8,0:2:0:0:
320,243,197561,1,2,0:2:0:0:
201,198,197730,1,2,1:2:0:0:
414,251,197898,5,2,1:2:0:0:
289,125,198067,1,8,0:2:0:0:
221,305,198235,1,6,0:2:0:0:
26,138,198404,5,0,1:2:0:0:
130,376,198572,1,8,0:2:0:0:
0,284,198741,5,2,1:2:0:0:
148,94,198909,1,6,1:2:0:0:
320,243,199078,5,2,1:2:0:0:
355,259,199162,1,0,1:0:0:0:
393,260,199246,1,10,1:3:0:0:
430,247,199331,1,4,1:3:0:0:
456,218,199415,1,10,1:3:0:0:
400,81,199584,5,6,1:3:0:0:
400,81,199668,1,4,1:3:0:0:
400,81,199752,2,0,B|382:133|379:184,1,97.7500018644333,6|0,1:2|0:0,0:2:0:0:
238,288,200089,1,10,0:2:0:0:
441,384,200258,6,0,B|384:341|295:354,1,146.62500279665,2|0,0:2|0:0,0:2:0:0:
301,353,200595,1,2,1:2:0:0:
143,253,200763,2,0,B|155:300|158:351,1,97.7500018644333,10|2,0:2|0:2,0:0:0:0:
326,269,201100,2,0,B|314:222|311:171,1,97.7500018644333,2|0,1:2|1:2,0:0:0:0:
311,172,201353,1,0,0:0:0:0:
311,172,201437,1,10,0:2:0:0:
434,10,201606,6,0,B|445:84|400:155,1,146.62500279665,2|0,1:2|0:0,0:2:0:0:
394,154,201943,2,0,B|453:166|491:181,1,97.7500018644333,2|8,1:2|0:2,0:0:0:0:
264,66,202280,1,0,0:0:0:0:
159,113,202449,6,0,B|110:129|39:139,1,97.7500018644333,2|0,1:2|1:2,0:0:0:0:
214,207,202786,1,10,0:2:0:0:
108,304,202954,2,0,B|116:245|131:201,1,97.7500018644333,2|0,0:0|1:0,0:0:0:0:
291,151,203291,5,2,1:2:0:0:
408,204,203460,1,10,0:2:0:0:
497,115,203628,1,2,0:2:0:0:
396,8,203797,6,0,B|381:56|387:104,1,97.7500018644333,2|0,1:2|1:2,0:0:0:0:
387,104,204050,1,0,0:0:0:0:
387,104,204134,1,10,0:2:0:0:
454,308,204303,2,0,B|383:299|314:338,1,146.62500279665,2|0,1:2|0:2,0:2:0:0:
313,338,204640,1,2,1:2:0:0:
188,219,204808,1,8,0:2:0:0:
109,283,204977,5,2,0:2:0:0:
109,283,205061,1,0,0:0:0:0:
109,283,205145,2,0,B|88:324|77:377,1,97.7500018644333,6|0,1:2|0:0,0:2:0:0:
278,229,205482,2,0,B|356:217|425:187,1,146.62500279665,10|0,0:2|0:0,0:0:0:0:
418,189,205819,5,2,1:2:0:0:
282,318,205988,1,0,1:2:0:0:
252,134,206157,1,10,0:2:0:0:
85,197,206325,6,0,B|8:119|51:17,1,195.500003728867,2|0,1:2|1:0,0:0:0:0:
147,112,206831,1,8,0:2:0:0:
29,267,206999,6,0,B|102:246|181:234,1,146.62500279665,0|0,1:2|0:0,0:2:0:0:
172,235,207336,1,0,1:2:0:0:
330,157,207505,1,10,0:2:0:0:
253,28,207673,5,2,0:0:0:0:
253,28,207758,1,0,0:2:0:0:
253,28,207842,2,0,B|241:76|247:125,1,97.7500018644333,2|0,1:2|0:2,0:2:0:0:
391,380,208179,2,0,B|415:315|405:233,1,146.62500279665,10|0,0:2|0:0,0:2:0:0:
405,235,208516,1,2,1:2:0:0:
495,76,208685,2,0,B|502:126|479:170,1,97.7500018644333,2|8,1:2|0:2,0:2:0:0:
309,302,209022,5,2,0:2:0:0:
309,302,209106,1,0,0:0:0:0:
309,302,209190,2,0,B|262:293|210:304,1,97.7500018644333,0|0,1:2|1:2,0:0:0:0:
23,93,209527,2,0,B|100:102|168:77,1,146.62500279665,10|0,0:2|1:2,0:2:0:0:
238,45,209864,5,2,1:2:0:0:
281,27,209949,1,2,1:2:0:0:
327,40,210033,1,2,1:2:0:0:
338,89,210117,1,2,1:2:0:0:
308,132,210201,1,10,0:2:0:0:
323,186,210286,1,10,0:2:0:0:
376,206,210370,1,10,0:2:0:0:
421,195,210454,1,10,0:2:0:0:
469,218,210539,6,0,B|485:264|478:312,1,85,6|0,1:2|0:0,0:2:0:0:
327,384,210876,2,0,B|279:345|196:359,1,127.5,8|0,0:2|0:0,0:0:0:0:
206,357,211213,1,0,1:2:0:0:
33,309,211381,2,0,B|77:305|116:292,1,85,0|8,1:2|0:2,0:2:0:0:
246,90,211718,6,0,B|219:166|207:260,1,170,2|0,1:2|1:2,0:2:0:0:
424,384,212224,2,0,B|437:346|443:301,1,85,8|0,0:2|0:2,0:2:0:0:
430,133,212561,5,2,1:2:0:0:
332,234,212730,1,0,1:2:0:0:
192,173,212898,1,8,0:2:0:0:
124,239,213067,5,2,0:2:0:0:
124,239,213151,1,0,0:0:0:0:
124,239,213235,2,0,B|86:253|41:251,1,85,6|0,1:2|0:0,0:2:0:0:
197,343,213572,2,0,B|291:322|358:388,1,170,8|0,0:2|1:2,0:0:0:0:
455,306,214078,1,0,1:0:0:0:
332,234,214246,1,10,0:0:0:0:
423,131,214415,6,0,B|434:175|424:222,1,85,2|0,1:2|0:0,0:0:0:0:
282,324,214752,1,0,1:2:0:0:
243,250,214921,1,8,0:2:0:0:
240,169,215089,1,6,1:2:0:0:
201,19,215258,5,0,0:0:0:0:
334,137,215426,1,0,1:0:0:0:
162,213,215595,2,0,B|98:184|31:198,1,127.5,10|0,0:0|0:0,0:0:0:0:
23,202,215932,6,0,B|-5:126|23:23,1,170,6|8,1:2|0:0,0:0:0:0:
201,118,216437,2,0,B|213:81|217:34,1,85,2|0,0:0|1:2,0:0:0:0:
116,71,216775,5,0,1:0:0:0:
298,101,216943,1,8,0:0:0:0:
445,20,217112,2,0,B|502:93|474:186,1,170,2|0,1:2|1:0,0:0:0:0:
336,225,217617,1,8,0:0:0:0:
431,335,217786,5,0,1:2:0:0:
431,335,217870,1,0,0:0:0:0:
431,335,217954,2,0,B|439:289|428:248,1,85,2|0,1:2|1:0,0:0:0:0:
298,101,218291,2,0,B|290:147|301:188,1,85,8|0,0:0|0:0,0:0:0:0:
222,371,218628,1,6,1:2:0:0:
222,371,218966,5,8,0:0:0:0:
272,287,219134,1,0,0:0:0:0:
223,201,219303,1,0,1:0:0:0:
176,287,219471,1,0,1:0:0:0:
333,180,219640,1,10,0:0:0:0:
187,25,219808,6,0,B|119:81|18:62,1,170,2|0,1:2|1:0,0:0:0:0:
142,148,220314,1,10,0:0:0:0:
311,85,220482,2,0,B|356:75|415:72,1,85,4|2,1:2|0:0,0:0:0:0:
454,269,220819,1,2,1:2:0:0:
356,374,220988,2,0,B|346:333|361:278,1,85,10|2,0:0|0:0,0:0:0:0:
358,289,221241,1,0,1:0:0:0:
358,289,221325,2,0,B|318:302|267:312,1,85,6|2,1:2|0:0,0:0:0:0:
396,192,221662,6,0,B|418:104|424:8,1,170,10|0,0:0|1:2,0:0:0:0:
282,53,222168,2,0,B|288:96|293:142,1,85,0|8,1:2|0:0,0:0:0:0:
169,0,222505,6,0,B|147:88|141:184,1,170,2|0,1:2|1:2,0:0:0:0:
228,107,223010,1,8,0:0:0:0:
57,149,223179,1,0,0:0:0:0:
113,263,223348,6,0,B|162:252|206:248,1,85,2|0,1:2|1:2,0:0:0:0:
369,123,223685,1,8,0:0:0:0:
448,221,223853,5,2,0:0:0:0:
448,221,223937,1,0,0:0:0:0:
448,221,224022,2,0,B|362:225|283:183,1,170,6|8,1:2|0:0,0:0:0:0:
238,302,224527,2,0,B|223:349|216:390,1,85,0|0,0:0|1:2,0:0:0:0:
321,283,224864,1,0,1:2:0:0:
208,219,225033,1,8,0:0:0:0:
265,100,225201,6,0,B|281:56|286:-19,1,85,2|0,1:2|0:0,0:0:0:0:
351,105,225539,1,0,1:2:0:0:
189,42,225707,6,0,B|143:55|92:65,1,85,8|4,0:0|1:2,0:0:0:0:
208,219,226044,2,0,B|160:206|114:202,1,85,2|0,0:0|1:2,0:0:0:0:
179,132,226381,1,8,0:0:0:0:
342,248,226550,5,2,0:0:0:0:
342,248,226634,1,0,0:0:0:0:
342,248,226718,2,0,B|426:220|511:219,2,170,6|8|0,1:2|0:0|1:0,0:0:0:0:
208,218,227561,1,0,1:0:0:0:
245,342,227730,1,8,0:0:0:0:
290,172,227898,6,0,B|300:127|303:88,1,85,0|0,1:2|0:0,0:0:0:0:
164,297,228235,1,0,1:2:0:0:
13,179,228404,2,0,B|72:159|137:152,1,127.5,8|0,0:0|0:0,0:0:0:0:
137,152,228741,1,0,1:0:0:0:
265,58,228909,1,0,1:0:0:0:
176,1,229078,2,0,B|178:46|190:97,1,85,8|0,0:0|0:0,0:0:0:0:
292,259,229415,6,0,B|384:232|485:299,2,170,6|10|0,1:2|0:0|1:2,0:0:0:0:
220,196,230258,1,0,1:2:0:0:
191,366,230426,2,0,B|200:321|200:274,1,85,8|0,0:0|1:2,0:0:0:0:
142,19,230763,5,8,0:0:0:0:
86,233,230932,1,8,0:0:0:0:
370,19,231269,5,8,0:0:0:0:
426,233,231438,1,8,0:0:0:0:
426,233,231522,1,0,0:0:0:0:
490,116,231690,5,0,1:0:0:0:
490,116,231775,2,0,B|422:95|377:152|377:152|294:137|289:61,1,255.000009727478,8|6,0:2|1:2,0:0:0:0:
256,192,232196,12,0,234808,0:0:0:0:
