osu file format v14

[General]
AudioFilename: OP__KOTOKO_Light_my_fire_full.mp3
AudioLeadIn: 1000
PreviewTime: 112570
Countdown: 0
SampleSet: Normal
StackLeniency: 0.7
Mode: 0
LetterboxInBreaks: 1
WidescreenStoryboard: 0

[Editor]
Bookmarks: 15626,25949,51755,88376,113691,130056,159157,187720,189007,191110,212231
DistanceSpacing: 1.1
BeatDivisor: 4
GridSize: 8
TimelineZoom: 1

[Metadata]
Title:Light My Fire
TitleUnicode:Light My Fire
Artist:KOTOKO
ArtistUnicode:KOTOKO
Creator:marshallracer
Version:MPX's Hard
Source:Shakugan no Shana III (Final)
Tags:Kurohana MPX Magicphoenix Jenny CXu Phynta ryo supercell
BeatmapID:130814
BeatmapSetID:38997

[Difficulty]
HPDrainRate:8
CircleSize:4
OverallDifficulty:7
ApproachRate:8
SliderMultiplier:1.4
SliderTickRate:1

[Events]
//Background and Video events
0,0,"bgm.jpg",0,0
//Break Periods
2,7476,10219
2,12453,16641
2,76964,78594
2,110512,111981
2,141475,148265
2,157276,158261
2,159533,160841
2,162113,163421
2,164693,166323
2,167273,176644
//Storyboard Layer 0 (Background)
//Storyboard Layer 1 (Fail)
//Storyboard Layer 2 (Pass)
//Storyboard Layer 3 (Foreground)
//Storyboard Layer 4 (Overlay)
//Storyboard Sound Samples

[TimingPoints]
1183,555.555555555556,4,1,0,100,1,0
1738,495.867768595041,4,1,0,100,1,0
2233,458.015267175573,4,1,0,100,1,0
2691,413.793103448276,4,1,0,100,1,0
3104,397.350993377483,4,1,0,100,1,0
3501,315.789473684211,4,1,0,80,1,0
3658,260.869565217391,4,1,0,80,1,0
4178,250,4,1,0,80,1,0
4428,240,4,1,0,80,1,0
4668,222.222222222222,4,1,0,80,1,0
4890,218.181818181818,4,1,0,80,1,0
5435,226.415094339623,4,1,0,80,1,0
6114,501.25313283208,4,2,0,80,1,0
7116,321.113192400321,4,2,1,80,1,0
10969,-100,4,1,1,80,0,0
17391,322.754804845222,4,2,1,80,1,0
17713,-100,4,1,1,80,0,0
27718,322.667383705297,4,1,1,80,1,0
27818,-100,4,1,1,80,0,0
38043,-133.333333333333,4,2,1,80,0,0
48368,-100,4,1,1,80,0,0
53520,322.841000807102,4,1,1,80,1,1
53520,-100,4,1,1,80,0,1
76764,322.58064516129,4,1,1,80,1,0
99989,-133.333333333333,4,2,1,80,0,0
110312,-100,4,1,1,80,0,0
115440,323.014804845222,4,1,1,80,1,1
138697,322.459289514699,4,1,1,80,1,1
151272,-100,4,2,1,80,0,0
151353,-100,4,1,1,80,0,0
157077,-133.333333333333,4,2,1,80,0,0
175966,317.460317460317,4,2,1,80,1,0
175966,-133.333333333333,4,2,1,80,0,0
177394,645.404184370462,4,2,1,80,1,0
187720,321.888412017167,4,1,1,80,1,0
192870,322.754168908015,4,1,1,80,1,1
213042,-100,4,2,1,80,0,1
213122,-100,4,1,1,80,0,1
223854,-100,4,1,1,80,0,0

[Colours]
Combo1 : 0,255,0
Combo2 : 128,255,255
Combo3 : 255,91,13
Combo4 : 0,0,221

[HitObjects]
256,192,1183,12,4,6114,0:0:0:0:
256,64,6615,5,2,0:0:0:0:
256,313,7116,1,2,0:0:0:0:
256,313,7276,1,0,0:0:0:0:
380,273,10969,5,4,0:0:0:0:
380,273,11129,1,0,0:0:0:0:
132,273,11611,1,4,0:0:0:0:
132,273,11772,1,0,0:0:0:0:
256,32,12253,5,4,0:0:0:0:
256,192,17391,5,4,0:0:0:0:
432,64,18036,2,0,B|448:160,1,70
388,187,18359,2,0,B|377:273,1,70
304,277,18682,2,0,B|264:349,2,70
269,207,19166,2,0,B|233:165|177:157|129:213,2,140
300,277,19973,5,0,0:0:0:0:
235,319,20134,2,0,B|104:256,1,140
79,186,20618,1,0,0:0:0:0:
122,122,20779,2,0,B|152:88|200:88|240:128|232:168,1,140
267,218,21264,1,0,0:0:0:0:
301,286,21425,2,0,B|331:320|379:320|419:280|411:240,1,140
430,184,21909,6,0,B|422:104,1,70
368,59,22232,1,0,0:0:0:0:
256,192,22393,12,0,24168,0:0:0:0:
232,128,24330,6,0,B|264:200,1,70
298,258,24652,1,0,0:0:0:0:
374,272,24814,1,0,0:0:0:0:
256,192,24975,12,0,26750,0:0:0:0:
256,280,26912,6,0,B|256:336,2,35
256,202,27235,1,0,0:0:0:0:
256,48,27557,2,0,B|256:139,1,70,0|4,0:0|0:0,0:0:0:0:
64,120,28363,6,0,B|72:168|96:192,1,70
55,254,28686,2,0,B|96:264|136:248,1,70,8|0,0:0|0:0,0:0:0:0:
165,317,29008,2,0,B|192:296|200:256,2,70,0|0|8,0:0|0:0|0:0,0:0:0:0:
125,250,29492,2,0,B|66:198|114:115,2,140
163,316,30299,5,0,0:0:0:0:
235,341,30460,2,0,B|296:208,1,140
363,182,30944,1,0,0:0:0:0:
348,257,31106,2,0,B|272:272|225:190,1,140
156,221,31590,1,0,0:0:0:0:
135,147,31751,2,0,B|200:120|192:16,1,140
267,50,32235,6,0,B|336:80,2,70,0|0|8,0:0|0:0|0:0,0:0:0:0:
267,127,32719,2,0,B|304:200,1,70
221,189,33042,2,0,B|208:272,1,70,0|8,0:0|0:0,0:0:0:0:
146,215,33364,2,0,B|96:264,1,70
74,189,33687,2,0,B|0:200,2,70,0|8|0,0:0|0:0|0:0,0:0:0:0:
128,128,34171,2,0,B|152:104|200:98,1,70
245,154,34494,2,0,B|221:178|173:184,1,70,8|0,0:0|0:0,0:0:0:0:
148,251,34816,6,0,B|200:320,2,70,0|0|8,0:0|0:0|0:0,0:0:0:0:
93,305,35300,2,0,B|189:385|397:321|349:48|261:25,1,490
219,85,36591,1,0,0:0:0:0:
251,154,36752,2,0,B|256:184|248:200,3,35,8|0|0|0,0:0|0:0|0:0|0:0,0:0:0:0:
214,178,37075,2,0,B|208:207|195:220,3,35,8|0|0|0,0:0|0:0|0:0|0:0,0:0:0:0:
168,193,37398,2,0,B|152:219|136:226,3,35,8|0|0|0,0:0|0:0|0:0|0:0,0:0:0:0:
119,193,37720,2,0,B|95:212|77:213,3,35,8|0|0|0,0:0|0:0|0:0|0:0,0:0:0:0:
88,181,38043,6,0,B|52:154|49:107|80:72,1,104.999996870756,0|8,0:0|0:0,0:0:0:0:
224,272,38688,2,0,B|177:238|121:278,1,104.999996870756,0|8,0:0|0:0,0:0:0:0:
272,330,39172,2,0,B|308:303|311:256|280:221,1,104.999996870756,0|0,0:0|0:0,0:0:0:0:
235,180,39656,2,0,B|224:152|232:128,1,52.4999984353781,8|0,0:0|0:0,0:0:0:0:
302,92,39979,2,0,B|313:120|305:144,1,52.4999984353781,0|0,0:0|0:0,0:0:0:0:
80,192,40624,5,2,0:0:0:0:
100,268,40786,2,0,B|112:304|104:336,1,52.4999984353781,0|8,0:0|0:0,0:0:0:0:
174,359,41108,1,2,0:0:0:0:
250,339,41270,2,0,B|272:304|328:304|352:336,1,104.999996870756,0|8,0:0|0:0,0:0:0:0:
382,258,41754,2,0,B|436:243|443:158,1,104.999996870756
374,134,42238,2,0,B|265:102,2,104.999996870756,8|0|8,0:0|0:0|0:0,0:0:0:0:
192,64,43206,5,2,0:0:0:0:
136,119,43367,2,0,B|104:176,1,52.4999984353781,0|8,0:0|0:0,0:0:0:0:
146,235,43690,1,2,0:0:0:0:
110,305,43851,2,0,B|144:361|220:351,1,104.999996870756,0|8,0:0|0:0,0:0:0:0:
270,320,44335,2,0,B|304:264|380:274,1,104.999996870756,0|0,0:0|0:0,0:0:0:0:
425,314,44819,1,8,0:0:0:0:
425,235,44980,1,0,0:0:0:0:
356,195,45142,6,0,B|344:144|368:88,2,104.999996870756,0|8|2,0:0|0:0|0:0,0:0:0:0:
356,273,45948,1,0,0:0:0:0:
287,313,46110,1,8,0:0:0:0:
211,289,46271,1,2,0:0:0:0:
191,212,46432,2,0,B|168:152|104:168,1,104.999996870756,0|8,0:0|0:0,0:0:0:0:
32,192,46916,2,0,B|7:78,1,104.999996870756
256,192,47400,12,0,48288,0:0:0:0:
256,192,48368,12,0,50627,0:0:0:0:
304,144,50788,6,0,B|352:104,2,35,0|8|0,0:0|0:0|0:0,0:0:0:0:
208,240,51111,1,8,0:0:0:0:
157,94,51434,5,8,0:0:0:0:
157,94,51595,1,8,0:0:0:0:
87,127,51756,6,0,B|47:215,1,70,0|8,0:0|0:0,0:0:0:0:
112,245,52079,2,0,B|140:181,2,70,0|8|0,0:0|0:0|0:0,0:0:0:0:
145,314,52563,5,8,0:0:0:0:
215,343,52724,1,0,0:0:0:0:
290,327,52886,2,0,B|336:304|360:272,1,70,8|0,0:0|0:0,0:0:0:0:
463,93,53520,6,0,B|442:35|376:24|344:72,1,140,4|8,0:0|0:0,0:0:0:0:
232,136,54004,2,0,B|264:160|304:136,1,70
269,67,54327,2,0,B|237:43|197:67,1,70,0|8,0:0|0:0,0:0:0:0:
160,127,54649,2,0,B|136:192|48:200,1,140
66,275,55134,5,8,0:0:0:0:
28,341,55295,1,0,0:0:0:0:
102,363,55457,2,0,B|144:352|184:368,1,70
237,324,55779,2,0,B|264:304|272:264,1,70,8|0,0:0|0:0,0:0:0:0:
217,210,56102,6,0,B|264:144|352:176,1,140,0|8,0:0|0:0,0:0:0:0:
374,242,56586,2,0,B|398:174|384:88,1,140
331,48,57071,1,8,0:0:0:0:
256,29,57232,2,0,B|144:16|64:64|64:224|136:272,1,350,4|0,0:0|0:0,0:0:0:0:
192,285,58201,1,0,0:0:0:0:
178,209,58362,2,0,B|160:168|176:128,1,70,8|0,0:0|0:0,0:0:0:0:
247,156,58685,6,0,B|324:138,2,70,0|0|8,0:0|0:0|0:0,0:0:0:0:
209,223,59169,1,0,0:0:0:0:
236,295,59331,1,0,0:0:0:0:
306,324,59492,2,0,B|348:324|372:284,1,70,0|8,0:0|0:0,0:0:0:0:
420,238,59815,2,0,B|408:152|512:136,1,140,4|0,0:0|0:0,0:0:0:0:
464,68,60299,2,0,B|424:0,1,70,8|0,0:0|0:0,0:0:0:0:
373,62,60622,2,0,B|304:24,1,70
282,99,60945,2,0,B|211:122,1,70,8|0,0:0|0:0,0:0:0:0:
150,78,61268,6,0,B|87:129|143:153|63:209,1,140,4|0,0:0|0:0,0:0:0:0:
135,250,61752,2,0,B|197:292|141:316|204:367,1,140,4|0,0:0|0:0,0:0:0:0:
256,304,62236,1,8,0:0:0:0:
256,304,62398,1,0,0:0:0:0:
309,366,62559,2,0,B|370:316|314:292|377:250,1,140,4|0,0:0|0:0,0:0:0:0:
431,195,63043,2,0,B|368:152|424:128|361:77,1,140,4|8,0:0|0:0,0:0:0:0:
286,62,63528,6,8,B|286:150,1,70
213,156,63850,2,0,B|137:141|96:216,2,140,4|8|0,0:0|0:0|0:0,0:0:0:0:
247,225,64658,1,0,0:0:0:0:
192,279,64819,1,8,0:0:0:0:
192,279,64980,2,0,B|268:264|309:339,1,140
383,354,65465,2,0,B|424:352|448:312,1,70,8|0,0:0|0:0,0:0:0:0:
398,257,65787,2,0,B|368:216|376:176,1,70
451,192,66110,2,0,B|440:136|416:120,1,70,8|0,0:0|0:0,0:0:0:0:
370,73,66433,6,0,B|304:16|240:72,1,140,0|8,0:0|0:0,0:0:0:0:
189,123,66917,2,0,B|123:180|59:124,1,140
101,59,67402,1,8,0:0:0:0:
62,127,67563,2,0,B|0:272,1,140,4|0,0:0|0:0,0:0:0:0:
61,310,68047,2,0,B|81:348|128:344,1,70,8|4,0:0|0:0,0:0:0:0:
320,312,68532,2,0,B|300:350|253:346,1,70,0|8,0:0|0:0,0:0:0:0:
256,272,68854,1,0,0:0:0:0:
328,237,69016,6,0,B|416:240|432:144,1,140,0|8,0:0|0:0,0:0:0:0:
368,64,69500,2,0,B|280:61|264:157,1,140
212,196,69984,1,8,0:0:0:0:
180,266,70146,2,0,B|116:254|52:198,1,140,4|0,0:0|0:0,0:0:0:0:
43,126,70630,1,8,0:0:0:0:
97,71,70791,2,0,B|248:40,1,140
298,86,71276,1,8,0:0:0:0:
368,48,71437,2,0,B|443:87|424:168|384:184|320:216|320:312|432:344,1,350
431,262,72406,6,0,B|498:240,2,70,0|8|0,0:0|0:0|0:0,0:0:0:0:
359,291,72890,2,0,B|320:256|264:280|256:320|272:360,1,140,0|8,0:0|0:0,0:0:0:0:
193,314,73374,2,0,B|154:349|98:325|90:285|106:245,1,140
147,160,73858,1,8,0:0:0:0:
256,192,74020,1,4,0:0:0:0:
256,192,74181,12,0,76764,0:0:0:0:
416,184,79344,5,4,0:0:0:0:
431,259,79505,2,0,B|408:344,1,70,0|8,0:0|0:0,0:0:0:0:
343,291,79828,1,0,0:0:0:0:
305,223,79989,2,0,B|304:184|288:144,1,70
216,137,80312,1,8,0:0:0:0:
143,111,80473,2,0,B|133:159|157:183,1,70
222,211,80796,2,0,B|200:256|152:248,1,70,0|8,0:0|0:0,0:0:0:0:
96,224,81118,2,0,B|51:294|106:365,2,140
150,169,81925,6,0,B|172:134|145:98,1,70
256,40,82247,1,8,0:0:0:0:
256,40,82409,1,0,0:0:0:0:
363,103,82570,2,0,B|339:134|362:169,1,70
337,241,82893,2,0,B|416:292,1,70,8|0,0:0|0:0,0:0:0:0:
175,241,83215,2,0,B|96:292,1,70
51,236,83538,1,8,0:0:0:0:
51,312,83699,1,0,0:0:0:0:
114,354,83860,6,0,B|204:334,2,70,0|0|8,0:0|0:0|0:0,0:0:0:0:
51,312,84344,2,0,B|56:136|56:136|224:48,1,350
256,120,85312,1,0,0:0:0:0:
256,120,85473,1,8,0:0:0:0:
256,196,85634,2,0,B|256:288,1,70
278,339,85957,2,0,B|310:324|310:324|334:292,1,70,0|8,0:0|0:0,0:0:0:0:
373,231,86280,2,0,B|392:192|376:152,1,70
336,99,86602,2,0,B|319:65|319:65|279:41,1,70,0|8,0:0|0:0,0:0:0:0:
216,31,86925,6,0,B|248:95|340:319|84:351|-12:191|84:31|340:63|248:287|212:367,1,630
151,312,88538,6,0,B|111:312|80:271,1,70,0|4,0:0|0:0,0:0:0:0:
89,101,88860,2,0,B|111:72|151:72,1,70
204,126,89183,2,0,B|256:184,1,70,0|4,0:0|0:0,0:0:0:0:
326,191,89505,1,0,0:0:0:0:
366,257,89667,6,0,B|360:320|336:336,2,70,0|0|8,0:0|0:0|0:0,0:0:0:0:
403,189,90151,1,0,0:0:0:0:
403,189,90312,1,0,0:0:0:0:
365,122,90473,2,0,B|360:80|346:56,2,70,0|8|0,0:0|0:0|0:0,0:0:0:0:
326,191,90957,2,0,B|240:192,2,70,0|0|8,0:0|0:0|0:0,0:0:0:0:
403,191,91441,2,0,B|475:191,1,70
473,267,91763,2,0,B|392:264,1,70,0|8,0:0|0:0,0:0:0:0:
334,300,92086,6,0,B|256:328|184:288,1,140
143,240,92570,2,0,B|112:208|120:168,1,70,8|0,0:0|0:0,0:0:0:0:
173,122,92893,2,0,B|204:154|196:194,1,70
262,226,93215,2,0,B|296:240|336:232,1,70,8|0,0:0|0:0,0:0:0:0:
404,210,93538,2,0,B|438:196|478:204,1,70
494,276,93860,1,8,0:0:0:0:
494,276,94022,1,0,0:0:0:0:
417,276,94183,6,0,B|398:255|404:209,1,70
385,134,94505,1,8,0:0:0:0:
311,165,94667,2,0,B|279:197|231:229|183:197|190:165|145:176|145:176|108:192|121:277|121:277|183:357|263:357|322:293|322:293|383:310|419:274,1,630
362,220,96280,2,0,B|432:176,1,70,0|8,0:0|0:0,0:0:0:0:
421,105,96602,6,0,B|361:67,1,70
284,67,96925,1,0,0:0:0:0:
229,121,97086,1,8,0:0:0:0:
246,195,97247,2,0,B|262:243|242:287,1,70
230,121,97570,2,0,B|278:105|322:125,1,70,0|8,0:0|0:0,0:0:0:0:
156,133,97893,2,0,B|140:85|160:41,1,70
170,207,98215,2,0,B|122:223|78:203,1,70,0|8,0:0|0:0,0:0:0:0:
31,177,98538,6,0,B|-8:336,2,140
10,102,99344,2,0,B|-8:72|0:32,1,70,8|0,0:0|0:0,0:0:0:0:
75,49,99667,2,0,B|114:26,2,35
100,123,99989,6,0,B|132:179|204:163,1,104.999996870756,4|8,0:0|0:0,0:0:0:0:
35,203,100634,2,0,B|34:267|105:289,1,104.999996870756,0|8,0:0|0:0,0:0:0:0:
155,328,101118,2,0,B|208:360,2,52.4999984353781
155,248,101602,2,0,B|208:216,3,52.4999984353781,8|0|0|0,0:0|0:0|0:0|0:0,0:0:0:0:
432,192,102570,5,2,0:0:0:0:
376,247,102731,2,0,B|350:256|320:255,1,52.4999984353781,0|8,0:0|0:0,0:0:0:0:
251,223,103054,1,2,0:0:0:0:
289,154,103215,2,0,B|304:112|352:88|392:96,1,104.999996870756,0|8,0:0|0:0,0:0:0:0:
313,38,103699,2,0,B|192:8,1,104.999996870756
187,88,104183,2,0,B|176:120|152:144,1,52.4999984353781,8|0,0:0|0:0,0:0:0:0:
105,77,104505,2,0,B|79:99|46:107,3,52.4999984353781,0|0|8|0,0:0|0:0|0:0|0:0,0:0:0:0:
32,176,105151,6,0,B|15:239|72:280,1,104.999996870756,2|0,0:0|0:0,0:0:0:0:
129,308,105634,2,0,B|184:272|240:312,1,104.999996870756,2|0,0:0|0:0,0:0:0:0:
303,281,106118,1,8,0:0:0:0:
358,336,106280,2,0,B|424:320|432:256,1,104.999996870756
401,194,106763,2,0,B|368:128,1,52.4999984353781,8|0,0:0|0:0,0:0:0:0:
307,110,107086,1,8,0:0:0:0:
251,165,107247,1,4,0:0:0:0:
43,64,107731,5,4,0:0:0:0:
68,138,107893,2,0,B|96:200,1,52.4999984353781,0|8,0:0|0:0,0:0:0:0:
59,258,108215,1,0,0:0:0:0:
93,328,108376,2,0,B|128:376|200:344,1,104.999996870756,0|8,0:0|0:0,0:0:0:0:
256,312,108860,2,0,B|256:208,1,104.999996870756
324,349,109344,2,0,B|384:376|418:329,1,104.999996870756,8|0,0:0|0:0,0:0:0:0:
459,262,109828,1,0,0:0:0:0:
423,191,109989,1,8,0:0:0:0:
256,32,110312,5,0,0:0:0:0:
256,112,112731,6,0,B|256:56,2,35,0|0|4,0:0|0:0|0:0,0:0:0:0:
256,189,113054,1,0,0:0:0:0:
364,297,113376,1,4,0:0:0:0:
364,297,113538,1,0,0:0:0:0:
148,297,113860,1,4,0:0:0:0:
148,297,114022,1,0,0:0:0:0:
148,87,114344,1,4,0:0:0:0:
148,87,114505,1,0,0:0:0:0:
364,87,114828,1,4,0:0:0:0:
364,87,114989,1,0,0:0:0:0:
256,192,115440,6,0,B|297:263|392:216,1,140,4|8,0:0|0:0,0:0:0:0:
256,192,115924,2,0,B|215:121|120:168,1,140
79,216,116409,1,8,0:0:0:0:
155,218,116570,2,0,B|200:162|164:74,1,140
96,56,117055,2,0,B|24:16,1,70,8|0,0:0|0:0,0:0:0:0:
11,95,117378,2,0,B|72:128,1,70
140,165,117701,2,0,B|200:200,1,70,8|0,0:0|0:0,0:0:0:0:
256,264,118024,6,0,B|256:304,2,35
324,229,118347,1,8,0:0:0:0:
378,283,118508,2,0,B|408:320|424:352,1,70
400,208,118831,2,0,B|440:216|464:248,1,70,0|8,0:0|0:0,0:0:0:0:
384,136,119154,2,0,B|400:88|432:64|488:56,1,140,4|0,0:0|0:0,0:0:0:0:
464,147,119639,1,8,0:0:0:0:
464,147,119800,1,0,0:0:0:0:
320,248,120123,5,0,0:0:0:0:
245,268,120285,2,0,B|200:288,2,35,8|0|0,0:0|0:0|0:0,0:0:0:0:
265,193,120608,2,0,B|184:184|160:104,1,140,0|8,0:0|0:0,0:0:0:0:
185,37,121092,1,0,0:0:0:0:
256,65,121254,1,0,0:0:0:0:
327,38,121415,2,0,B|400:64,1,70,0|8,0:0|0:0,0:0:0:0:
463,30,121738,2,0,B|488:96|456:176,1,140,4|0,0:0|0:0,0:0:0:0:
395,210,122223,5,8,0:0:0:0:
432,277,122384,1,0,0:0:0:0:
312,360,122707,1,0,0:0:0:0:
275,293,122869,1,8,0:0:0:0:
243,222,123030,1,0,0:0:0:0:
188,167,123192,6,0,B|220:128|288:136|320:192,1,140,4|8,0:0|0:0,0:0:0:0:
364,231,123676,2,0,B|332:270|264:262|232:206,1,140,0|0,0:0|0:0,0:0:0:0:
187,166,124161,1,8,0:0:0:0:
255,130,124322,1,0,0:0:0:0:
282,61,124484,2,0,B|314:22|382:30|414:86,1,140,4|8,0:0|0:0,0:0:0:0:
362,231,124968,2,0,B|330:270|262:262|230:206,1,140,0|0,0:0|0:0,0:0:0:0:
187,166,125453,2,0,B|152:128,2,35,8|0|0,0:0|0:0|0:0,0:0:0:0:
187,243,125776,5,4,0:0:0:0:
122,284,125937,1,0,0:0:0:0:
56,242,126099,2,0,B|32:200|48:152,1,70,8|0,0:0|0:0,0:0:0:0:
122,283,126422,2,0,B|146:325|130:373,2,70,0|0|8,0:0|0:0|0:0,0:0:0:0:
55,243,126907,2,0,B|17:177|42:102,1,140
114,131,127391,2,0,B|200:160,1,70,8|0,0:0|0:0,0:0:0:0:
257,153,127714,2,0,B|336:128,1,70
400,131,128037,2,0,B|472:152,1,70,8|0,0:0|0:0,0:0:0:0:
498,221,128360,6,0,B|472:304|384:288,1,140,0|8,0:0|0:0,0:0:0:0:
337,234,128845,1,0,0:0:0:0:
264,210,129006,1,0,0:0:0:0:
198,251,129168,2,0,B|156:262|124:230,1,70,0|8,0:0|0:0,0:0:0:0:
178,177,129491,2,0,B|152:328,1,140,4|0,0:0|0:0,0:0:0:0:
80,293,129975,2,0,B|56:272|60:227,1,70,8|4,0:0|0:0,0:0:0:0:
160,113,130460,2,0,B|184:134|179:178,1,70,0|8,0:0|0:0,0:0:0:0:
154,250,130783,1,0,0:0:0:0:
171,324,130944,6,0,B|240:368|304:296,2,140,0|8|0,0:0|0:0|0:0,0:0:0:0:
154,250,131752,2,0,B|240:232,1,70,0|8,0:0|0:0,0:0:0:0:
239,160,132075,2,0,B|87:194,1,140,4|0,0:0|0:0,0:0:0:0:
33,157,132559,1,8,0:0:0:0:
33,234,132721,2,0,B|56:296|112:312|160:280,1,140
316,151,133367,2,0,B|293:89|237:73|189:105,1,140
238,165,133851,6,0,B|241:213|217:237,1,70,8|0,0:0|0:0,0:0:0:0:
320,152,134174,2,0,B|323:200|299:224,1,70
408,136,134497,2,0,B|411:184|387:208,1,70,8|0,0:0|0:0,0:0:0:0:
488,144,134820,2,0,B|520:80|488:16|472:8,1,140,0|8,0:0|0:0,0:0:0:0:
352,64,135305,2,0,B|320:128|352:192|368:200,1,140,0|4,0:0|0:0,0:0:0:0:
417,250,135789,1,0,0:0:0:0:
256,192,135951,12,8,138697,0:0:0:0:
256,136,138858,6,8,B|256:56,1,70
312,192,139180,2,8,B|392:192,1,70
200,192,139664,2,8,B|120:192,2,70
256,248,140148,2,8,B|256:328,2,70
256,171,140631,2,0,B|256:16,2,140,8|8|4,0:0|0:0|0:0,0:0:0:0:
296,104,149015,5,0,0:0:0:0:
280,179,149176,2,0,B|246:205|184:192,1,70,0|8,0:0|0:0,0:0:0:0:
120,296,149499,2,0,B|154:270|216:283,1,70
304,344,149821,2,0,B|270:370|208:357,1,70,0|8,0:0|0:0,0:0:0:0:
328,256,150144,2,0,B|362:230|424:243,1,70,4|0,0:0|0:0,0:0:0:0:
432,240,150386,6,0,B|448:208,4,35
421,202,150789,2,0,B|437:170,5,35
428,133,151272,2,0,B|393:62,1,70,4|0,0:0|0:0,0:0:0:0:
320,78,151595,6,0,B|269:129|189:89,1,140,4|8,0:0|0:0,0:0:0:0:
143,29,152079,1,0,0:0:0:0:
88,83,152240,2,0,B|62:152|110:152|78:240,1,140,0|8,0:0|0:0,0:0:0:0:
45,287,152723,2,0,B|114:313|114:265|202:297,1,140
236,345,153207,6,0,B|264:320|256:272,1,70,8|0,0:0|0:0,0:0:0:0:
320,136,153530,2,0,B|292:161|300:209,1,70
341,352,153852,2,0,B|369:327|361:279,1,70,8|0,0:0|0:0,0:0:0:0:
431,254,154175,2,0,B|472:224|528:248|528:288|528:336,2,140,4|8|0,0:0|0:0|0:0,0:0:0:0:
401,183,154981,1,0,0:0:0:0:
455,128,155142,1,8,0:0:0:0:
471,52,155303,6,0,B|440:16|368:16|336:56,1,140
274,81,155787,2,0,B|243:117|171:117|139:77,1,140,8|0,0:0|0:0,0:0:0:0:
103,148,156271,2,0,B|27:214,1,70,0|8,0:0|0:0,0:0:0:0:
74,267,156593,1,0,0:0:0:0:
140,308,156754,2,0,B|144:304|144:312|144:312|152:304|152:312|152:312|160:304|160:312|160:312|168:304|168:312|168:312|176:304|176:312|176:312|184:304|184:312|184:312|192:304|192:312|192:312|200:304|200:312|200:312|208:304|208:312|208:312|216:304|216:312|216:312|224:304|224:312|224:312|232:308,1,140
176,80,159011,6,4,B|176:184,1,104.999996870756
296,136,161591,6,4,B|296:248,1,104.999996870756
408,176,164171,6,4,B|408:288,1,104.999996870756
256,192,167073,5,4,0:0:0:0:
284,181,177394,6,0,B|299:218|299:266,2,70,2|0|0,0:0|0:0|0:0,0:0:0:0:
231,181,178200,2,0,B|216:216|224:224,1,35
221,267,178523,2,0,B|232:320|280:352|352:328|368:272,1,175
409,206,179652,6,0,B|416:160,1,35
395,122,179975,2,0,B|336:88|272:128,2,105,2|2|2,0:0|0:0|0:0,0:0:0:0:
395,262,181427,2,0,B|336:296|272:256,2,105,2|2|2,0:0|0:0|0:0,0:0:0:0:
377,212,182557,6,0,B|352:168|312:176|304:216|264:240|224:176|224:176,1,175,2|0,0:0|0:0,0:0:0:0:
225,73,183686,2,0,B|304:32|400:64,1,175
469,136,184816,6,0,B|491:172|467:212,2,70,0|4|0,0:0|0:0|0:0,0:0:0:0:
418,151,185622,2,0,B|348:191|272:168,1,140,2|0,0:0|0:0,0:0:0:0:
245,133,186429,6,0,B|184:80,1,70,2|0,0:0|0:0,0:0:0:0:
160,152,186913,2,0,B|221:205,1,70,2|0,0:0|0:0,0:0:0:0:
404,243,187720,6,0,B|436:243|436:243|468:211|468:179|452:155|404:147|404:147|436:83|372:115|372:115|372:51|372:-13|404:19|340:19|340:19|276:19|244:51|244:147|244:147,2,560
331,269,190456,2,0,B|270:300|190:268,2,140
256,192,191260,12,8,192387,0:0:0:0:
384,128,192870,6,0,B|288:104|232:168,1,140,4|8,0:0|0:0,0:0:0:0:
210,215,193354,1,0,0:0:0:0:
88,216,193515,1,0,0:0:0:0:
152,320,193676,2,0,B|248:344|304:280,1,140
354,263,194161,2,0,B|384:192|392:168,1,70
326,143,194483,2,0,B|296:214|288:238,1,70,8|0,0:0|0:0,0:0:0:0:
244,153,194806,2,0,B|274:82|282:58,1,70
195,68,195129,5,8,0:0:0:0:
164,138,195290,1,0,0:0:0:0:
164,138,195452,2,0,B|83:155|51:51,1,140
71,145,195936,2,0,B|88:226|-16:258,2,140,0|0|4,0:0|0:0|0:0,0:0:0:0:
105,214,196743,5,0,0:0:0:0:
171,252,196904,2,0,B|232:208,2,70,0|8|0,0:0|0:0|0:0,0:0:0:0:
215,315,197388,2,0,B|296:304,2,70,0|0|8,0:0|0:0|0:0,0:0:0:0:
139,324,197872,1,0,0:0:0:0:
84,378,198034,6,0,B|32:320|72:240,1,140,0|8,0:0|0:0,0:0:0:0:
108,181,198518,2,0,B|68:161|32:184,2,70
179,210,199002,1,8,0:0:0:0:
216,276,199163,2,0,B|288:248|288:304|376:264,1,140,4|0,0:0|0:0,0:0:0:0:
420,235,199647,1,8,0:0:0:0:
350,200,199809,2,0,B|272:176|256:96,1,140
202,47,200293,1,8,0:0:0:0:
178,120,200454,1,0,0:0:0:0:
103,139,200616,6,0,B|64:168|48:232|104:272,1,140,4|8,0:0|0:0,0:0:0:0:
131,326,201100,2,0,B|170:297|186:233|130:193,1,140
101,138,201584,1,8,0:0:0:0:
178,120,201745,1,0,0:0:0:0:
199,45,201907,2,0,B|271:59|295:137,1,140,4|8,0:0|0:0,0:0:0:0:
280,288,202391,2,0,B|208:274|184:196,1,140
178,120,202875,6,8,B|88:144,1,70,8|8,0:0|0:0,0:0:0:0:
76,207,203198,2,0,B|104:280|200:256,1,140,4|8,0:0|0:0,0:0:0:0:
246,203,203682,1,0,0:0:0:0:
248,320,203843,2,0,B|336:352,1,70
313,266,204166,1,8,0:0:0:0:
313,266,204327,2,0,B|352:208|336:128|280:104|232:104|192:120|160:160,2,280
239,290,205780,6,0,B|160:320,1,70
119,260,206102,1,8,0:0:0:0:
174,145,206264,1,0,0:0:0:0:
272,208,206425,2,0,B|337:183,2,70,0|0|8,0:0|0:0|0:0,0:0:0:0:
174,145,206909,2,0,B|320:88,1,140,4|0,0:0|0:0,0:0:0:0:
378,116,207393,2,0,B|392:152|432:152,1,70,8|4,0:0|0:0,0:0:0:0:
496,112,207716,2,0,B|482:76|442:76,1,70
464,224,208039,1,8,0:0:0:0:
464,224,208200,1,0,0:0:0:0:
498,293,208362,6,0,B|480:336|424:360|376:304,2,140,0|8|0,0:0|0:0|0:0,0:0:0:0:
464,224,209169,2,0,B|376:224,1,70,0|8,0:0|0:0,0:0:0:0:
496,152,209491,2,0,B|478:109|422:85|374:141,1,140,4|0,0:0|0:0,0:0:0:0:
326,187,209975,2,0,B|296:216|240:208,1,70,8|0,0:0|0:0,0:0:0:0:
187,188,210298,1,0,0:0:0:0:
132,133,210460,2,0,B|88:112|48:128,1,70,0|8,0:0|0:0,0:0:0:0:
19,186,210782,2,0,B|0:264|48:304|112:304|152:240,2,210,0|8|0,0:0|0:0|0:0,0:0:0:0:
19,108,211912,5,8,0:0:0:0:
104,40,212073,1,0,0:0:0:0:
128,152,212235,2,0,B|152:232|240:248,1,140,0|0,0:0|0:0,0:0:0:0:
328,168,212719,2,0,B|304:88|216:72,2,140,0|4|4,0:0|0:0|0:0,0:0:0:0:
328,245,213526,5,4,0:0:0:0:
328,245,213849,1,8,0:0:0:0:
328,245,214171,1,8,0:0:0:0:
303,318,214333,1,0,0:0:0:0:
232,345,214494,1,8,0:0:0:0:
232,345,214817,1,8,0:0:0:0:
232,345,214978,1,0,0:0:0:0:
160,316,215140,1,8,0:0:0:0:
140,241,215301,2,0,B|130:205,2,35,0|0|8,0:0|0:0|0:0,0:0:0:0:
160,316,215624,1,0,0:0:0:0:
232,345,215785,1,0,0:0:0:0:
232,268,215946,6,0,B|216:176,1,70,0|8,0:0|0:0,0:0:0:0:
236,123,216269,1,0,0:0:0:0:
308,95,216431,2,0,B|324:187,1,70,8|0,0:0|0:0,0:0:0:0:
304,240,216753,1,8,0:0:0:0:
342,306,216915,1,0,0:0:0:0:
412,273,217076,2,0,B|423:204,1,70,8|0,0:0|0:0,0:0:0:0:
500,204,217399,2,8,B|488:272,2,70,8|0|8,0:0|0:0|0:0,0:0:0:0:
469,133,217883,2,0,B|456:56,1,70,0|8,0:0|0:0,0:0:0:0:
392,136,218206,2,0,B|379:59,1,70,0|8,0:0|0:0,0:0:0:0:
316,144,218528,2,0,B|303:67,1,70,0|8,0:0|0:0,0:0:0:0:
256,192,218771,12,0,222079,0:0:0:0:
256,75,223208,5,8,0:0:0:0:
256,152,223370,1,8,0:0:0:0:
256,228,223531,1,8,0:0:0:0:
256,305,223693,1,8,0:0:0:0:
